  0
SECTION
  2
HEADER
  9
$ACADVER
  1
AC1014
  9
$ACADMAINTVER
 70
     8
  9
$DWGCODEPAGE
  3
ANSI_1252
  9
$INSBASE
 10
0.0
 20
0.0
 30
0.0
  9
$EXTMIN
 10
-2.825419
 20
-13.204634
 30
0.0
  9
$EXTMAX
 10
4.707342
 20
2.072534
 30
6.2355
  9
$LIMMIN
 10
0.0
 20
0.0
  9
$LIMMAX
 10
12.0
 20
9.0
  9
$ORTHOMODE
 70
     0
  9
$REGENMODE
 70
     1
  9
$FILLMODE
 70
     1
  9
$QTEXTMODE
 70
     0
  9
$MIRRTEXT
 70
     1
  9
$DRAGMODE
 70
     2
  9
$LTSCALE
 40
1.0
  9
$OSMODE
 70
    37
  9
$ATTMODE
 70
     0
  9
$TEXTSIZE
 40
0.2
  9
$TRACEWID
 40
0.05
  9
$TEXTSTYLE
  7
STANDARD
  9
$CLAYER
  8
0
  9
$CELTYPE
  6
BYLAYER
  9
$CECOLOR
 62
   256
  9
$CELTSCALE
 40
1.0
  9
$DELOBJ
 70
     1
  9
$DISPSILH
 70
     0
  9
$DIMSCALE
 40
0.0
  9
$DIMASZ
 40
0.179688
  9
$DIMEXO
 40
0.0625
  9
$DIMDLI
 40
0.375
  9
$DIMRND
 40
0.0
  9
$DIMDLE
 40
0.0
  9
$DIMEXE
 40
0.179688
  9
$DIMTP
 40
0.0
  9
$DIMTM
 40
0.0
  9
$DIMTXT
 40
0.125
  9
$DIMCEN
 40
0.089844
  9
$DIMTSZ
 40
0.0
  9
$DIMTOL
 70
     0
  9
$DIMLIM
 70
     0
  9
$DIMTIH
 70
     0
  9
$DIMTOH
 70
     0
  9
$DIMSE1
 70
     0
  9
$DIMSE2
 70
     0
  9
$DIMTAD
 70
     0
  9
$DIMZIN
 70
     4
  9
$DIMBLK
  1

  9
$DIMASO
 70
     1
  9
$DIMSHO
 70
     1
  9
$DIMPOST
  1

  9
$DIMAPOST
  1

  9
$DIMALT
 70
     1
  9
$DIMALTD
 70
     1
  9
$DIMALTF
 40
25.4
  9
$DIMLFAC
 40
1.0
  9
$DIMTOFL
 70
     0
  9
$DIMTVP
 40
0.0
  9
$DIMTIX
 70
     1
  9
$DIMSOXD
 70
     0
  9
$DIMSAH
 70
     0
  9
$DIMBLK1
  1

  9
$DIMBLK2
  1

  9
$DIMSTYLE
  2
ABECAD_3V
  9
$DIMCLRD
 70
     0
  9
$DIMCLRE
 70
     0
  9
$DIMCLRT
 70
     0
  9
$DIMTFAC
 40
1.5
  9
$DIMGAP
 40
0.09375
  9
$DIMJUST
 70
     0
  9
$DIMSD1
 70
     0
  9
$DIMSD2
 70
     0
  9
$DIMTOLJ
 70
     1
  9
$DIMTZIN
 70
     4
  9
$DIMALTZ
 70
     4
  9
$DIMALTTZ
 70
     4
  9
$DIMFIT
 70
     5
  9
$DIMUPT
 70
     0
  9
$DIMUNIT
 70
     7
  9
$DIMDEC
 70
     6
  9
$DIMTDEC
 70
     6
  9
$DIMALTU
 70
     2
  9
$DIMALTTD
 70
     1
  9
$DIMTXSTY
  7
STANDARD
  9
$DIMAUNIT
 70
     0
  9
$LUNITS
 70
     5
  9
$LUPREC
 70
     6
  9
$SKETCHINC
 40
0.1
  9
$FILLETRAD
 40
0.0
  9
$AUNITS
 70
     0
  9
$AUPREC
 70
     0
  9
$MENU
  1
acad
  9
$ELEVATION
 40
0.0
  9
$PELEVATION
 40
0.0
  9
$THICKNESS
 40
0.0
  9
$LIMCHECK
 70
     0
  9
$BLIPMODE
 70
     0
  9
$CHAMFERA
 40
0.0
  9
$CHAMFERB
 40
0.0
  9
$CHAMFERC
 40
0.0
  9
$CHAMFERD
 40
0.0
  9
$SKPOLY
 70
     0
  9
$TDCREATE
 40
2451670.441490278
  9
$TDUPDATE
 40
2452010.732171412
  9
$TDINDWG
 40
0.0068508102
  9
$TDUSRTIMER
 40
0.0068508102
  9
$USRTIMER
 70
     1
  9
$ANGBASE
 50
0.0
  9
$ANGDIR
 70
     0
  9
$PDMODE
 70
     2
  9
$PDSIZE
 40
0.0
  9
$PLINEWID
 40
0.0
  9
$COORDS
 70
     1
  9
$SPLFRAME
 70
     0
  9
$SPLINETYPE
 70
     6
  9
$SPLINESEGS
 70
     8
  9
$ATTDIA
 70
     0
  9
$ATTREQ
 70
     1
  9
$HANDLING
 70
     1
  9
$HANDSEED
  5
6BC
  9
$SURFTAB1
 70
     6
  9
$SURFTAB2
 70
     6
  9
$SURFTYPE
 70
     6
  9
$SURFU
 70
     6
  9
$SURFV
 70
     6
  9
$UCSNAME
  2

  9
$UCSORG
 10
0.0
 20
0.0
 30
0.0
  9
$UCSXDIR
 10
1.0
 20
0.0
 30
0.0
  9
$UCSYDIR
 10
0.0
 20
1.0
 30
0.0
  9
$PUCSNAME
  2

  9
$PUCSORG
 10
0.0
 20
0.0
 30
0.0
  9
$PUCSXDIR
 10
1.0
 20
0.0
 30
0.0
  9
$PUCSYDIR
 10
0.0
 20
1.0
 30
0.0
  9
$USERI1
 70
     0
  9
$USERI2
 70
     0
  9
$USERI3
 70
     0
  9
$USERI4
 70
     0
  9
$USERI5
 70
     0
  9
$USERR1
 40
0.0
  9
$USERR2
 40
0.0
  9
$USERR3
 40
0.0
  9
$USERR4
 40
0.0
  9
$USERR5
 40
0.0
  9
$WORLDVIEW
 70
     1
  9
$SHADEDGE
 70
     3
  9
$SHADEDIF
 70
    70
  9
$TILEMODE
 70
     0
  9
$MAXACTVP
 70
    16
  9
$PINSBASE
 10
0.0
 20
0.0
 30
0.0
  9
$PLIMCHECK
 70
     0
  9
$PEXTMIN
 10
0.0
 20
0.0
 30
0.0
  9
$PEXTMAX
 10
10.0
 20
7.5
 30
0.0
  9
$PLIMMIN
 10
-0.187029
 20
-0.186938
  9
$PLIMMAX
 10
10.187518
 20
7.829757
  9
$UNITMODE
 70
     0
  9
$VISRETAIN
 70
     0
  9
$PLINEGEN
 70
     0
  9
$PSLTSCALE
 70
     1
  9
$TREEDEPTH
 70
  3020
  9
$PICKSTYLE
 70
     1
  9
$CMLSTYLE
  2
STANDARD
  9
$CMLJUST
 70
     0
  9
$CMLSCALE
 40
1.0
  9
$PROXYGRAPHICS
 70
     1
  9
$MEASUREMENT
 70
     0
  0
ENDSEC
  0
SECTION
  2
CLASSES
  0
CLASS
  1
DICTIONARYVAR
  2
AcDbDictionaryVar
  3
"AutoCAD"
 90
        0
280
     0
281
     0
  0
CLASS
  1
ACDBDICTIONARYWDFLT
  2
AcDbDictionaryWithDefault
  3
AutoCAD 2000
 90
        0
280
     0
281
     0
  0
CLASS
  1
ACDBPLACEHOLDER
  2
AcDbPlaceHolder
  3
AutoCAD 2000
 90
        0
280
     0
281
     0
  0
CLASS
  1
LAYOUT
  2
AcDbLayout
  3
AutoCAD 2000
 90
        0
280
     0
281
     0
  0
CLASS
  1
LONG_TRANSACTION
  2
AcDbLongTransaction
  3
AutoCAD 2000
 90
        0
280
     0
281
     0
  0
CLASS
  1
LWPOLYLINE
  2
AcDbPolyline
  3
"AutoCAD"
 90
        0
280
     0
281
     1
  0
CLASS
  1
HATCH
  2
AcDbHatch
  3
"ACAD_SEDONA"
 90
        0
280
     0
281
     1
  0
CLASS
  1
XRECORD
  2
AcDbXrecord
  3
"<Built In>"
 90
        0
280
     0
281
     0
  0
CLASS
  1
LONG_TRANSACTION
  2
AcDbLongTransaction
  3
AutoCAD 2000
 90
        0
280
     0
281
     0
  0
CLASS
  1
LWPOLYLINE
  2
AcDbPolyline
  3
"AutoCAD"
 90
        0
280
     0
281
     1
  0
CLASS
  1
HATCH
  2
AcDbHatch
  3
"ACAD_SEDONA"
 90
        0
280
     0
281
     1
  0
CLASS
  1
XRECORD
  2
AcDbXrecord
  3
"<Built In>"
 90
        0
280
     0
281
     0
  0
CLASS
  1
LONG_TRANSACTION
  2
AcDbLongTransaction
  3
AutoCAD 2000
 90
        0
280
     0
281
     0
  0
CLASS
  1
LWPOLYLINE
  2
AcDbPolyline
  3
"AutoCAD"
 90
        0
280
     0
281
     1
  0
CLASS
  1
HATCH
  2
AcDbHatch
  3
"ACAD_SEDONA"
 90
        0
280
     0
281
     1
  0
CLASS
  1
XRECORD
  2
AcDbXrecord
  3
"<Built In>"
 90
        0
280
     0
281
     0
  0
CLASS
  1
LONG_TRANSACTION
  2
AcDbLongTransaction
  3
AutoCAD 2000
 90
        0
280
     0
281
     0
  0
CLASS
  1
LWPOLYLINE
  2
AcDbPolyline
  3
"AutoCAD"
 90
        0
280
     0
281
     1
  0
CLASS
  1
HATCH
  2
AcDbHatch
  3
"ACAD_SEDONA"
 90
        0
280
     0
281
     1
  0
CLASS
  1
XRECORD
  2
AcDbXrecord
  3
"<Built In>"
 90
        0
280
     0
281
     0
  0
ENDSEC
  0
SECTION
  2
TABLES
  0
TABLE
  2
VPORT
  5
469
100
AcDbSymbolTable
 70
     1
  0
VPORT
  5
643
102
{ACAD_XDICTIONARY
360
682
102
}
100
AcDbSymbolTableRecord
100
AcDbViewportTableRecord
  2
*ACTIVE
 70
     0
 10
0.0
 20
0.0
 11
1.0
 21
1.0
 12
0.940961
 22
-5.56605
 13
0.0
 23
0.0
 14
1.0
 24
1.0
 15
0.0
 25
0.0
 16
0.0
 26
0.0
 36
1.0
 17
0.0
 27
0.0
 37
0.0
 40
15.60337
 41
2.571429
 42
50.0
 43
0.0
 44
0.0
 50
0.0
 51
0.0
 71
     0
 72
   100
 73
     1
 74
     1
 75
     0
 76
     0
 77
     0
 78
     0
  0
ENDTAB
  0
TABLE
  2
LTYPE
  5
466
100
AcDbSymbolTable
 70
     1
  0
LTYPE
  5
472
100
AcDbSymbolTableRecord
100
AcDbLinetypeTableRecord
  2
BYBLOCK
 70
     0
  3

 72
    65
 73
     0
 40
0.0
  0
LTYPE
  5
473
100
AcDbSymbolTableRecord
100
AcDbLinetypeTableRecord
  2
BYLAYER
 70
     0
  3

 72
    65
 73
     0
 40
0.0
  0
LTYPE
  5
474
100
AcDbSymbolTableRecord
100
AcDbLinetypeTableRecord
  2
CONTINUOUS
 70
     0
  3
Solid line
 72
    65
 73
     0
 40
0.0
  0
ENDTAB
  0
TABLE
  2
LAYER
  5
463
100
AcDbSymbolTable
 70
     8
  0
LAYER
  5
46F
100
AcDbSymbolTableRecord
100
AcDbLayerTableRecord
  2
0
 70
     0
 62
     7
  6
CONTINUOUS
  0
LAYER
  5
485
100
AcDbSymbolTableRecord
100
AcDbLayerTableRecord
  2
AREA1
 70
     0
 62
     7
  6
CONTINUOUS
  0
LAYER
  5
486
100
AcDbSymbolTableRecord
100
AcDbLayerTableRecord
  2
AREA2
 70
     0
 62
     7
  6
CONTINUOUS
  0
LAYER
  5
494
102
{ACAD_XDICTIONARY
360
6AF
102
}
100
AcDbSymbolTableRecord
100
AcDbLayerTableRecord
  2
DEFPOINTS
 70
     0
 62
    -7
  6
CONTINUOUS
  0
LAYER
  5
495
100
AcDbSymbolTableRecord
100
AcDbLayerTableRecord
  2
DIMS-MTG-HOLES
 70
     0
 62
    -1
  6
CONTINUOUS
  0
LAYER
  5
4E9
100
AcDbSymbolTableRecord
100
AcDbLayerTableRecord
  2
SCALE
 70
     0
 62
    -7
  6
CONTINUOUS
  0
LAYER
  5
4EA
100
AcDbSymbolTableRecord
100
AcDbLayerTableRecord
  2
SNAP_POINTS
 70
     0
 62
    -1
  6
CONTINUOUS
  0
LAYER
  5
56D
100
AcDbSymbolTableRecord
100
AcDbLayerTableRecord
  2
ATTRIBUTES
 70
     0
 62
    -7
  6
CONTINUOUS
  0
ENDTAB
  0
TABLE
  2
STYLE
  5
464
100
AcDbSymbolTable
 70
     1
  0
STYLE
  5
470
100
AcDbSymbolTableRecord
100
AcDbTextStyleTableRecord
  2
STANDARD
 70
     0
 40
0.0
 41
1.0
 50
0.0
 71
     0
 42
0.2
  3
txt
  4

  0
ENDTAB
  0
TABLE
  2
VIEW
  5
467
100
AcDbSymbolTable
 70
     0
  0
ENDTAB
  0
TABLE
  2
UCS
  5
468
100
AcDbSymbolTable
 70
     0
  0
ENDTAB
  0
TABLE
  2
APPID
  5
46A
100
AcDbSymbolTable
 70
     3
  0
APPID
  5
471
100
AcDbSymbolTableRecord
100
AcDbRegAppTableRecord
  2
ACAD
 70
     0
  0
APPID
  5
47E
100
AcDbSymbolTableRecord
100
AcDbRegAppTableRecord
  2
AVE_RENDER
 70
     0
  0
APPID
  5
56F
100
AcDbSymbolTableRecord
100
AcDbRegAppTableRecord
  2
AME_SOL
 70
     0
  0
ENDTAB
  0
TABLE
  2
DIMSTYLE
  5
46B
100
AcDbSymbolTable
 70
     3
  0
DIMSTYLE
105
496
102
{ACAD_XDICTIONARY
360
6B1
102
}
100
AcDbSymbolTableRecord
100
AcDbDimStyleTableRecord
  2
ABECAD
 70
     0
  3

  4

  5

  6

  7

 40
0.0
 41
0.179688
 42
0.0625
 43
0.375
 44
0.179688
 45
0.0
 46
0.0
 47
0.0
 48
0.0
140
0.125
141
0.089844
142
0.0
143
25.4
144
1.0
145
0.0
146
1.5
147
0.09375
 71
     0
 72
     0
 73
     0
 74
     0
 75
     0
 76
     0
 77
     0
 78
     4
170
     1
171
     1
172
     0
173
     0
174
     1
175
     0
176
     0
177
     0
178
     0
270
     7
271
     6
272
     6
273
     2
274
     1
340
470
275
     0
280
     0
281
     0
282
     0
283
     1
284
     4
285
     4
286
     4
287
     5
288
     0
  0
DIMSTYLE
105
49A
102
{ACAD_XDICTIONARY
360
6B3
102
}
102
{ACAD_REACTORS
330
635
102
}
100
AcDbSymbolTableRecord
100
AcDbDimStyleTableRecord
  2
ABECAD_3V
 70
     0
  3

  4

  5

  6

  7

 40
0.0
 41
0.179688
 42
0.0625
 43
0.375
 44
0.179688
 45
0.0
 46
0.0
 47
0.0
 48
0.0
140
0.125
141
0.089844
142
0.0
143
25.4
144
1.0
145
0.0
146
1.5
147
0.09375
 71
     0
 72
     0
 73
     0
 74
     0
 75
     0
 76
     0
 77
     0
 78
     4
170
     1
171
     1
172
     0
173
     0
174
     1
175
     0
176
     0
177
     0
178
     0
270
     7
271
     6
272
     6
273
     2
274
     1
340
470
275
     0
280
     0
281
     0
282
     0
283
     1
284
     4
285
     4
286
     4
287
     5
288
     0
  0
DIMSTYLE
105
56E
102
{ACAD_XDICTIONARY
360
6B7
102
}
102
{ACAD_REACTORS
330
626
330
627
102
}
100
AcDbSymbolTableRecord
100
AcDbDimStyleTableRecord
  2
ABECAD_3D
 70
     0
  3

  4

  5

  6

  7

 40
1.0
 41
0.18
 42
0.0625
 43
0.375
 44
0.18
 45
0.0
 46
0.0
 47
0.0
 48
0.0
140
0.18
141
0.09
142
0.0
143
25.4
144
1.0
145
0.0
146
1.5
147
0.09
 71
     0
 72
     0
 73
     0
 74
     1
 75
     0
 76
     0
 77
     0
 78
     4
170
     1
171
     1
172
     0
173
     0
174
     0
175
     0
176
     0
177
     0
178
     0
270
     7
271
     6
272
     6
273
     2
274
     1
340
470
275
     0
280
     0
281
     0
282
     0
283
     1
284
     4
285
     4
286
     4
287
     3
288
     0
  0
ENDTAB
  0
TABLE
  2
BLOCK_RECORD
  5
462
100
AcDbSymbolTable
 70
     5
  0
BLOCK_RECORD
  5
478
102
{ACAD_XDICTIONARY
360
4D2
102
}
100
AcDbSymbolTableRecord
100
AcDbBlockTableRecord
  2
*MODEL_SPACE
  0
BLOCK_RECORD
  5
475
102
{ACAD_XDICTIONARY
360
4D0
102
}
100
AcDbSymbolTableRecord
100
AcDbBlockTableRecord
  2
*PAPER_SPACE
  0
BLOCK_RECORD
  5
545
102
{ACAD_XDICTIONARY
360
680
102
}
100
AcDbSymbolTableRecord
100
AcDbBlockTableRecord
  2
SCALE
  0
BLOCK_RECORD
  5
553
100
AcDbSymbolTableRecord
100
AcDbBlockTableRecord
  2
*D1
  0
BLOCK_RECORD
  5
560
100
AcDbSymbolTableRecord
100
AcDbBlockTableRecord
  2
*D2
  0
BLOCK_RECORD
  5
570
100
AcDbSymbolTableRecord
100
AcDbBlockTableRecord
  2
ABCHA210
  0
BLOCK_RECORD
  5
636
100
AcDbSymbolTableRecord
100
AcDbBlockTableRecord
  2
*D4
  0
ENDTAB
  0
ENDSEC
  0
SECTION
  2
BLOCKS
  0
BLOCK
  5
48B
100
AcDbEntity
  8
0
100
AcDbBlockBegin
  2
*MODEL_SPACE
 70
     0
 10
0.0
 20
0.0
 30
0.0
  3
*MODEL_SPACE
  1

  0
ENDBLK
  5
48C
100
AcDbEntity
  8
0
100
AcDbBlockEnd
  0
BLOCK
  5
489
100
AcDbEntity
 67
     1
  8
0
100
AcDbBlockBegin
  2
*PAPER_SPACE
 70
     0
 10
0.0
 20
0.0
 30
0.0
  3
*PAPER_SPACE
  1

  0
ENDBLK
  5
48A
100
AcDbEntity
 67
     1
  8
0
100
AcDbBlockEnd
  0
BLOCK
  5
551
100
AcDbEntity
  8
0
100
AcDbBlockBegin
  2
SCALE
 70
     0
 10
0.0
 20
0.0
 30
0.0
  3
SCALE
  1

  0
LWPOLYLINE
  5
546
100
AcDbEntity
  8
SCALE
100
AcDbPolyline
 90
        4
 70
     1
 43
0.0
 10
0.0
 20
0.0
 10
1.135629
 20
0.0
 10
1.135629
 20
-0.84161
 10
0.0
 20
-0.84161
  0
LINE
  5
547
100
AcDbEntity
  8
SCALE
100
AcDbLine
 10
0.057999
 20
-0.380078
 30
0.0
 11
1.057999
 21
-0.380078
 31
0.0
  0
LINE
  5
548
100
AcDbEntity
  8
SCALE
100
AcDbLine
 10
0.057999
 20
-0.480078
 30
0.0
 11
0.057999
 21
-0.280078
 31
0.0
  0
TEXT
  5
549
100
AcDbEntity
  8
SCALE
100
AcDbText
 10
0.117421
 20
-0.634339
 30
0.0
 40
0.0625
  1
[10mm]
100
AcDbText
  0
LINE
  5
54A
100
AcDbEntity
  8
SCALE
100
AcDbLine
 10
0.057999
 20
-0.680078
 30
0.0
 11
0.451699
 21
-0.680078
 31
0.0
  0
LINE
  5
54B
100
AcDbEntity
  8
SCALE
100
AcDbLine
 10
0.057999
 20
-0.780078
 30
0.0
 11
0.057999
 21
-0.580078
 31
0.0
  0
LINE
  5
54C
100
AcDbEntity
  8
SCALE
100
AcDbLine
 10
0.451699
 20
-0.780078
 30
0.0
 11
0.451699
 21
-0.580078
 31
0.0
  0
TEXT
  5
54D
100
AcDbEntity
  8
SCALE
100
AcDbText
 10
0.059529
 20
-0.105201
 30
0.0
 40
0.0625
  1
SCALE:
100
AcDbText
  0
TEXT
  5
54E
100
AcDbEntity
  8
SCALE
100
AcDbText
 10
0.421282
 20
-0.31103
 30
0.0
 40
0.0625
  1
1 Inch
100
AcDbText
  0
LINE
  5
54F
100
AcDbEntity
  8
SCALE
100
AcDbLine
 10
1.057999
 20
-0.480078
 30
0.0
 11
1.057999
 21
-0.280078
 31
0.0
  0
LINE
  5
550
100
AcDbEntity
  8
SCALE
100
AcDbLine
 10
1.057999
 20
-0.380078
 30
0.0
 11
1.057999
 21
-0.480078
 31
0.0
  0
ENDBLK
  5
552
100
AcDbEntity
  8
0
100
AcDbBlockEnd
  0
BLOCK
  5
55E
100
AcDbEntity
  8
0
100
AcDbBlockBegin
  2
*D1
 70
     1
 10
0.0
 20
0.0
 30
0.0
  3
*D1
  1

  0
LINE
  5
554
100
AcDbEntity
  8
AREA1
 62
     0
100
AcDbLine
 10
1.8613
 20
-11.96
 30
0.0
 11
4.707342
 21
-11.96
 31
0.0
1001
ACAD
1000
RTLwPs
1070
   158
  0
LINE
  5
555
100
AcDbEntity
  8
AREA1
 62
     0
100
AcDbLine
 10
1.8613
 20
0.4439
 30
0.0
 11
4.707342
 21
0.4439
 31
0.0
1001
ACAD
1000
RTLwPs
1070
   158
  0
LINE
  5
556
100
AcDbEntity
  8
AREA1
 62
     0
100
AcDbLine
 10
4.527342
 20
-11.78
 30
0.0
 11
4.527342
 21
-7.01805
 31
0.0
1001
ACAD
1000
RTLwPs
1070
   158
  0
LINE
  5
557
100
AcDbEntity
  8
AREA1
 62
     0
100
AcDbLine
 10
4.527342
 20
0.2639
 30
0.0
 11
4.527342
 21
-4.49805
 31
0.0
1001
ACAD
1000
RTLwPs
1070
   158
  0
SOLID
  5
558
100
AcDbEntity
  8
AREA1
 62
     0
100
AcDbTrace
 10
4.497342
 20
-11.78
 30
0.0
 11
4.557342
 21
-11.78
 31
0.0
 12
4.527342
 22
-11.96
 32
0.0
 13
4.527342
 23
-11.96
 33
0.0
  0
SOLID
  5
559
100
AcDbEntity
  8
AREA1
 62
     0
100
AcDbTrace
 10
4.497342
 20
0.2639
 30
0.0
 11
4.557342
 21
0.2639
 31
0.0
 12
4.527342
 22
0.4439
 32
0.0
 13
4.527342
 23
0.4439
 33
0.0
  0
MTEXT
  5
55A
100
AcDbEntity
  8
AREA1
 62
     0
100
AcDbMText
 10
4.527342
 20
-5.75805
 30
0.0
 40
0.18
 41
0.0
 71
     5
 72
     1
  1
\A1;12 13/32 [315.1]
 11
0.0
 21
1.0
 31
0.0
1001
ACAD
1000
MTEXTBEGIN
1070
    73
1070
     1
1070
    44
1040
1.0
1070
    74
1070
     0
1000
MTEXTEND
1000
MTEXTBEGIN
1070
    73
1070
     1
1070
    44
1040
1.0
1070
    74
1070
     0
1000
MTEXTEND
1000
MTEXTBEGIN
1070
    73
1070
     1
1070
    44
1040
1.0
1070
    74
1070
     0
1000
MTEXTEND
1000
MTEXTBEGIN
1070
    73
1070
     1
1070
    44
1040
1.0
1070
    74
1070
     0
1000
MTEXTEND
  0
POINT
  5
55B
100
AcDbEntity
  8
DEFPOINTS
 62
     0
100
AcDbPoint
 10
1.7988
 20
-11.96
 30
0.0
  0
POINT
  5
55C
100
AcDbEntity
  8
DEFPOINTS
 62
     0
100
AcDbPoint
 10
1.7988
 20
0.4439
 30
0.0
  0
POINT
  5
55D
100
AcDbEntity
  8
DEFPOINTS
 62
     0
100
AcDbPoint
 10
4.527342
 20
0.4439
 30
0.0
  0
ENDBLK
  5
55F
100
AcDbEntity
  8
0
100
AcDbBlockEnd
  0
BLOCK
  5
56B
100
AcDbEntity
  8
0
100
AcDbBlockBegin
  2
*D2
 70
     1
 10
0.0
 20
0.0
 30
0.0
  3
*D2
  1

  0
LINE
  5
561
100
AcDbEntity
  8
AREA1
 62
     0
100
AcDbLine
 10
2.7588
 20
-0.3595
 30
0.0
 11
2.7588
 21
2.072534
 31
0.0
1001
ACAD
1000
RTLwPs
1070
   158
  0
LINE
  5
562
100
AcDbEntity
  8
AREA1
 62
     0
100
AcDbLine
 10
-1.7512
 20
0.5064
 30
0.0
 11
-1.7512
 21
2.072534
 31
0.0
1001
ACAD
1000
RTLwPs
1070
   158
  0
LINE
  5
563
100
AcDbEntity
  8
AREA1
 62
     0
100
AcDbLine
 10
2.5788
 20
1.892534
 30
0.0
 11
1.7338
 21
1.892534
 31
0.0
1001
ACAD
1000
RTLwPs
1070
   158
  0
LINE
  5
564
100
AcDbEntity
  8
AREA1
 62
     0
100
AcDbLine
 10
-1.5712
 20
1.892534
 30
0.0
 11
-0.7262
 21
1.892534
 31
0.0
1001
ACAD
1000
RTLwPs
1070
   158
  0
SOLID
  5
565
100
AcDbEntity
  8
AREA1
 62
     0
100
AcDbTrace
 10
2.5788
 20
1.922534
 30
0.0
 11
2.5788
 21
1.862534
 31
0.0
 12
2.7588
 22
1.892534
 32
0.0
 13
2.7588
 23
1.892534
 33
0.0
  0
SOLID
  5
566
100
AcDbEntity
  8
AREA1
 62
     0
100
AcDbTrace
 10
-1.5712
 20
1.922534
 30
0.0
 11
-1.5712
 21
1.862534
 31
0.0
 12
-1.7512
 22
1.892534
 32
0.0
 13
-1.7512
 23
1.892534
 33
0.0
  0
MTEXT
  5
567
100
AcDbEntity
  8
AREA1
 62
     0
100
AcDbMText
 10
0.5038
 20
1.892534
 30
0.0
 40
0.18
 41
0.0
 71
     5
 72
     1
  1
\A1;4 33/64 [114.6]
1001
ACAD
1000
MTEXTBEGIN
1070
    73
1070
     1
1070
    44
1040
1.0
1070
    74
1070
     0
1000
MTEXTEND
1000
MTEXTBEGIN
1070
    73
1070
     1
1070
    44
1040
1.0
1070
    74
1070
     0
1000
MTEXTEND
1000
MTEXTBEGIN
1070
    73
1070
     1
1070
    44
1040
1.0
1070
    74
1070
     0
1000
MTEXTEND
1000
MTEXTBEGIN
1070
    73
1070
     1
1070
    44
1040
1.0
1070
    74
1070
     0
1000
MTEXTEND
  0
POINT
  5
568
100
AcDbEntity
  8
DEFPOINTS
 62
     0
100
AcDbPoint
 10
2.7588
 20
-0.422
 30
0.126
  0
POINT
  5
569
100
AcDbEntity
  8
DEFPOINTS
 62
     0
100
AcDbPoint
 10
-1.7512
 20
0.4439
 30
0.0
  0
POINT
  5
56A
100
AcDbEntity
  8
DEFPOINTS
 62
     0
100
AcDbPoint
 10
-1.7512
 20
1.892534
 30
0.0
  0
ENDBLK
  5
56C
100
AcDbEntity
  8
0
100
AcDbBlockEnd
  0
BLOCK
  5
628
100
AcDbEntity
  8
0
100
AcDbBlockBegin
  2
ABCHA210
 70
     2
 10
0.0
 20
0.0
 30
0.0
  3
ABCHA210
  1

  0
ATTDEF
  5
571
100
AcDbEntity
  8
ATTRIBUTES
100
AcDbText
 10
-1.592099
 20
-8.765385
 30
0.0
 40
0.18
  1
ALLEN-BRADLEY
100
AcDbAttributeDefinition
  3
MANUFACTURER NAME?
  2
AC_VND_LABEL
 70
     1
  0
ATTDEF
  5
572
100
AcDbEntity
  8
ATTRIBUTES
100
AcDbText
 10
-1.592099
 20
-9.140385
 30
0.0
 40
0.18
  1
1771-P7
100
AcDbAttributeDefinition
  3
CATALOG NUMBER?
  2
AC_PART_NO
 70
     1
  0
ATTDEF
  5
573
100
AcDbEntity
  8
ATTRIBUTES
100
AcDbText
 10
-1.592099
 20
-9.515385
 30
0.0
 40
0.18
  1
1771-P7: POWER SUPPLY, STAND-ALONE, 16A, 120/220V AC
100
AcDbAttributeDefinition
  3
PART DESCRIPTION?
  2
AC_DESCRIPTION
 70
     1
  0
ATTDEF
  5
574
100
AcDbEntity
  8
ATTRIBUTES
100
AcDbText
 10
-1.592099
 20
-9.890385
 30
0.0
 40
0.18
  1

100
AcDbAttributeDefinition
  3
DEVICE ID?
  2
DEVICE_ID
 70
     1
  0
ATTDEF
  5
575
100
AcDbEntity
  8
ATTRIBUTES
100
AcDbText
 10
-1.592099
 20
-10.265385
 30
0.0
 40
0.18
  1

100
AcDbAttributeDefinition
  3
CUSTOMER PART NUMBER?
  2
AC_CPART_NO
 70
     1
  0
ATTDEF
  5
576
100
AcDbEntity
  8
ATTRIBUTES
100
AcDbText
 10
-1.592099
 20
-10.640385
 30
0.0
 40
0.18
  1

100
AcDbAttributeDefinition
  3
CUSTOMER NOTE?
  2
AC_NOTE
 70
     1
  0
ATTDEF
  5
577
100
AcDbEntity
  8
ATTRIBUTES
100
AcDbText
 10
-1.592099
 20
-11.015385
 30
0.0
 40
0.18
  1

100
AcDbAttributeDefinition
  3
FASTENER DATA?
  2
FASTENER
 70
     1
  0
ATTDEF
  5
578
100
AcDbEntity
  8
ATTRIBUTES
100
AcDbText
 10
-1.592099
 20
-11.390385
 30
0.0
 40
0.18
  1
INCH
100
AcDbAttributeDefinition
  3
UNIT OF SCALE?
  2
AC_SCALE_UNIT
 70
     1
  0
ATTDEF
  5
579
100
AcDbEntity
  8
ATTRIBUTES
100
AcDbText
 10
-1.592099
 20
-11.765385
 30
0.0
 40
0.18
  1
0
100
AcDbAttributeDefinition
  3
VIEW CODE?
  2
AC_VIEW_CODE
 70
     1
  0
INSERT
  5
57A
100
AcDbEntity
  8
SCALE
100
AcDbBlockReference
  2
SCALE
 10
-1.764716
 20
-12.363024
 30
0.0
  0
POLYLINE
  5
57B
100
AcDbEntity
  8
0
100
AcDbPolygonMesh
 66
     1
 10
0.0
 20
0.0
 30
0.0
 70
    16
 71
     6
 72
     3
  0
VERTEX
  5
57C
100
AcDbEntity
  8
0
100
AcDbVertex
100
AcDbPolygonMeshVertex
 10
2.7588
 20
-0.422
 30
4.477
 70
    64
  0
VERTEX
  5
57D
100
AcDbEntity
  8
0
100
AcDbVertex
100
AcDbPolygonMeshVertex
 10
2.7588
 20
-0.422
 30
0.126
 70
    64
  0
VERTEX
  5
57E
100
AcDbEntity
  8
0
100
AcDbVertex
100
AcDbPolygonMeshVertex
 10
2.7588
 20
-0.422
 30
0.126
 70
    64
  0
VERTEX
  5
57F
100
AcDbEntity
  8
0
100
AcDbVertex
100
AcDbPolygonMeshVertex
 10
2.759193
 20
-11.045
 30
4.477
 70
    64
  0
VERTEX
  5
580
100
AcDbEntity
  8
0
100
AcDbVertex
100
AcDbPolygonMeshVertex
 10
2.759193
 20
-11.045
 30
0.126
 70
    64
  0
VERTEX
  5
581
100
AcDbEntity
  8
0
100
AcDbVertex
100
AcDbPolygonMeshVertex
 10
2.759193
 20
-11.045
 30
0.126
 70
    64
  0
VERTEX
  5
582
100
AcDbEntity
  8
0
100
AcDbVertex
100
AcDbPolygonMeshVertex
 10
0.9188
 20
-11.045068
 30
4.477
 70
    64
  0
VERTEX
  5
583
100
AcDbEntity
  8
0
100
AcDbVertex
100
AcDbPolygonMeshVertex
 10
0.9188
 20
-11.045068
 30
0.126
 70
    64
  0
VERTEX
  5
584
100
AcDbEntity
  8
0
100
AcDbVertex
100
AcDbPolygonMeshVertex
 10
2.759193
 20
-11.045
 30
0.126
 70
    64
  0
VERTEX
  5
585
100
AcDbEntity
  8
0
100
AcDbVertex
100
AcDbPolygonMeshVertex
 10
0.918407
 20
-0.422068
 30
4.477
 70
    64
  0
VERTEX
  5
586
100
AcDbEntity
  8
0
100
AcDbVertex
100
AcDbPolygonMeshVertex
 10
0.918407
 20
-0.422068
 30
0.126
 70
    64
  0
VERTEX
  5
587
100
AcDbEntity
  8
0
100
AcDbVertex
100
AcDbPolygonMeshVertex
 10
2.7588
 20
-0.422
 30
0.126
 70
    64
  0
VERTEX
  5
588
100
AcDbEntity
  8
0
100
AcDbVertex
100
AcDbPolygonMeshVertex
 10
0.918407
 20
-0.422068
 30
4.477
 70
    64
  0
VERTEX
  5
589
100
AcDbEntity
  8
0
100
AcDbVertex
100
AcDbPolygonMeshVertex
 10
0.918407
 20
-0.422068
 30
4.477
 70
    64
  0
VERTEX
  5
58A
100
AcDbEntity
  8
0
100
AcDbVertex
100
AcDbPolygonMeshVertex
 10
2.7588
 20
-0.422
 30
4.477
 70
    64
  0
VERTEX
  5
58B
100
AcDbEntity
  8
0
100
AcDbVertex
100
AcDbPolygonMeshVertex
 10
0.9188
 20
-11.045068
 30
4.477
 70
    64
  0
VERTEX
  5
58C
100
AcDbEntity
  8
0
100
AcDbVertex
100
AcDbPolygonMeshVertex
 10
0.9188
 20
-11.045068
 30
4.477
 70
    64
  0
VERTEX
  5
58D
100
AcDbEntity
  8
0
100
AcDbVertex
100
AcDbPolygonMeshVertex
 10
2.759193
 20
-11.045
 30
4.477
 70
    64
  0
SEQEND
  5
58E
100
AcDbEntity
  8
0
  0
POLYLINE
  5
58F
100
AcDbEntity
  8
0
100
AcDbPolygonMesh
 66
     1
 10
0.0
 20
0.0
 30
0.0
 70
    16
 71
     6
 72
     3
  0
VERTEX
  5
590
100
AcDbEntity
  8
0
100
AcDbVertex
100
AcDbPolygonMeshVertex
 10
0.918801
 20
-11.17
 30
6.035542
 70
    64
  0
VERTEX
  5
591
100
AcDbEntity
  8
0
100
AcDbVertex
100
AcDbPolygonMeshVertex
 10
0.918801
 20
-11.17
 30
0.125
 70
    64
  0
VERTEX
  5
592
100
AcDbEntity
  8
0
100
AcDbVertex
100
AcDbPolygonMeshVertex
 10
0.918801
 20
-11.17
 30
0.125
 70
    64
  0
VERTEX
  5
593
100
AcDbEntity
  8
0
100
AcDbVertex
100
AcDbPolygonMeshVertex
 10
-1.7512
 20
-11.17
 30
6.035542
 70
    64
  0
VERTEX
  5
594
100
AcDbEntity
  8
0
100
AcDbVertex
100
AcDbPolygonMeshVertex
 10
-1.7512
 20
-11.17
 30
0.125
 70
    64
  0
VERTEX
  5
595
100
AcDbEntity
  8
0
100
AcDbVertex
100
AcDbPolygonMeshVertex
 10
-1.7512
 20
-11.17
 30
0.125
 70
    64
  0
VERTEX
  5
596
100
AcDbEntity
  8
0
100
AcDbVertex
100
AcDbPolygonMeshVertex
 10
-1.7512
 20
-0.421702
 30
6.035542
 70
    64
  0
VERTEX
  5
597
100
AcDbEntity
  8
0
100
AcDbVertex
100
AcDbPolygonMeshVertex
 10
-1.7512
 20
-0.421702
 30
0.125
 70
    64
  0
VERTEX
  5
598
100
AcDbEntity
  8
0
100
AcDbVertex
100
AcDbPolygonMeshVertex
 10
-1.7512
 20
-11.17
 30
0.125
 70
    64
  0
VERTEX
  5
599
100
AcDbEntity
  8
0
100
AcDbVertex
100
AcDbPolygonMeshVertex
 10
0.918801
 20
-0.421702
 30
6.035542
 70
    64
  0
VERTEX
  5
59A
100
AcDbEntity
  8
0
100
AcDbVertex
100
AcDbPolygonMeshVertex
 10
0.918801
 20
-0.421702
 30
0.125
 70
    64
  0
VERTEX
  5
59B
100
AcDbEntity
  8
0
100
AcDbVertex
100
AcDbPolygonMeshVertex
 10
0.918801
 20
-11.17
 30
0.125
 70
    64
  0
VERTEX
  5
59C
100
AcDbEntity
  8
0
100
AcDbVertex
100
AcDbPolygonMeshVertex
 10
0.918801
 20
-0.421702
 30
6.035542
 70
    64
  0
VERTEX
  5
59D
100
AcDbEntity
  8
0
100
AcDbVertex
100
AcDbPolygonMeshVertex
 10
0.918801
 20
-0.421702
 30
6.035542
 70
    64
  0
VERTEX
  5
59E
100
AcDbEntity
  8
0
100
AcDbVertex
100
AcDbPolygonMeshVertex
 10
0.918801
 20
-11.17
 30
6.035542
 70
    64
  0
VERTEX
  5
59F
100
AcDbEntity
  8
0
100
AcDbVertex
100
AcDbPolygonMeshVertex
 10
-1.7512
 20
-0.421702
 30
6.035542
 70
    64
  0
VERTEX
  5
5A0
100
AcDbEntity
  8
0
100
AcDbVertex
100
AcDbPolygonMeshVertex
 10
-1.7512
 20
-0.421702
 30
6.035542
 70
    64
  0
VERTEX
  5
5A1
100
AcDbEntity
  8
0
100
AcDbVertex
100
AcDbPolygonMeshVertex
 10
-1.7512
 20
-11.17
 30
6.035542
 70
    64
  0
SEQEND
  5
5A2
100
AcDbEntity
  8
0
  0
POLYLINE
  5
5A3
100
AcDbEntity
  8
0
100
AcDbPolygonMesh
 66
     1
 10
0.0
 20
0.0
 30
0.0
 70
    16
 71
     6
 72
     3
  0
VERTEX
  5
5A4
100
AcDbEntity
  8
0
100
AcDbVertex
100
AcDbPolygonMeshVertex
 10
1.7988
 20
-11.96
 30
0.125
 70
    64
  0
VERTEX
  5
5A5
100
AcDbEntity
  8
0
100
AcDbVertex
100
AcDbPolygonMeshVertex
 10
1.7988
 20
-11.96
 30
0.0
 70
    64
  0
VERTEX
  5
5A6
100
AcDbEntity
  8
0
100
AcDbVertex
100
AcDbPolygonMeshVertex
 10
1.7988
 20
-11.96
 30
0.0
 70
    64
  0
VERTEX
  5
5A7
100
AcDbEntity
  8
0
100
AcDbVertex
100
AcDbPolygonMeshVertex
 10
-1.7512
 20
-11.96
 30
0.125
 70
    64
  0
VERTEX
  5
5A8
100
AcDbEntity
  8
0
100
AcDbVertex
100
AcDbPolygonMeshVertex
 10
-1.7512
 20
-11.96
 30
0.0
 70
    64
  0
VERTEX
  5
5A9
100
AcDbEntity
  8
0
100
AcDbVertex
100
AcDbPolygonMeshVertex
 10
-1.7512
 20
-11.96
 30
0.0
 70
    64
  0
VERTEX
  5
5AA
100
AcDbEntity
  8
0
100
AcDbVertex
100
AcDbPolygonMeshVertex
 10
-1.7512
 20
0.4439
 30
0.125
 70
    64
  0
VERTEX
  5
5AB
100
AcDbEntity
  8
0
100
AcDbVertex
100
AcDbPolygonMeshVertex
 10
-1.7512
 20
0.4439
 30
0.0
 70
    64
  0
VERTEX
  5
5AC
100
AcDbEntity
  8
0
100
AcDbVertex
100
AcDbPolygonMeshVertex
 10
-1.7512
 20
-11.96
 30
0.0
 70
    64
  0
VERTEX
  5
5AD
100
AcDbEntity
  8
0
100
AcDbVertex
100
AcDbPolygonMeshVertex
 10
1.7988
 20
0.4439
 30
0.125
 70
    64
  0
VERTEX
  5
5AE
100
AcDbEntity
  8
0
100
AcDbVertex
100
AcDbPolygonMeshVertex
 10
1.7988
 20
0.4439
 30
0.0
 70
    64
  0
VERTEX
  5
5AF
100
AcDbEntity
  8
0
100
AcDbVertex
100
AcDbPolygonMeshVertex
 10
1.7988
 20
-11.96
 30
0.0
 70
    64
  0
VERTEX
  5
5B0
100
AcDbEntity
  8
0
100
AcDbVertex
100
AcDbPolygonMeshVertex
 10
1.7988
 20
0.4439
 30
0.125
 70
    64
  0
VERTEX
  5
5B1
100
AcDbEntity
  8
0
100
AcDbVertex
100
AcDbPolygonMeshVertex
 10
1.7988
 20
0.4439
 30
0.125
 70
    64
  0
VERTEX
  5
5B2
100
AcDbEntity
  8
0
100
AcDbVertex
100
AcDbPolygonMeshVertex
 10
1.7988
 20
-11.96
 30
0.125
 70
    64
  0
VERTEX
  5
5B3
100
AcDbEntity
  8
0
100
AcDbVertex
100
AcDbPolygonMeshVertex
 10
-1.7512
 20
0.4439
 30
0.125
 70
    64
  0
VERTEX
  5
5B4
100
AcDbEntity
  8
0
100
AcDbVertex
100
AcDbPolygonMeshVertex
 10
-1.7512
 20
0.4439
 30
0.125
 70
    64
  0
VERTEX
  5
5B5
100
AcDbEntity
  8
0
100
AcDbVertex
100
AcDbPolygonMeshVertex
 10
-1.7512
 20
-11.96
 30
0.125
 70
    64
  0
SEQEND
  5
5B6
100
AcDbEntity
  8
0
  0
LINE
  5
5B7
100
AcDbEntity
  8
0
100
AcDbLine
 39
0.001
 10
-1.5912
 20
-3.175
 30
6.0355
 11
-1.5912
 21
-1.155
 31
6.0355
  0
LINE
  5
5B8
100
AcDbEntity
  8
0
100
AcDbLine
 39
0.001
 10
-0.7912
 20
-1.155
 30
6.0355
 11
-0.7912
 21
-3.175
 31
6.0355
  0
ARC
  5
5B9
100
AcDbEntity
  8
0
100
AcDbCircle
 10
-0.872623
 20
3.077904
 30
11.172853
 40
0.1
210
0.0
220
-1.0
230
0.0
100
AcDbArc
 50
0.0
 51
110.427396
  0
LINE
  5
5BA
100
AcDbEntity
  8
0
100
AcDbLine
 10
-1.244523
 20
-11.172853
 30
3.046104
 11
-0.907525
 21
-11.172853
 31
3.171616
210
0.0
220
-1.0
230
0.0
  0
LINE
  5
5BB
100
AcDbEntity
  8
0
100
AcDbLine
 10
0.6168
 20
-11.171994
 30
5.4441
 11
0.6168
 21
-11.171994
 31
0.7169
  0
LINE
  5
5BC
100
AcDbEntity
  8
0
100
AcDbLine
 10
-1.5592
 20
-11.171994
 30
0.7169
 11
-1.5592
 21
-11.171994
 31
5.4441
  0
LINE
  5
5BD
100
AcDbEntity
  8
0
100
AcDbLine
 10
0.6168
 20
-11.171994
 30
0.7169
 11
-1.5592
 21
-11.171994
 31
0.7169
  0
LINE
  5
5BE
100
AcDbEntity
  8
0
100
AcDbLine
 10
-1.309621
 20
-11.172853
 30
1.68977
 11
-1.309621
 21
-11.172853
 31
2.952393
210
0.0
220
-1.0
230
0.0
  0
LINE
  5
5BF
100
AcDbEntity
  8
0
100
AcDbLine
 10
-0.772623
 20
-11.172853
 30
3.077904
 11
-0.772623
 21
-11.172853
 31
1.563042
210
0.0
220
-1.0
230
0.0
  0
LINE
  5
5C0
100
AcDbEntity
  8
0
100
AcDbLine
 10
-0.907822
 20
-11.172853
 30
1.469442
 11
-1.244819
 21
-11.172853
 31
1.59617
210
0.0
220
-1.0
230
0.0
  0
ARC
  5
5C1
100
AcDbEntity
  8
0
100
AcDbCircle
 10
-1.209621
 20
1.68977
 30
11.172853
 40
0.1
210
0.0
220
-1.0
230
0.0
100
AcDbArc
 50
180.0
 51
249.391249
  0
ARC
  5
5C2
100
AcDbEntity
  8
0
100
AcDbCircle
 10
-0.872623
 20
1.563042
 30
11.172853
 40
0.1
210
0.0
220
-1.0
230
0.0
100
AcDbArc
 50
249.391249
 51
0.0
  0
ARC
  5
5C3
100
AcDbEntity
  8
0
100
AcDbCircle
 10
-1.209621
 20
2.952393
 30
11.172853
 40
0.1
210
0.0
220
-1.0
230
0.0
100
AcDbArc
 50
110.427396
 51
180.0
  0
ARC
  5
5C4
100
AcDbEntity
  8
0
100
AcDbCircle
 39
0.125
 10
-0.0012
 20
-11.5
 30
0.0
 40
0.165
100
AcDbArc
 50
0.0
 51
180.0
  0
LINE
  5
5C5
100
AcDbEntity
  8
0
100
AcDbLine
 39
0.125
 10
-0.1662
 20
-11.5
 30
0.0
 11
-0.1662
 21
-11.96
 31
0.0
  0
LINE
  5
5C6
100
AcDbEntity
  8
0
100
AcDbLine
 39
0.125
 10
0.1638
 20
-11.5
 30
0.0
 11
0.1638
 21
-11.96
 31
0.0
  0
LINE
  5
5C7
100
AcDbEntity
  8
0
100
AcDbLine
 10
-1.5592
 20
-11.171994
 30
5.4441
 11
0.6168
 21
-11.171994
 31
5.4441
  0
TEXT
  5
5C8
100
AcDbEntity
  8
0
100
AcDbText
 39
0.001
 10
-0.6912
 20
-5.03
 30
6.0355
 40
0.2
  1
FUSE
100
AcDbText
  0
TEXT
  5
5C9
100
AcDbEntity
  8
0
100
AcDbText
 39
0.001
 10
-0.568569
 20
-2.78
 30
6.0355
 40
0.2
  1
GND
100
AcDbText
  0
TEXT
  5
5CA
100
AcDbEntity
  8
0
100
AcDbText
 39
0.001
 10
-1.004254
 20
-7.993718
 30
6.0355
 40
0.2
  1
ACTIVE
100
AcDbText
  0
CIRCLE
  5
5CB
100
AcDbEntity
  8
0
100
AcDbCircle
 39
0.1
 10
1.374254
 20
-7.643718
 30
-6.138184
 40
0.125
210
0.0
220
-0.0000000000000001
230
-1.0
1001
AME_SOL
1070
     1
1071
       33
  0
LINE
  5
5CC
100
AcDbEntity
  8
0
100
AcDbLine
 10
-1.30814
 20
-6.467681
 30
6.0355
 11
-0.90814
 21
-6.467681
 31
6.0355
  0
LINE
  5
5CD
100
AcDbEntity
  8
0
100
AcDbLine
 10
-0.841998
 20
-6.518448
 30
6.0355
 11
-1.341998
 21
-6.518448
 31
6.0355
  0
LINE
  5
5CE
100
AcDbEntity
  8
0
100
AcDbLine
 10
-0.90814
 20
-6.078837
 30
6.0355
 11
-1.30814
 21
-6.078837
 31
6.0355
  0
LINE
  5
5CF
100
AcDbEntity
  8
0
100
AcDbLine
 10
-1.341998
 20
-6.018448
 30
6.0355
 11
-0.841998
 21
-6.018448
 31
6.0355
  0
LINE
  5
5D0
100
AcDbEntity
  8
0
100
AcDbLine
 10
-1.18814
 20
-6.178837
 30
6.0355
 11
-1.18814
 21
-6.367681
 31
6.0355
  0
LINE
  5
5D1
100
AcDbEntity
  8
0
100
AcDbLine
 10
-1.341998
 20
-6.518448
 30
6.0355
 11
-1.341998
 21
-6.018448
 31
6.0355
  0
LINE
  5
5D2
100
AcDbEntity
  8
0
100
AcDbLine
 10
-1.18814
 20
-6.367681
 30
6.0355
 11
-1.307553
 21
-6.367681
 31
6.0355
  0
LINE
  5
5D3
100
AcDbEntity
  8
0
100
AcDbLine
 10
-1.307553
 20
-6.367681
 30
6.0355
 11
-1.30814
 21
-6.467681
 31
6.0355
  0
LINE
  5
5D4
100
AcDbEntity
  8
0
100
AcDbLine
 10
-1.30814
 20
-6.178837
 30
6.0355
 11
-1.18814
 21
-6.178837
 31
6.0355
  0
LINE
  5
5D5
100
AcDbEntity
  8
0
100
AcDbLine
 10
-1.30814
 20
-6.078837
 30
6.0355
 11
-1.30814
 21
-6.178837
 31
6.0355
  0
TEXT
  5
5D6
100
AcDbEntity
  8
0
100
AcDbText
 39
0.001
 10
-1.004254
 20
-7.618718
 30
6.0355
 40
0.2
  1
p/s
100
AcDbText
  0
LINE
  5
5D7
100
AcDbEntity
  8
0
100
AcDbLine
 10
-0.841998
 20
-6.018448
 30
6.0355
 11
-0.841998
 21
-6.518448
 31
6.0355
  0
LINE
  5
5D8
100
AcDbEntity
  8
0
100
AcDbLine
 10
-1.00814
 20
-6.367681
 30
6.0355
 11
-1.00814
 21
-6.178837
 31
6.0355
  0
LINE
  5
5D9
100
AcDbEntity
  8
0
100
AcDbLine
 10
-0.90814
 20
-6.367681
 30
6.0355
 11
-1.00814
 21
-6.367681
 31
6.0355
  0
LINE
  5
5DA
100
AcDbEntity
  8
0
100
AcDbLine
 10
-0.90814
 20
-6.467681
 30
6.0355
 11
-0.90814
 21
-6.367681
 31
6.0355
  0
LINE
  5
5DB
100
AcDbEntity
  8
0
100
AcDbLine
 10
-1.00814
 20
-6.178837
 30
6.0355
 11
-0.90814
 21
-6.178837
 31
6.0355
  0
LINE
  5
5DC
100
AcDbEntity
  8
0
100
AcDbLine
 10
-0.90814
 20
-6.178837
 30
6.0355
 11
-0.90814
 21
-6.078837
 31
6.0355
  0
CIRCLE
  5
5DD
100
AcDbEntity
  8
0
100
AcDbCircle
 39
0.12
 10
-1.1912
 20
-2.655
 30
6.0355
 40
0.125
  0
CIRCLE
  5
5DE
100
AcDbEntity
  8
0
100
AcDbCircle
 39
0.2
 10
-1.1912
 20
-4.905
 30
6.0355
 40
0.279508
  0
CIRCLE
  5
5DF
100
AcDbEntity
  8
0
100
AcDbCircle
 39
0.124
 10
-1.3212
 20
-4.03
 30
6.0355
 40
0.25
  0
LINE
  5
5E0
100
AcDbEntity
  8
0
100
AcDbLine
 39
0.001
 10
-0.7912
 20
-3.175
 30
6.0355
 11
-1.5912
 21
-3.175
 31
6.0355
  0
LINE
  5
5E1
100
AcDbEntity
  8
0
100
AcDbLine
 10
-1.108455
 20
-2.748693
 30
6.0355
 11
-1.222359
 21
-2.533946
 31
6.0355
1001
AME_SOL
1070
     1
1071
       10
  0
LINE
  5
5E2
100
AcDbEntity
  8
0
100
AcDbLine
 10
-1.273945
 20
-2.561307
 30
6.0355
 11
-1.160041
 21
-2.776054
 31
6.0355
1001
AME_SOL
1070
     1
1071
       14
  0
TEXT
  5
5E3
100
AcDbEntity
  8
0
100
AcDbText
 39
0.001
 10
-0.9512
 20
-4.005
 30
6.0355
 40
0.2
  1
ON
100
AcDbText
  0
TEXT
  5
5E4
100
AcDbEntity
  8
0
100
AcDbText
 39
0.001
 10
-0.9512
 20
-4.38
 30
6.0355
 40
0.2
  1
OFF
100
AcDbText
  0
ARC
  5
5E5
100
AcDbEntity
  8
0
100
AcDbCircle
 39
0.125
 10
0.0
 20
-0.5
 30
0.0
 40
0.28
100
AcDbArc
 50
126.106337
 51
53.893663
  0
ARC
  5
5E6
100
AcDbEntity
  8
0
100
AcDbCircle
 39
0.125
 10
0.0
 20
0.0
 30
0.0
 40
0.165
100
AcDbArc
 50
0.0
 51
180.0
  0
LINE
  5
5E7
100
AcDbEntity
  8
0
100
AcDbLine
 39
0.125
 10
-0.165
 20
0.0
 30
0.0
 11
-0.165
 21
-0.273781
 31
0.0
  0
LINE
  5
5E8
100
AcDbEntity
  8
0
100
AcDbLine
 39
0.125
 10
0.165
 20
0.0
 30
0.0
 11
0.165
 21
-0.273781
 31
0.0
  0
TEXT
  5
5E9
100
AcDbEntity
  8
0
100
AcDbText
 39
0.001
 10
-0.558569
 20
-1.78
 30
6.0355
 40
0.2
  1
L1
100
AcDbText
  0
TEXT
  5
5EA
100
AcDbEntity
  8
0
100
AcDbText
 39
0.001
 10
-0.568569
 20
-2.28
 30
6.0355
 40
0.2
  1
L2/N
100
AcDbText
  0
CIRCLE
  5
5EB
100
AcDbEntity
  8
0
100
AcDbCircle
 39
0.12
 10
-1.1912
 20
-2.155
 30
6.0355
 40
0.125
  0
CIRCLE
  5
5EC
100
AcDbEntity
  8
0
100
AcDbCircle
 39
0.12
 10
-1.1912
 20
-1.655
 30
6.0355
 40
0.125
  0
LINE
  5
5ED
100
AcDbEntity
  8
0
100
AcDbLine
 39
0.001
 10
-1.5912
 20
-1.155
 30
6.0355
 11
-0.7912
 21
-1.155
 31
6.0355
  0
LINE
  5
5EE
100
AcDbEntity
  8
0
100
AcDbLine
 10
-1.273945
 20
-2.061307
 30
6.0355
 11
-1.160041
 21
-2.276054
 31
6.0355
1001
AME_SOL
1070
     1
1071
       14
  0
LINE
  5
5EF
100
AcDbEntity
  8
0
100
AcDbLine
 10
-1.108455
 20
-2.248693
 30
6.0355
 11
-1.222359
 21
-2.033946
 31
6.0355
1001
AME_SOL
1070
     1
1071
       10
  0
LINE
  5
5F0
100
AcDbEntity
  8
0
100
AcDbLine
 10
-1.273945
 20
-1.561307
 30
6.0355
 11
-1.160041
 21
-1.776054
 31
6.0355
1001
AME_SOL
1070
     1
1071
       14
  0
LINE
  5
5F1
100
AcDbEntity
  8
0
100
AcDbLine
 10
-1.108455
 20
-1.748693
 30
6.0355
 11
-1.222359
 21
-1.533946
 31
6.0355
1001
AME_SOL
1070
     1
1071
       10
  0
POLYLINE
  5
5F2
100
AcDbEntity
  8
0
100
AcDbPolygonMesh
 66
     1
 10
0.0
 20
0.0
 30
0.0
 70
    16
 71
     6
 72
     3
  0
VERTEX
  5
5F3
100
AcDbEntity
  8
0
100
AcDbVertex
100
AcDbPolygonMeshVertex
 10
2.6988
 20
-11.045
 30
1.848663
 70
    64
  0
VERTEX
  5
5F4
100
AcDbEntity
  8
0
100
AcDbVertex
100
AcDbPolygonMeshVertex
 10
2.6988
 20
-11.045
 30
0.848663
 70
    64
  0
VERTEX
  5
5F5
100
AcDbEntity
  8
0
100
AcDbVertex
100
AcDbPolygonMeshVertex
 10
2.6988
 20
-11.045
 30
0.848663
 70
    64
  0
VERTEX
  5
5F6
100
AcDbEntity
  8
0
100
AcDbVertex
100
AcDbPolygonMeshVertex
 10
2.6988
 20
-11.771056
 30
1.848663
 70
    64
  0
VERTEX
  5
5F7
100
AcDbEntity
  8
0
100
AcDbVertex
100
AcDbPolygonMeshVertex
 10
2.6988
 20
-11.771056
 30
0.848663
 70
    64
  0
VERTEX
  5
5F8
100
AcDbEntity
  8
0
100
AcDbVertex
100
AcDbPolygonMeshVertex
 10
2.6988
 20
-11.771056
 30
0.848663
 70
    64
  0
VERTEX
  5
5F9
100
AcDbEntity
  8
0
100
AcDbVertex
100
AcDbPolygonMeshVertex
 10
2.5738
 20
-11.771056
 30
1.848663
 70
    64
  0
VERTEX
  5
5FA
100
AcDbEntity
  8
0
100
AcDbVertex
100
AcDbPolygonMeshVertex
 10
2.5738
 20
-11.771056
 30
0.848663
 70
    64
  0
VERTEX
  5
5FB
100
AcDbEntity
  8
0
100
AcDbVertex
100
AcDbPolygonMeshVertex
 10
2.6988
 20
-11.771056
 30
0.848663
 70
    64
  0
VERTEX
  5
5FC
100
AcDbEntity
  8
0
100
AcDbVertex
100
AcDbPolygonMeshVertex
 10
2.5738
 20
-11.045
 30
1.848663
 70
    64
  0
VERTEX
  5
5FD
100
AcDbEntity
  8
0
100
AcDbVertex
100
AcDbPolygonMeshVertex
 10
2.5738
 20
-11.045
 30
0.848663
 70
    64
  0
VERTEX
  5
5FE
100
AcDbEntity
  8
0
100
AcDbVertex
100
AcDbPolygonMeshVertex
 10
2.6988
 20
-11.045
 30
0.848663
 70
    64
  0
VERTEX
  5
5FF
100
AcDbEntity
  8
0
100
AcDbVertex
100
AcDbPolygonMeshVertex
 10
2.5738
 20
-11.045
 30
1.848663
 70
    64
  0
VERTEX
  5
600
100
AcDbEntity
  8
0
100
AcDbVertex
100
AcDbPolygonMeshVertex
 10
2.5738
 20
-11.045
 30
1.848663
 70
    64
  0
VERTEX
  5
601
100
AcDbEntity
  8
0
100
AcDbVertex
100
AcDbPolygonMeshVertex
 10
2.6988
 20
-11.045
 30
1.848663
 70
    64
  0
VERTEX
  5
602
100
AcDbEntity
  8
0
100
AcDbVertex
100
AcDbPolygonMeshVertex
 10
2.5738
 20
-11.771056
 30
1.848663
 70
    64
  0
VERTEX
  5
603
100
AcDbEntity
  8
0
100
AcDbVertex
100
AcDbPolygonMeshVertex
 10
2.5738
 20
-11.771056
 30
1.848663
 70
    64
  0
VERTEX
  5
604
100
AcDbEntity
  8
0
100
AcDbVertex
100
AcDbPolygonMeshVertex
 10
2.6988
 20
-11.771056
 30
1.848663
 70
    64
  0
SEQEND
  5
605
100
AcDbEntity
  8
0
  0
ARC
  5
606
100
AcDbEntity
  8
0
100
AcDbCircle
 39
0.125
 10
-11.53003
 20
1.348663
 30
2.5738
 40
0.125
210
1.0
220
0.0
230
0.0
100
AcDbArc
 50
270.0
 51
90.0
  0
LINE
  5
607
100
AcDbEntity
  8
0
100
AcDbLine
 39
0.125
 10
2.5738
 20
-11.53003
 30
1.223663
 11
2.5738
 21
-11.771056
 31
1.223663
210
1.0
220
0.0
230
0.0
  0
LINE
  5
608
100
AcDbEntity
  8
0
100
AcDbLine
 39
0.125
 10
2.5738
 20
-11.53003
 30
1.473663
 11
2.5738
 21
-11.771056
 31
1.473663
210
1.0
220
0.0
230
0.0
  0
POLYLINE
  5
609
100
AcDbEntity
  8
0
100
AcDbPolygonMesh
 66
     1
 10
0.0
 20
0.0
 30
0.0
 70
    16
 71
     6
 72
     3
  0
VERTEX
  5
60A
100
AcDbEntity
  8
0
100
AcDbVertex
100
AcDbPolygonMeshVertex
 10
2.6978
 20
-11.045
 30
4.476
 70
    64
  0
VERTEX
  5
60B
100
AcDbEntity
  8
0
100
AcDbVertex
100
AcDbPolygonMeshVertex
 10
2.6978
 20
-11.045
 30
3.476
 70
    64
  0
VERTEX
  5
60C
100
AcDbEntity
  8
0
100
AcDbVertex
100
AcDbPolygonMeshVertex
 10
2.6978
 20
-11.045
 30
3.476
 70
    64
  0
VERTEX
  5
60D
100
AcDbEntity
  8
0
100
AcDbVertex
100
AcDbPolygonMeshVertex
 10
2.6978
 20
-11.771056
 30
4.476
 70
    64
  0
VERTEX
  5
60E
100
AcDbEntity
  8
0
100
AcDbVertex
100
AcDbPolygonMeshVertex
 10
2.6978
 20
-11.771056
 30
3.476
 70
    64
  0
VERTEX
  5
60F
100
AcDbEntity
  8
0
100
AcDbVertex
100
AcDbPolygonMeshVertex
 10
2.6978
 20
-11.771056
 30
3.476
 70
    64
  0
VERTEX
  5
610
100
AcDbEntity
  8
0
100
AcDbVertex
100
AcDbPolygonMeshVertex
 10
2.5728
 20
-11.771056
 30
4.476
 70
    64
  0
VERTEX
  5
611
100
AcDbEntity
  8
0
100
AcDbVertex
100
AcDbPolygonMeshVertex
 10
2.5728
 20
-11.771056
 30
3.476
 70
    64
  0
VERTEX
  5
612
100
AcDbEntity
  8
0
100
AcDbVertex
100
AcDbPolygonMeshVertex
 10
2.6978
 20
-11.771056
 30
3.476
 70
    64
  0
VERTEX
  5
613
100
AcDbEntity
  8
0
100
AcDbVertex
100
AcDbPolygonMeshVertex
 10
2.5728
 20
-11.045
 30
4.476
 70
    64
  0
VERTEX
  5
614
100
AcDbEntity
  8
0
100
AcDbVertex
100
AcDbPolygonMeshVertex
 10
2.5728
 20
-11.045
 30
3.476
 70
    64
  0
VERTEX
  5
615
100
AcDbEntity
  8
0
100
AcDbVertex
100
AcDbPolygonMeshVertex
 10
2.6978
 20
-11.045
 30
3.476
 70
    64
  0
VERTEX
  5
616
100
AcDbEntity
  8
0
100
AcDbVertex
100
AcDbPolygonMeshVertex
 10
2.5728
 20
-11.045
 30
4.476
 70
    64
  0
VERTEX
  5
617
100
AcDbEntity
  8
0
100
AcDbVertex
100
AcDbPolygonMeshVertex
 10
2.5728
 20
-11.045
 30
4.476
 70
    64
  0
VERTEX
  5
618
100
AcDbEntity
  8
0
100
AcDbVertex
100
AcDbPolygonMeshVertex
 10
2.6978
 20
-11.045
 30
4.476
 70
    64
  0
VERTEX
  5
619
100
AcDbEntity
  8
0
100
AcDbVertex
100
AcDbPolygonMeshVertex
 10
2.5728
 20
-11.771056
 30
4.476
 70
    64
  0
VERTEX
  5
61A
100
AcDbEntity
  8
0
100
AcDbVertex
100
AcDbPolygonMeshVertex
 10
2.5728
 20
-11.771056
 30
4.476
 70
    64
  0
VERTEX
  5
61B
100
AcDbEntity
  8
0
100
AcDbVertex
100
AcDbPolygonMeshVertex
 10
2.6978
 20
-11.771056
 30
4.476
 70
    64
  0
SEQEND
  5
61C
100
AcDbEntity
  8
0
  0
ARC
  5
61D
100
AcDbEntity
  8
0
100
AcDbCircle
 39
0.125
 10
-11.53003
 20
3.976
 30
2.5728
 40
0.125
210
1.0
220
0.0
230
0.0
100
AcDbArc
 50
270.0
 51
90.0
  0
LINE
  5
61E
100
AcDbEntity
  8
0
100
AcDbLine
 39
0.125
 10
2.5728
 20
-11.53003
 30
3.851
 11
2.5728
 21
-11.771056
 31
3.851
210
1.0
220
0.0
230
0.0
  0
LINE
  5
61F
100
AcDbEntity
  8
0
100
AcDbLine
 39
0.125
 10
2.5728
 20
-11.53003
 30
4.101
 11
2.5728
 21
-11.771056
 31
4.101
210
1.0
220
0.0
230
0.0
  0
LINE
  5
620
100
AcDbEntity
  8
0
100
AcDbLine
 10
2.7588
 20
-1.030037
 30
0.650994
 11
2.7588
 21
-1.31353
 31
0.650994
210
1.0
220
0.0
230
0.0
  0
LINE
  5
621
100
AcDbEntity
  8
0
100
AcDbLine
 10
2.7588
 20
-1.030037
 30
0.900994
 11
2.7588
 21
-1.31353
 31
0.900994
210
1.0
220
0.0
230
0.0
  0
ARC
  5
622
100
AcDbEntity
  8
0
100
AcDbCircle
 10
-1.530037
 20
0.775994
 30
2.7588
 40
0.25
210
1.0
220
0.0
230
0.0
100
AcDbArc
 50
30.0
 51
330.0
  0
ARC
  5
623
100
AcDbEntity
  8
0
100
AcDbCircle
 10
-1.030037
 20
0.775994
 30
2.7588
 40
0.125
210
1.0
220
0.0
230
0.0
100
AcDbArc
 50
270.0
 51
90.0
  0
POINT
  5
624
100
AcDbEntity
  8
DIMS-MTG-HOLES
100
AcDbPoint
 10
0.0
 20
0.0
 30
0.0
  0
POINT
  5
625
100
AcDbEntity
  8
DIMS-MTG-HOLES
100
AcDbPoint
 10
-0.0012
 20
-11.5
 30
0.0
  0
DIMENSION
  5
626
100
AcDbEntity
  8
AREA1
100
AcDbDimension
  2
*D1
 10
4.527342
 20
0.4439
 30
0.0
 11
4.527342
 21
-5.75805
 31
0.0
 70
    32
  3
ABECAD_3D
100
AcDbAlignedDimension
 13
1.7988
 23
-11.96
 33
0.0
 14
1.7988
 24
0.4439
 34
0.0
 50
90.0
100
AcDbRotatedDimension
  0
DIMENSION
  5
627
100
AcDbEntity
  8
AREA1
100
AcDbDimension
  2
*D2
 10
-1.7512
 20
1.892534
 30
0.0
 11
0.5038
 21
1.892534
 31
0.0
 70
    32
  3
ABECAD_3D
100
AcDbAlignedDimension
 13
2.7588
 23
-0.422
 33
0.126
 14
-1.7512
 24
0.4439
 34
0.0
100
AcDbRotatedDimension
  0
ENDBLK
  5
629
100
AcDbEntity
  8
0
100
AcDbBlockEnd
  0
BLOCK
  5
641
100
AcDbEntity
  8
0
100
AcDbBlockBegin
  2
*D4
 70
     1
 10
0.0
 20
0.0
 30
0.0
  3
*D4
  1

  0
LINE
  5
637
100
AcDbEntity
  8
AREA2
 62
     0
100
AcDbLine
 10
-1.8137
 20
6.035542
 30
0.0
 11
-2.825419
 21
6.035542
 31
0.0
1001
ACAD
1000
RTLwPs
1070
   158
  0
LINE
  5
638
100
AcDbEntity
  8
AREA2
 62
     0
100
AcDbLine
 10
-1.8137
 20
0.0
 30
0.0
 11
-2.825419
 21
0.0
 31
0.0
1001
ACAD
1000
RTLwPs
1070
   158
  0
LINE
  5
639
100
AcDbEntity
  8
AREA2
 62
     0
100
AcDbLine
 10
-2.645731
 20
5.855854
 30
0.0
 11
-2.645731
 21
3.840688
 31
0.0
1001
ACAD
1000
RTLwPs
1070
   158
  0
LINE
  5
63A
100
AcDbEntity
  8
AREA2
 62
     0
100
AcDbLine
 10
-2.645731
 20
0.179688
 30
0.0
 11
-2.645731
 21
2.194854
 31
0.0
1001
ACAD
1000
RTLwPs
1070
   158
  0
SOLID
  5
63B
100
AcDbEntity
  8
AREA2
 62
     0
100
AcDbTrace
 10
-2.675679
 20
5.855854
 30
0.0
 11
-2.615783
 21
5.855854
 31
0.0
 12
-2.645731
 22
6.035542
 32
0.0
 13
-2.645731
 23
6.035542
 33
0.0
  0
SOLID
  5
63C
100
AcDbEntity
  8
AREA2
 62
     0
100
AcDbTrace
 10
-2.675679
 20
0.179688
 30
0.0
 11
-2.615783
 21
0.179688
 31
0.0
 12
-2.645731
 22
0.0
 32
0.0
 13
-2.645731
 23
0.0
 33
0.0
  0
MTEXT
  5
63D
100
AcDbEntity
  8
AREA2
 62
     0
100
AcDbMText
 10
-2.645731
 20
3.017771
 30
0.0
 40
0.125
 41
0.0
 71
     5
 72
     1
  1
\A1;6 1/32 [153.3]
 11
0.0
 21
1.0
 31
0.0
1001
ACAD
1000
MTEXTBEGIN
1070
    73
1070
     1
1070
    44
1040
1.0
1070
    74
1070
     0
1000
MTEXTEND
1000
MTEXTBEGIN
1070
    73
1070
     1
1070
    44
1040
1.0
1070
    74
1070
     0
1000
MTEXTEND
  0
POINT
  5
63E
100
AcDbEntity
  8
DEFPOINTS
 62
     0
100
AcDbPoint
 10
-1.7512
 20
6.035542
 30
0.421702
  0
POINT
  5
63F
100
AcDbEntity
  8
DEFPOINTS
 62
     0
100
AcDbPoint
 10
-1.7512
 20
0.0
 30
-0.4439
  0
POINT
  5
640
100
AcDbEntity
  8
DEFPOINTS
 62
     0
100
AcDbPoint
 10
-2.645731
 20
0.0
 30
0.0
  0
ENDBLK
  5
642
100
AcDbEntity
  8
0
100
AcDbBlockEnd
  0
ENDSEC
  0
SECTION
  2
ENTITIES
  0
INSERT
  5
62A
100
AcDbEntity
  8
0
100
AcDbBlockReference
 66
     1
  2
ABCHA210
 10
0.0
 20
0.0
 30
0.0
  0
ATTRIB
  5
62B
100
AcDbEntity
  8
ATTRIBUTES
100
AcDbText
 10
-1.592099
 20
-8.765385
 30
0.0
 40
0.18
  1
ALLEN-BRADLEY
100
AcDbAttribute
  2
AC_VND_LABEL
 70
     1
  0
ATTRIB
  5
62C
100
AcDbEntity
  8
ATTRIBUTES
100
AcDbText
 10
-1.592099
 20
-9.140385
 30
0.0
 40
0.18
  1
1771-P7
100
AcDbAttribute
  2
AC_PART_NO
 70
     1
  0
ATTRIB
  5
62D
100
AcDbEntity
  8
ATTRIBUTES
100
AcDbText
 10
-1.592099
 20
-9.515385
 30
0.0
 40
0.18
  1
1771-P7: POWER SUPPLY, STAND-ALONE, 16A, 120/220V AC
100
AcDbAttribute
  2
AC_DESCRIPTION
 70
     1
  0
ATTRIB
  5
62E
100
AcDbEntity
  8
ATTRIBUTES
100
AcDbText
 10
-1.592099
 20
-9.890385
 30
0.0
 40
0.18
  1

100
AcDbAttribute
  2
DEVICE_ID
 70
     1
  0
ATTRIB
  5
62F
100
AcDbEntity
  8
ATTRIBUTES
100
AcDbText
 10
-1.592099
 20
-10.265385
 30
0.0
 40
0.18
  1

100
AcDbAttribute
  2
AC_CPART_NO
 70
     1
  0
ATTRIB
  5
630
100
AcDbEntity
  8
ATTRIBUTES
100
AcDbText
 10
-1.592099
 20
-10.640385
 30
0.0
 40
0.18
  1

100
AcDbAttribute
  2
AC_NOTE
 70
     1
  0
ATTRIB
  5
631
100
AcDbEntity
  8
ATTRIBUTES
100
AcDbText
 10
-1.592099
 20
-11.015385
 30
0.0
 40
0.18
  1

100
AcDbAttribute
  2
FASTENER
 70
     1
  0
ATTRIB
  5
632
100
AcDbEntity
  8
ATTRIBUTES
100
AcDbText
 10
-1.592099
 20
-11.390385
 30
0.0
 40
0.18
  1
INCH
100
AcDbAttribute
  2
AC_SCALE_UNIT
 70
     1
  0
ATTRIB
  5
633
100
AcDbEntity
  8
ATTRIBUTES
100
AcDbText
 10
-1.592099
 20
-11.765385
 30
0.0
 40
0.18
  1
0
100
AcDbAttribute
  2
AC_VIEW_CODE
 70
     1
  0
SEQEND
  5
634
100
AcDbEntity
  8
0
  0
DIMENSION
  5
635
100
AcDbEntity
  8
AREA2
100
AcDbDimension
  2
*D4
 10
-2.645731
 20
0.0
 30
0.0
 11
-2.645731
 21
3.017771
 31
0.0
 70
    32
210
0.0
220
-1.0
230
0.0
  3
ABECAD_3V
100
AcDbAlignedDimension
 13
-1.7512
 23
-0.421702
 33
6.035542
 14
-1.7512
 24
0.4439
 34
0.0
 50
90.0
100
AcDbRotatedDimension
1001
ACAD
1000
DSTYLE
1002
{
1070
    40
1040
1.0
1002
}
  0
VIEWPORT
  5
2C
102
{ACAD_XDICTIONARY
360
6A5
102
}
100
AcDbEntity
 67
     1
  8
0
100
AcDbViewport
 10
5.000171
 20
3.750155
 30
0.0
 40
16.481272
 41
7.63272
 68
     1
 69
     1
1001
ACAD
1000
MVIEW
1002
{
1070
    16
1010
0.0
1020
0.0
1030
0.0
1010
0.0
1020
0.0
1030
1.0
1040
0.0
1040
7.63272
1040
5.000171
1040
3.750155
1040
50.0
1040
0.0
1040
0.0
1070
     0
1070
   100
1070
     1
1070
     1
1070
     0
1070
     0
1070
     0
1070
     0
1040
0.0
1040
0.0
1040
0.0
1040
1.0
1040
1.0
1040
0.0
1040
0.0
1070
     0
1002
{
1002
}
1002
}
  0
VIEWPORT
  5
2D
102
{ACAD_XDICTIONARY
360
6A7
102
}
100
AcDbEntity
 67
     1
  8
0
100
AcDbViewport
 10
2.5
 20
5.625
 30
0.0
 40
5.0
 41
3.75
 68
     4
 69
     2
1001
ACAD
1000
MVIEW
1002
{
1070
    16
1010
0.0
1020
0.0
1030
0.0
1010
0.0
1020
0.0
1030
1.0
1040
0.0
1040
15.987733
1040
0.940961
1040
-5.56605
1040
50.0
1040
0.0
1040
0.0
1070
     0
1070
   100
1070
     1
1070
     0
1070
     0
1070
     0
1070
     0
1070
     0
1040
0.0
1040
0.0
1040
0.0
1040
1.0
1040
1.0
1040
0.0
1040
0.0
1070
     0
1002
{
1003
AREA2
1002
}
1002
}
  0
VIEWPORT
  5
2E
102
{ACAD_XDICTIONARY
360
6A9
102
}
100
AcDbEntity
 67
     1
  8
0
100
AcDbViewport
 10
2.5
 20
1.875
 30
0.0
 40
5.0
 41
3.75
 68
     3
 69
     3
1001
ACAD
1000
MVIEW
1002
{
1070
    16
1010
0.0
1020
0.0
1030
0.0
1010
0.0
1020
-1.0
1030
0.0
1040
0.0
1040
17.238794
1040
0.940961
1040
3.11775
1040
50.0
1040
0.0
1040
0.0
1070
     0
1070
   100
1070
     1
1070
     0
1070
     0
1070
     0
1070
     0
1070
     0
1040
0.0
1040
0.0
1040
0.0
1040
1.0
1040
1.0
1040
0.0
1040
0.0
1070
     0
1002
{
1003
AREA1
1002
}
1002
}
  0
VIEWPORT
  5
2F
102
{ACAD_XDICTIONARY
360
6AB
102
}
100
AcDbEntity
 67
     1
  8
0
100
AcDbViewport
 10
7.5
 20
3.75
 30
0.0
 40
5.0
 41
7.5
 68
     2
 69
     4
1001
ACAD
1000
MVIEW
1002
{
1070
    16
1010
0.0
1020
0.0
1030
0.0
1010
-1.0
1020
-1.0
1030
1.0
1040
0.0
1040
20.27737
1040
4.669607
1040
2.871026
1040
50.0
1040
0.0
1040
0.0
1070
     0
1070
   100
1070
     1
1070
     0
1070
     0
1070
     0
1070
     0
1070
     0
1040
0.0
1040
0.0
1040
0.0
1040
1.0
1040
1.0
1040
0.0
1040
0.0
1070
     0
1002
{
1003
AREA1
1003
AREA2
1002
}
1002
}
  0
TEXT
  5
42D
100
AcDbEntity
 67
     1
  8
0
100
AcDbText
 10
5.253785
 20
7.092701
 30
0.0
 40
0.2
  1
1771-P7
100
AcDbText
  0
TEXT
  5
431
100
AcDbEntity
 67
     1
  8
0
100
AcDbText
 10
5.253785
 20
6.759368
 30
0.0
 40
0.2
  1
1771-P7:POWER SUPPLY,
100
AcDbText
1001
ACAD
1000
R13OBJECT
1002
{
1005
42D
1002
}
  0
TEXT
  5
52E
100
AcDbEntity
 67
     1
  8
0
100
AcDbText
 10
5.240015
 20
6.436423
 30
0.0
 40
0.2
  1
STAND-ALONE, 16A, 120/
100
AcDbText
  0
TEXT
  5
52F
100
AcDbEntity
 67
     1
  8
0
100
AcDbText
 10
5.240015
 20
6.10309
 30
0.0
 40
0.2
  1
220V AC
100
AcDbText
  0
TEXT
  5
530
100
AcDbEntity
 67
     1
  8
0
100
AcDbText
 10
5.240015
 20
5.769757
 30
0.0
 40
0.2
  1

100
AcDbText
  0
ENDSEC
  0
SECTION
  2
OBJECTS
  0
DICTIONARY
  5
46D
100
AcDbDictionary
  3
ACAD_GROUP
350
46E
  3
ACAD_LAYOUT
350
49E
  3
ACAD_MLINESTYLE
350
47B
  3
ACAD_PLOTSETTINGS
350
49F
  3
ACAD_PLOTSTYLENAME
350
49C
  3
ACDBHEADERROUNDTRIPXREC
350
684
  3
ACDBVARIABLEDICTIONARY
350
48D
  0
DICTIONARY
  5
682
100
AcDbDictionary
280
     1
  3
ACAD_XREC_ROUNDTRIP
360
683
  0
DICTIONARY
  5
6AF
100
AcDbDictionary
280
     1
  3
ACAD_XREC_ROUNDTRIP
360
6B0
  0
DICTIONARY
  5
6B1
100
AcDbDictionary
280
     1
  3
ACAD_XREC_ROUNDTRIP
360
6B2
  0
DICTIONARY
  5
6B3
100
AcDbDictionary
280
     1
  3
ACAD_XREC_ROUNDTRIP
360
6B4
  0
DICTIONARY
  5
6B7
100
AcDbDictionary
280
     1
  3
ACAD_XREC_ROUNDTRIP
360
6B8
  0
DICTIONARY
  5
4D2
100
AcDbDictionary
280
     1
  3
ACAD_LAYOUTSELFREF
360
6AE
  0
DICTIONARY
  5
4D0
100
AcDbDictionary
280
     1
  3
ACAD_LAYOUTSELFREF
360
6AD
  0
DICTIONARY
  5
680
100
AcDbDictionary
280
     1
  3
ACAD_XREC_ROUNDTRIP
360
681
  0
DICTIONARY
  5
6A5
100
AcDbDictionary
280
     1
  3
ACAD_XREC_ROUNDTRIP
360
6A6
  0
DICTIONARY
  5
6A7
100
AcDbDictionary
280
     1
  3
ACAD_XREC_ROUNDTRIP
360
6A8
  0
DICTIONARY
  5
6A9
100
AcDbDictionary
280
     1
  3
ACAD_XREC_ROUNDTRIP
360
6AA
  0
DICTIONARY
  5
6AB
100
AcDbDictionary
280
     1
  3
ACAD_XREC_ROUNDTRIP
360
6AC
  0
DICTIONARY
  5
46E
102
{ACAD_REACTORS
330
46D
102
}
100
AcDbDictionary
  0
DICTIONARY
  5
49E
102
{ACAD_XDICTIONARY
360
6B5
102
}
102
{ACAD_REACTORS
330
46D
102
}
100
AcDbDictionary
  3
LAYOUT1
350
4A1
  3
MODEL
350
4A0
  0
DICTIONARY
  5
47B
102
{ACAD_REACTORS
330
46D
102
}
100
AcDbDictionary
  3
STANDARD
350
47C
  0
DICTIONARY
  5
49F
102
{ACAD_REACTORS
330
46D
102
}
100
AcDbDictionary
  0
ACAD_PROXY_OBJECT
  5
49C
102
{ACAD_REACTORS
330
46D
102
}
100
AcDbProxyObject
 90
      499
 91
      501
 93
       86
310
405010041939BDC9B585B0
350
49D
340
49D
 94
        0
  0
DICTIONARY
  5
684
102
{ACAD_REACTORS
330
46D
102
}
100
AcDbDictionary
  3
CEPSNTYPE
350
68E
  3
DIMSTYLEDATA
350
692
  3
FINGERPRINTGUID
350
68F
  3
HYPERLINKBASE
350
687
  3
INSUNITS
350
68D
  3
LAYOUTDICT
350
689
  3
LWETCUNION
350
68C
  3
PLOTSETDICT
350
68A
  3
PLOTSTYLNAMDICT
350
68B
  3
PSVPSCALE
350
691
  3
PUCSBASE
350
695
  3
PUCSORGBACK
350
69B
  3
PUCSORGBOTTOM
350
697
  3
PUCSORGFRONT
350
69A
  3
PUCSORGLEFT
350
698
  3
PUCSORGRIGHT
350
699
  3
PUCSORGTOP
350
696
  3
PUCSORTHOREF
350
693
  3
PUCSORTHOVIEW
350
694
  3
STYLESHEET
350
688
  3
TSTACKALIGN
350
685
  3
TSTACKSIZE
350
686
  3
UCSBASE
350
69E
  3
UCSORGBACK
350
6A4
  3
UCSORGBOTTOM
350
6A0
  3
UCSORGFRONT
350
6A3
  3
UCSORGLEFT
350
6A1
  3
UCSORGRIGHT
350
6A2
  3
UCSORGTOP
350
69F
  3
UCSORTHOREF
350
69C
  3
UCSORTHOVIEW
350
69D
  3
VERSIONGUID
350
690
  0
DICTIONARY
  5
48D
102
{ACAD_REACTORS
330
46D
102
}
100
AcDbDictionary
  3
DIMADEC
350
48E
  0
XRECORD
  5
683
102
{ACAD_REACTORS
330
682
102
}
100
AcDbXrecord
102
EXTNAMES
  1
*ACTIVE
  2
*Active
102
UCS
 74
     0
 71
     1
 10
0.0
 20
0.0
 30
0.0
 10
1.0
 20
0.0
 30
0.0
 10
0.0
 20
1.0
 30
0.0
146
0.0
 79
     1
102
VIEW
281
     0
  0
XRECORD
  5
6B0
102
{ACAD_REACTORS
330
6AF
102
}
100
AcDbXrecord
102
PLOTBIT
280
     0
  0
XRECORD
  5
6B2
102
{ACAD_REACTORS
330
6B1
102
}
100
AcDbXrecord
102
ACADR14ROUNDTRIP
1000
DSTYLE
1002
{
1070
   276
 70
     2
1070
   277
 70
     5
1070
   279
 70
     2
1002
}
  0
XRECORD
  5
6B4
102
{ACAD_REACTORS
330
6B3
102
}
100
AcDbXrecord
102
ACADR14ROUNDTRIP
1000
DSTYLE
1002
{
1070
   276
 70
     2
1070
   277
 70
     5
1070
   279
 70
     2
1002
}
  0
XRECORD
  5
6B8
102
{ACAD_REACTORS
330
6B7
102
}
100
AcDbXrecord
102
ACADR14ROUNDTRIP
1000
DSTYLE
1002
{
1070
   276
 70
     2
1070
   277
 70
     5
1002
}
  0
XRECORD
  5
6AE
102
{ACAD_REACTORS
330
4D2
102
}
100
AcDbXrecord
340
478
  0
XRECORD
  5
6AD
102
{ACAD_REACTORS
330
4D0
102
}
100
AcDbXrecord
340
475
  0
XRECORD
  5
681
102
{ACAD_REACTORS
330
680
102
}
100
AcDbXrecord
102
EXTNAMES
  1
SCALE
  2
scale
  0
XRECORD
  5
6A6
102
{ACAD_REACTORS
330
6A5
102
}
100
AcDbXrecord
102
UCS
 74
     0
 71
     1
 10
0.0
 20
0.0
 30
0.0
 10
1.0
 20
0.0
 30
0.0
 10
0.0
 20
1.0
 30
0.0
146
0.0
 79
     0
102
VIEW
281
     0
102
NEWVIEWCONTROL
280
     4
  0
XRECORD
  5
6A8
102
{ACAD_REACTORS
330
6A7
102
}
100
AcDbXrecord
102
UCS
 74
     0
 71
     1
 10
0.0
 20
0.0
 30
0.0
 10
1.0
 20
0.0
 30
0.0
 10
0.0
 20
1.0
 30
0.0
146
0.0
 79
     1
102
VIEW
281
     0
102
NEWVIEWCONTROL
280
     4
  0
XRECORD
  5
6AA
102
{ACAD_REACTORS
330
6A9
102
}
100
AcDbXrecord
102
UCS
 74
     0
 71
     1
 10
0.0
 20
0.0
 30
0.0
 10
1.0
 20
0.0
 30
0.0
 10
0.0
 20
0.0
 30
1.0
146
0.0
 79
     3
102
VIEW
281
     0
102
NEWVIEWCONTROL
280
     4
  0
XRECORD
  5
6AC
102
{ACAD_REACTORS
330
6AB
102
}
100
AcDbXrecord
102
UCS
 74
     0
 71
     1
 10
0.0
 20
0.0
 30
0.0
 10
1.0
 20
0.0
 30
0.0
 10
0.0
 20
1.0
 30
0.0
146
0.0
 79
     0
102
VIEW
281
     0
102
NEWVIEWCONTROL
280
     4
  0
DICTIONARY
  5
6B5
100
AcDbDictionary
280
     1
  3
ACAD_XREC_ROUNDTRIP
360
6B6
  0
ACAD_PROXY_OBJECT
  5
4A1
102
{ACAD_REACTORS
330
49E
102
}
100
AcDbProxyObject
 90
      499
 91
      503
 93
     2044
310
91D4850204C617365724A65742035303030205365726965732050434C20362C008000000C0BB1B1440000000102F06C510000000000BC1B1440000000002E06C5100000000C0CCFC6A4000000018199D9C501064C6574746572A901406AA427D84144352EEE3F47D11959985D5B1D08148C4D081C195B88185CDCDA59DB9B5
310
95B9D1CCB98DD18A30EDE3B1BBFDBC0FC1D572C8D6D0C833F1A2B3054E9249F0FD074C61796F75743140501A97D7DB4AA43C31EFF91E46EBA53B71EFD1B32A15809809100B2537F8EAD447D02A6A6A00001899FC31106FC0000F06EE366FABE00201F20307FD62FCB6EB3DE573002440160B7F435600079000000004000C06
310
23E0
330
475
330
2C
340
0
340
0
 94
        0
  0
ACAD_PROXY_OBJECT
  5
4A0
102
{ACAD_REACTORS
330
49E
102
}
100
AcDbProxyObject
 90
      499
 91
      503
 93
      924
310
91D4850204C617365724A65742035303030205365726965732050434C20362C01AAAAAAAAA547D11959985D5B1D08148C4D081C195B88185CDCDA59DB9B595B9D1CCB98DD18A69054D6F64656C901A800000000000000000000000000000000000000000000A1000000000000008902A6A6AAAA0
330
478
330
0
340
0
340
0
 94
        0
  0
MLINESTYLE
  5
47C
102
{ACAD_REACTORS
330
47B
102
}
100
AcDbMlineStyle
  2
STANDARD
 70
     0
  3

 62
   256
 51
90.0
 52
90.0
 71
     2
 49
0.5
 62
   256
  6
BYLAYER
 49
-0.5
 62
   256
  6
BYLAYER
  0
ACAD_PROXY_OBJECT
  5
49D
102
{ACAD_REACTORS
330
49C
102
}
100
AcDbProxyObject
 90
      499
 91
      502
 93
        0
 94
        0
  0
XRECORD
  5
68E
102
{ACAD_REACTORS
330
684
102
}
100
AcDbXrecord
 90
        0
  0
XRECORD
  5
692
102
{ACAD_REACTORS
330
684
102
}
100
AcDbXrecord
1000
DSTYLE
1002
{
1070
   276
 70
     2
1070
   277
 70
     5
1070
   279
 70
     2
1002
}
  0
XRECORD
  5
68F
102
{ACAD_REACTORS
330
684
102
}
100
AcDbXrecord
  1
{6E0CF4B5-225E-11D4-A150-00A0CC3303EC}
  0
XRECORD
  5
687
102
{ACAD_REACTORS
330
684
102
}
100
AcDbXrecord
  1

  0
XRECORD
  5
68D
102
{ACAD_REACTORS
330
684
102
}
100
AcDbXrecord
 90
        0
  0
XRECORD
  5
689
102
{ACAD_REACTORS
330
684
102
}
100
AcDbXrecord
340
49E
  0
XRECORD
  5
68C
102
{ACAD_REACTORS
330
684
102
}
100
AcDbXrecord
 90
    14877
  0
XRECORD
  5
68A
102
{ACAD_REACTORS
330
684
102
}
100
AcDbXrecord
340
49F
  0
XRECORD
  5
68B
102
{ACAD_REACTORS
330
684
102
}
100
AcDbXrecord
340
49C
  0
XRECORD
  5
691
102
{ACAD_REACTORS
330
684
102
}
100
AcDbXrecord
 40
0.0
  0
XRECORD
  5
695
102
{ACAD_REACTORS
330
684
102
}
100
AcDbXrecord
340
0
  0
XRECORD
  5
69B
102
{ACAD_REACTORS
330
684
102
}
100
AcDbXrecord
 10
0.0
 20
0.0
 30
0.0
  0
XRECORD
  5
697
102
{ACAD_REACTORS
330
684
102
}
100
AcDbXrecord
 10
0.0
 20
0.0
 30
0.0
  0
XRECORD
  5
69A
102
{ACAD_REACTORS
330
684
102
}
100
AcDbXrecord
 10
0.0
 20
0.0
 30
0.0
  0
XRECORD
  5
698
102
{ACAD_REACTORS
330
684
102
}
100
AcDbXrecord
 10
0.0
 20
0.0
 30
0.0
  0
XRECORD
  5
699
102
{ACAD_REACTORS
330
684
102
}
100
AcDbXrecord
 10
0.0
 20
0.0
 30
0.0
  0
XRECORD
  5
696
102
{ACAD_REACTORS
330
684
102
}
100
AcDbXrecord
 10
0.0
 20
0.0
 30
0.0
  0
XRECORD
  5
693
102
{ACAD_REACTORS
330
684
102
}
100
AcDbXrecord
340
0
  0
XRECORD
  5
694
102
{ACAD_REACTORS
330
684
102
}
100
AcDbXrecord
 70
     0
  0
XRECORD
  5
688
102
{ACAD_REACTORS
330
684
102
}
100
AcDbXrecord
  1

  0
XRECORD
  5
685
102
{ACAD_REACTORS
330
684
102
}
100
AcDbXrecord
 90
        1
  0
XRECORD
  5
686
102
{ACAD_REACTORS
330
684
102
}
100
AcDbXrecord
 90
       70
  0
XRECORD
  5
69E
102
{ACAD_REACTORS
330
684
102
}
100
AcDbXrecord
340
0
  0
XRECORD
  5
6A4
102
{ACAD_REACTORS
330
684
102
}
100
AcDbXrecord
 10
0.0
 20
0.0
 30
0.0
  0
XRECORD
  5
6A0
102
{ACAD_REACTORS
330
684
102
}
100
AcDbXrecord
 10
0.0
 20
0.0
 30
0.0
  0
XRECORD
  5
6A3
102
{ACAD_REACTORS
330
684
102
}
100
AcDbXrecord
 10
0.0
 20
0.0
 30
0.0
  0
XRECORD
  5
6A1
102
{ACAD_REACTORS
330
684
102
}
100
AcDbXrecord
 10
0.0
 20
0.0
 30
0.0
  0
XRECORD
  5
6A2
102
{ACAD_REACTORS
330
684
102
}
100
AcDbXrecord
 10
0.0
 20
0.0
 30
0.0
  0
XRECORD
  5
69F
102
{ACAD_REACTORS
330
684
102
}
100
AcDbXrecord
 10
0.0
 20
0.0
 30
0.0
  0
XRECORD
  5
69C
102
{ACAD_REACTORS
330
684
102
}
100
AcDbXrecord
340
0
  0
XRECORD
  5
69D
102
{ACAD_REACTORS
330
684
102
}
100
AcDbXrecord
 70
     0
  0
XRECORD
  5
690
102
{ACAD_REACTORS
330
684
102
}
100
AcDbXrecord
  1
{119A4D4B-0D26-4905-BE78-F164008A8B71}
  0
DICTIONARYVAR
  5
48E
102
{ACAD_REACTORS
330
48D
102
}
100
DictionaryVariables
280
     0
  1
0
  0
XRECORD
  5
6B6
102
{ACAD_REACTORS
330
6B5
102
}
100
AcDbXrecord
102
EXTNAMES
  1
LAYOUT1
  2
Layout1
  1
MODEL
  2
Model
  0
ENDSEC
  0
EOF
