  0
SECTION
  2
HEADER
  9
$ACADVER
  1
AC1018
  9
$ACADMAINTVER
 70
    76
  9
$DWGCODEPAGE
  3
ANSI_1252
  9
$INSBASE
 10
0.0
 20
0.0
 30
0.0
  9
$EXTMIN
 10
-0.0003356677483914
 20
-0.0002593796237598
 30
-0.0015258207003583
  9
$EXTMAX
 10
11.00033571897113
 20
8.500259419204969
 30
0.0000000349246037
  9
$LIMMIN
 10
0.0
 20
0.0
  9
$LIMMAX
 10
11.0
 20
8.5
  9
$ORTHOMODE
 70
     0
  9
$REGENMODE
 70
     1
  9
$FILLMODE
 70
     1
  9
$QTEXTMODE
 70
     0
  9
$MIRRTEXT
 70
     0
  9
$LTSCALE
 40
0.605
  9
$ATTMODE
 70
     1
  9
$TEXTSIZE
 40
0.2
  9
$TRACEWID
 40
0.05
  9
$TEXTSTYLE
  7
STANDARD
  9
$CLAYER
  8
0
  9
$CELTYPE
  6
BYLAYER
  9
$CECOLOR
 62
   256
  9
$CELTSCALE
 40
1.0
  9
$DISPSILH
 70
     0
  9
$DIMSCALE
 40
1.0
  9
$DIMASZ
 40
0.1875
  9
$DIMEXO
 40
0.06875
  9
$DIMDLI
 40
0.418
  9
$DIMRND
 40
0.0
  9
$DIMDLE
 40
0.0
  9
$DIMEXE
 40
0.198
  9
$DIMTP
 40
0.0
  9
$DIMTM
 40
0.0
  9
$DIMTXT
 40
0.15625
  9
$DIMCEN
 40
0.099
  9
$DIMTSZ
 40
0.0
  9
$DIMTOL
 70
     0
  9
$DIMLIM
 70
     0
  9
$DIMTIH
 70
     1
  9
$DIMTOH
 70
     1
  9
$DIMSE1
 70
     0
  9
$DIMSE2
 70
     0
  9
$DIMTAD
 70
     0
  9
$DIMZIN
 70
     0
  9
$DIMBLK
  1

  9
$DIMASO
 70
     1
  9
$DIMSHO
 70
     1
  9
$DIMPOST
  1

  9
$DIMAPOST
  1

  9
$DIMALT
 70
     0
  9
$DIMALTD
 70
     2
  9
$DIMALTF
 40
25.4
  9
$DIMLFAC
 40
1.0
  9
$DIMTOFL
 70
     0
  9
$DIMTVP
 40
0.0
  9
$DIMTIX
 70
     0
  9
$DIMSOXD
 70
     0
  9
$DIMSAH
 70
     0
  9
$DIMBLK1
  1

  9
$DIMBLK2
  1

  9
$DIMSTYLE
  2
STANDARD
  9
$DIMCLRD
 70
     0
  9
$DIMCLRE
 70
     0
  9
$DIMCLRT
 70
     0
  9
$DIMTFAC
 40
1.0
  9
$DIMGAP
 40
0.09
  9
$DIMJUST
 70
     0
  9
$DIMSD1
 70
     0
  9
$DIMSD2
 70
     0
  9
$DIMTOLJ
 70
     1
  9
$DIMTZIN
 70
     0
  9
$DIMALTZ
 70
     0
  9
$DIMALTTZ
 70
     0
  9
$DIMUPT
 70
     0
  9
$DIMDEC
 70
     2
  9
$DIMTDEC
 70
     4
  9
$DIMALTU
 70
     2
  9
$DIMALTTD
 70
     2
  9
$DIMTXSTY
  7
STANDARD
  9
$DIMAUNIT
 70
     0
  9
$DIMADEC
 70
     0
  9
$DIMALTRND
 40
0.0
  9
$DIMAZIN
 70
     0
  9
$DIMDSEP
 70
    46
  9
$DIMATFIT
 70
     3
  9
$DIMFRAC
 70
     0
  9
$DIMLDRBLK
  1

  9
$DIMLUNIT
 70
     2
  9
$DIMLWD
 70
    -2
  9
$DIMLWE
 70
    -2
  9
$DIMTMOVE
 70
     0
  9
$LUNITS
 70
     2
  9
$LUPREC
 70
     4
  9
$SKETCHINC
 40
0.1
  9
$FILLETRAD
 40
0.0
  9
$AUNITS
 70
     0
  9
$AUPREC
 70
     0
  9
$MENU
  1
.
  9
$ELEVATION
 40
0.0
  9
$PELEVATION
 40
0.0
  9
$THICKNESS
 40
0.0
  9
$LIMCHECK
 70
     0
  9
$CHAMFERA
 40
0.0
  9
$CHAMFERB
 40
0.0
  9
$CHAMFERC
 40
0.0
  9
$CHAMFERD
 40
0.0
  9
$SKPOLY
 70
     0
  9
$TDCREATE
 40
2456541.641873414
  9
$TDUCREATE
 40
2456541.850206748
  9
$TDUPDATE
 40
2456541.642554468
  9
$TDUUPDATE
 40
2456541.850887801
  9
$TDINDWG
 40
0.0006821296
  9
$TDUSRTIMER
 40
0.0006821296
  9
$USRTIMER
 70
     1
  9
$ANGBASE
 50
0.0
  9
$ANGDIR
 70
     0
  9
$PDMODE
 70
     3
  9
$PDSIZE
 40
0.3125
  9
$PLINEWID
 40
0.0
  9
$SPLFRAME
 70
     0
  9
$SPLINETYPE
 70
     6
  9
$SPLINESEGS
 70
     8
  9
$HANDSEED
  5
3EF
  9
$SURFTAB1
 70
     6
  9
$SURFTAB2
 70
     6
  9
$SURFTYPE
 70
     6
  9
$SURFU
 70
     6
  9
$SURFV
 70
     6
  9
$UCSBASE
  2

  9
$UCSNAME
  2

  9
$UCSORG
 10
0.0
 20
0.0
 30
0.0
  9
$UCSXDIR
 10
1.0
 20
0.0
 30
0.0
  9
$UCSYDIR
 10
0.0
 20
1.0
 30
0.0
  9
$UCSORTHOREF
  2

  9
$UCSORTHOVIEW
 70
     0
  9
$UCSORGTOP
 10
0.0
 20
0.0
 30
0.0
  9
$UCSORGBOTTOM
 10
0.0
 20
0.0
 30
0.0
  9
$UCSORGLEFT
 10
0.0
 20
0.0
 30
0.0
  9
$UCSORGRIGHT
 10
0.0
 20
0.0
 30
0.0
  9
$UCSORGFRONT
 10
0.0
 20
0.0
 30
0.0
  9
$UCSORGBACK
 10
0.0
 20
0.0
 30
0.0
  9
$PUCSBASE
  2

  9
$PUCSNAME
  2

  9
$PUCSORG
 10
0.0
 20
0.0
 30
0.0
  9
$PUCSXDIR
 10
1.0
 20
0.0
 30
0.0
  9
$PUCSYDIR
 10
0.0
 20
1.0
 30
0.0
  9
$PUCSORTHOREF
  2

  9
$PUCSORTHOVIEW
 70
     0
  9
$PUCSORGTOP
 10
0.0
 20
0.0
 30
0.0
  9
$PUCSORGBOTTOM
 10
0.0
 20
0.0
 30
0.0
  9
$PUCSORGLEFT
 10
0.0
 20
0.0
 30
0.0
  9
$PUCSORGRIGHT
 10
0.0
 20
0.0
 30
0.0
  9
$PUCSORGFRONT
 10
0.0
 20
0.0
 30
0.0
  9
$PUCSORGBACK
 10
0.0
 20
0.0
 30
0.0
  9
$USERI1
 70
     0
  9
$USERI2
 70
     0
  9
$USERI3
 70
     0
  9
$USERI4
 70
     0
  9
$USERI5
 70
     0
  9
$USERR1
 40
0.0
  9
$USERR2
 40
0.0
  9
$USERR3
 40
0.0
  9
$USERR4
 40
0.0
  9
$USERR5
 40
0.0
  9
$WORLDVIEW
 70
     1
  9
$SHADEDGE
 70
     3
  9
$SHADEDIF
 70
    70
  9
$TILEMODE
 70
     1
  9
$MAXACTVP
 70
    64
  9
$PINSBASE
 10
0.0
 20
0.0
 30
0.0
  9
$PLIMCHECK
 70
     0
  9
$PEXTMIN
 10
1.000000000000000E+20
 20
1.000000000000000E+20
 30
1.000000000000000E+20
  9
$PEXTMAX
 10
-1.000000000000000E+20
 20
-1.000000000000000E+20
 30
-1.000000000000000E+20
  9
$PLIMMIN
 10
0.0
 20
0.0
  9
$PLIMMAX
 10
12.0
 20
9.0
  9
$UNITMODE
 70
     0
  9
$VISRETAIN
 70
     1
  9
$PLINEGEN
 70
     0
  9
$PSLTSCALE
 70
     1
  9
$TREEDEPTH
 70
  3020
  9
$CMLSTYLE
  2
Standard
  9
$CMLJUST
 70
     0
  9
$CMLSCALE
 40
1.0
  9
$PROXYGRAPHICS
 70
     1
  9
$MEASUREMENT
 70
     0
  9
$CELWEIGHT
370
    -1
  9
$ENDCAPS
280
     0
  9
$JOINSTYLE
280
     0
  9
$LWDISPLAY
290
     0
  9
$INSUNITS
 70
     1
  9
$HYPERLINKBASE
  1

  9
$STYLESHEET
  1

  9
$XEDIT
290
     1
  9
$CEPSNTYPE
380
     0
  9
$PSTYLEMODE
290
     1
  9
$FINGERPRINTGUID
  2
{EEFCBA4E-EB50-4EB4-8A18-265ED8BA540E}
  9
$VERSIONGUID
  2
{ADED86AA-5756-425C-92C2-70209BB7DB96}
  9
$EXTNAMES
290
     1
  9
$PSVPSCALE
 40
0.0
  9
$OLESTARTUP
290
     0
  9
$SORTENTS
280
   127
  9
$INDEXCTL
280
     0
  9
$HIDETEXT
280
     1
  9
$XCLIPFRAME
290
     0
  9
$HALOGAP
280
     0
  9
$OBSCOLOR
 70
   257
  9
$OBSLTYPE
280
     0
  9
$INTERSECTIONDISPLAY
280
     0
  9
$INTERSECTIONCOLOR
 70
   257
  9
$DIMASSOC
280
     2
  9
$PROJECTNAME
  1

  0
ENDSEC
  0
SECTION
  2
CLASSES
  0
CLASS
  1
ACDBDICTIONARYWDFLT
  2
AcDbDictionaryWithDefault
  3
ObjectDBX Classes
 90
        0
 91
        1
280
     0
281
     0
  0
CLASS
  1
TABLESTYLE
  2
AcDbTableStyle
  3
ObjectDBX Classes
 90
     2047
 91
        1
280
     0
281
     0
  0
CLASS
  1
AMGSETTINGSOBJ
  2
AmgSettingsObj
  3
"AcadM|Product Description: AutoCAD Mechanical 2000|Company: Autodesk"
 90
        0
 91
        2
280
     0
281
     0
  0
CLASS
  1
ACME_DOCUMENT
  2
AcMeDbDoc
  3
AcMeServices
 90
        0
 91
        1
280
     0
281
     0
  0
CLASS
  1
ACMESCOPE
  2
AcMeScope
  3
AcMeServices
 90
        0
 91
        1
280
     0
281
     0
  0
CLASS
  1
ACMECOMMANDHISTORY
  2
AcMeCommandHistory
  3
AcMeServices
 90
        0
 91
        1
280
     0
281
     0
  0
CLASS
  1
ACIMSYSVARMAN
  2
AcImSysVarManager
  3
AcMeServices
 90
        0
 91
        5
280
     0
281
     0
  0
CLASS
  1
ACIMINTSYSVAR
  2
AcImIntSysVar
  3
AcMeServices
 90
        0
 91
       26
280
     0
281
     0
  0
CLASS
  1
ACMEDRAWINGMAN
  2
AcMeDrawingMan
  3
AcMeServices
 90
        0
 91
        1
280
     0
281
     0
  0
CLASS
  1
ACMEVIEW
  2
AcMeView
  3
AcMeServices
 90
        0
 91
        1
280
     0
281
     0
  0
CLASS
  1
ACDBENTITYCACHE
  2
AcMeEntityCache
  3
AcMeServices
 90
        0
 91
        1
280
     0
281
     0
  0
CLASS
  1
GSMANAGER
  2
AcMeGSManager
  3
AcMeServices
 90
        0
 91
        1
280
     0
281
     0
  0
CLASS
  1
AMDTINTERNALREACTOR
  2
AmdtInternalReactor
  3
AcMeServices
 90
        0
 91
        2
280
     0
281
     0
  0
CLASS
  1
ACMESTATEMGR
  2
AcMeStateMgr
  3
AcMeServices
 90
        0
 91
        1
280
     0
281
     0
  0
CLASS
  1
ACGREFMASTER
  2
AcGrefMaster
  3
AcAttribServices
 90
        0
 91
        1
280
     0
281
     0
  0
CLASS
  1
AM_DRAWING_MGR
  2
AcDmDwgMgr
  3
AcMechDwgViewMgmt
 90
        0
 91
        1
280
     0
281
     0
  0
CLASS
  1
AM_DWG_DOCUMENT
  2
AcDmDwgDocument
  3
AcMechDwgViewMgmt
 90
        0
 91
        1
280
     0
281
     0
  0
CLASS
  1
AM_DWG_SHEET
  2
AcDmSheet
  3
AcMechDwgViewMgmt
 90
        0
 91
        1
280
     0
281
     0
  0
CLASS
  1
AM_VIEWDIMPARMAP
  2
AcDmViewDimParMap
  3
AcMechDwgViewMgmt
 90
        0
 91
        1
280
     0
281
     0
  0
CLASS
  1
ACIMREALSYSVAR
  2
AcImRealSysVar
  3
AcMeServices
 90
        0
 91
        1
280
     0
281
     0
  0
CLASS
  1
AM_DWGMGR_NAME
  2
AcDmDwgMgrName
  3
AcMechDwgViewMgmt
 90
        0
 91
        1
280
     0
281
     0
  0
CLASS
  1
ACME_DATABASE
  2
AcMeDbDatabase
  3
AcMeServices
 90
        0
 91
        1
280
     0
281
     0
  0
CLASS
  1
ACRFINSADJUSTERMGR
  2
AcRfInsAdjusterMgr
  3
AcMeServices
 90
        0
 91
        1
280
     0
281
     0
  0
CLASS
  1
ACGREFACADMASTER
  2
AcGrefacadMaster
  3
AcGrefServices
 90
        0
 91
        1
280
     0
281
     0
  0
CLASS
  1
AMDTMENUSTATEMGR
  2
AmdtMenuStateMgr
  3
McadcomServices
 90
        0
 91
        1
280
     0
281
     0
  0
CLASS
  1
AMDTMCOMMENUSTATE
  2
AmdtMcomMenuState
  3
McadcomServices
 90
        0
 91
        1
280
     0
281
     0
  0
CLASS
  1
AMIMASTER
  2
AmiMaster
  3
AmiServices
 90
        0
 91
        1
280
     0
281
     0
  0
CLASS
  1
MAPIAMMOUDLE
  2
MApiAmModule
  3
MApiAmServices
 90
        0
 91
        1
280
     0
281
     0
  0
CLASS
  1
ACIMSTRSYSVAR
  2
AcImStrSysVar
  3
AcMeServices
 90
        0
 91
        5
280
     0
281
     0
  0
CLASS
  1
AMDTADMENUSTATE
  2
AmdtAdMenuState
  3
DesignerServices
 90
        0
 91
        1
280
     0
281
     0
  0
CLASS
  1
ADAPPL
  2
AcAdAppl
  3
DesignerServices
 90
        0
 91
        1
280
     0
281
     0
  0
CLASS
  1
DEPMGR
  2
AcAdDepMgr
  3
DesignerServices
 90
        0
 91
        1
280
     0
281
     0
  0
CLASS
  1
PARAMMGR
  2
AcAdParamMgr
  3
DesignerServices
 90
        0
 91
        1
280
     0
281
     0
  0
CLASS
  1
PARAMSCOPE
  2
AcAdParamScope
  3
DesignerServices
 90
        0
 91
        1
280
     0
281
     0
  0
CLASS
  1
NAMEDAPPL
  2
AcAdNamedAppl
  3
DesignerServices
 90
        0
 91
        1
280
     0
281
     0
  0
CLASS
  1
AMDTDMMENUSTATE
  2
AmdtDmMenuState
  3
AcMechDwgViewMgmt
 90
        0
 91
        1
280
     0
281
     0
  0
CLASS
  1
AMDTAMMENUSTATE
  2
AmdtAmMenuState
  3
DesignerAssemblies
 90
        0
 91
        1
280
     0
281
     0
  0
CLASS
  1
ACAMPROJECT
  2
AcAmProject
  3
DesignerAssemblies
 90
        0
 91
        1
280
     0
281
     0
  0
CLASS
  1
ACAMGRCOMPDEF
  2
AcAmGrCompDef
  3
DesignerAssemblies
 90
        0
 91
        1
280
     0
281
     0
  0
CLASS
  1
ACCMCONTEXT
  2
AcCmContext
  3
DesignerAssemblies
 90
        0
 91
        1
280
     0
281
     0
  0
CLASS
  1
ACAMCOMPDEF
  2
AcAmCompDef
  3
DesignerAssemblies
 90
        0
 91
        1
280
     0
281
     0
  0
CLASS
  1
ACAMCOMPDEFMGR
  2
AcAmCompDefMgr
  3
DesignerAssemblies
 90
        0
 91
        1
280
     0
281
     0
  0
CLASS
  1
AMCONTEXTMGR
  2
AcAmContextMgr
  3
DesignerAssemblies
 90
        0
 91
        1
280
     0
281
     0
  0
CLASS
  1
ACAMCONTEXTMODELER
  2
AcAmContextModeler
  3
DesignerAssemblies
 90
        0
 91
        1
280
     0
281
     0
  0
CLASS
  1
ACMDATADICTIONARY
  2
AcmDataDictionary
  3
"AcmSymBB|Product Description: AutoCAD Mechanical 2004 DX|Company: Autodesk"
 90
        0
 91
        1
280
     0
281
     0
  0
CLASS
  1
CATALOGSTATE
  2
AcAmCatalogState
  3
DesignerAssemblies
 90
        0
 91
        1
280
     0
281
     0
  0
CLASS
  1
ACAMGRCOMPDEFSET
  2
AcAmGrCompDefSet
  3
DesignerAssemblies
 90
        0
 91
        1
280
     0
281
     0
  0
CLASS
  1
AMDTBROWSERDBTAB
  2
AmdtBrowserDbTab
  3
McadcomServices
 90
        0
 91
        1
280
     0
281
     0
  0
CLASS
  1
CBROWSERAPPOBJECT
  2
CBrowserAppObject
  3
McadcomServices
 90
        0
 91
        3
280
     0
281
     0
  0
CLASS
  1
DM_PLACEHOLDER
  2
AcDmSelsetPlaceholder
  3
AcMechDwgViewMgmt
 90
        0
 91
        1
280
     0
281
     0
  0
CLASS
  1
ACMSTANDARDANSI
  2
AcmStandardANSI
  3
"Amdt_StdImp|Product Description: AutoCAD Mechanical 2004 DX|Company: Autodesk"
 90
        0
 91
        1
280
     0
281
     0
  0
CLASS
  1
AMGOBJPROPCFG
  2
AmgObjPropCfg
  3
"AmgLay|Product Description: AutoCAD Mechanical 2000|Company: Autodesk"
 90
        1
 91
        1
280
     0
281
     0
  0
CLASS
  1
ACMSURFSTANDARDANSI
  2
AcmSurfTextStdANSI
  3
"Amdt_StdImp|Product Description: AutoCAD Mechanical 2004 DX|Company: Autodesk"
 90
        0
 91
        1
280
     0
281
     0
  0
CLASS
  1
ACMFCFSTANDARDANSI
  2
AcmFCFStdANSI
  3
"Amdt_StdImp|Product Description: AutoCAD Mechanical 2004 DX|Company: Autodesk"
 90
        0
 91
        1
280
     0
281
     0
  0
CLASS
  1
ACMWELDSTANDARDANSI
  2
AcmWeldingStdANSI
  3
"Amdt_StdImp|Product Description: AutoCAD Mechanical 2004 DX|Company: Autodesk"
 90
        0
 91
        1
280
     0
281
     0
  0
CLASS
  1
ACMIDSTANDARDANSI
  2
AcmIdStdANSI
  3
"Amdt_StdImp|Product Description: AutoCAD Mechanical 2004 DX|Company: Autodesk"
 90
        0
 91
        1
280
     0
281
     0
  0
CLASS
  1
ACMDATUMSTANDARDANSI
  2
AcmDatumStdANSI
  3
"Amdt_StdImp|Product Description: AutoCAD Mechanical 2004 DX|Company: Autodesk"
 90
        0
 91
        1
280
     0
281
     0
  0
CLASS
  1
ACMBOMSTANDARDANSI
  2
AcmBOMStdANSI
  3
"Amdt_StdImp|Product Description: AutoCAD Mechanical 2004 DX|Company: Autodesk"
 90
        0
 91
        1
280
     0
281
     0
  0
CLASS
  1
ACMDETAILSTANDARDANSI
  2
AmdtDetailSymStdANSI
  3
"Amdt_StdImp|Product Description: AutoCAD Mechanical 2004 DX|Company: Autodesk"
 90
        0
 91
        1
280
     0
281
     0
  0
CLASS
  1
ACMSECTIONSTANDARDANSI
  2
AmdtSectionSymStdANSI
  3
"Amdt_StdImp|Product Description: AutoCAD Mechanical 2004 DX|Company: Autodesk"
 90
        0
 91
        1
280
     0
281
     0
  0
CLASS
  1
ACMCENTERLINESTANDARDANSI
  2
AmdtCenterLineStdANSI
  3
"Amdt_StdImp|Product Description: AutoCAD Mechanical 2004 DX|Company: Autodesk"
 90
        0
 91
        1
280
     0
281
     0
  0
CLASS
  1
ACMTHREADLINESTANDARDANSI
  2
AmdtThreadLineStdANSI
  3
"Amdt_StdImp|Product Description: AutoCAD Mechanical 2004 DX|Company: Autodesk"
 90
        0
 91
        1
280
     0
281
     0
  0
CLASS
  1
ACMNOTESTANDARDANSI
  2
AmdtNoteStdANSI
  3
"Amdt_StdImp|Product Description: AutoCAD Mechanical 2004 DX|Company: Autodesk"
 90
        0
 91
        1
280
     0
281
     0
  0
CLASS
  1
AMDTNOTETEMPLATEDB
  2
AmdtNoteTemplateDB
  3
AMDT_STDIMP_MODULE_NAME
 90
        0
 91
        6
280
     0
281
     0
  0
CLASS
  1
ACAMGLAYSTD
  2
AcAmgLayStd
  3
"AcAmgLayStd|Product Description: AutoCAD Mechanical 2000|Company: Autodesk"
 90
        0
 91
        1
280
     0
281
     0
  0
CLASS
  1
ACAMGDIMSTD
  2
AcAmgDimStd
  3
"AcAmgDimStd|Product Description: AutoCAD Mechanical 2000|Company: Autodesk"
 90
        0
 91
        1
280
     0
281
     0
  0
CLASS
  1
ACAMGHOLECHARTSTDANSI
  2
AcAmgHoleChartStdANSI
  3
ACMSYMBB_MODULE_NAME
 90
        0
 91
        1
280
     0
281
     0
  0
CLASS
  1
ACAMGTITLESTD
  2
AcAmgTitleStd
  3
"TITLEAPP"
 90
        0
 91
        1
280
     0
281
     0
  0
CLASS
  1
ACAMGFILTERDAT
  2
AcAmgFilterDat
  3
"AcadM|Product Description: AutoCAD Mechanical 2000|Company: Autodesk"
 90
        0
 91
        6
280
     0
281
     0
  0
CLASS
  1
DIMASSOC
  2
AcDbDimAssoc
  3
"AcDbDimAssoc|Product Desc:     AcDim ARX App For Dimension|Company:          Autodesk, Inc.|WEB Address:      www.autodesk.com"
 90
        0
 91
        3
280
     0
281
     0
  0
CLASS
  1
DICTIONARYVAR
  2
AcDbDictionaryVar
  3
ObjectDBX Classes
 90
        0
 91
        1
280
     0
281
     0
  0
ENDSEC
  0
SECTION
  2
TABLES
  0
TABLE
  2
VPORT
  5
8
330
0
100
AcDbSymbolTable
 70
    55
  0
VPORT
  5
3EE
330
8
100
AcDbSymbolTableRecord
100
AcDbViewportTableRecord
  2
*Active
 70
     0
 10
0.0
 20
0.0
 11
1.0
 21
1.0
 12
5.500000025611372
 22
4.250000019790604
 13
0.0
 23
0.0
 14
1.0
 24
1.0
 15
0.0
 25
0.0
 16
0.0
 26
0.0
 36
1.0
 17
0.0
 27
0.0
 37
0.0
 40
8.581993419903763
 41
1.735999999999999
 42
50.0
 43
0.0
 44
0.0
 50
0.0
 51
0.0
 71
     0
 72
   100
 73
     1
 74
     1
 75
     0
 76
     0
 77
     0
 78
     0
281
     0
 65
     0
110
0.0
120
0.0
130
0.0
111
1.0
121
0.0
131
0.0
112
0.0
122
1.0
132
0.0
 79
     0
146
0.0
  0
ENDTAB
  0
TABLE
  2
LTYPE
  5
5
330
0
100
AcDbSymbolTable
 70
    19
  0
LTYPE
  5
14
330
5
100
AcDbSymbolTableRecord
100
AcDbLinetypeTableRecord
  2
BYBLOCK
 70
     0
  3

 72
    65
 73
     0
 40
0.0
  0
LTYPE
  5
15
330
5
100
AcDbSymbolTableRecord
100
AcDbLinetypeTableRecord
  2
BYLAYER
 70
     0
  3

 72
    65
 73
     0
 40
0.0
  0
LTYPE
  5
16
330
5
100
AcDbSymbolTableRecord
100
AcDbLinetypeTableRecord
  2
CONTINUOUS
 70
     0
  3
Solid line
 72
    65
 73
     0
 40
0.0
  0
LTYPE
  5
1F5
330
5
100
AcDbSymbolTableRecord
100
AcDbLinetypeTableRecord
  2
CENTER
 70
     0
  3
____ _ ____ _ ____ _ ____ _ ____ _ ____ _ ____
 72
    65
 73
     4
 40
0.6
 49
0.375
 74
     0
 49
-0.075
 74
     0
 49
0.075
 74
     0
 49
-0.075
 74
     0
  0
LTYPE
  5
1F6
330
5
100
AcDbSymbolTableRecord
100
AcDbLinetypeTableRecord
  2
HIDDEN
 70
     0
  3
- - - - - - - - - - - - - - - - - - - -
 72
    65
 73
     2
 40
0.2
 49
0.1
 74
     0
 49
-0.1
 74
     0
  0
LTYPE
  5
1F7
330
5
100
AcDbSymbolTableRecord
100
AcDbLinetypeTableRecord
  2
PHANTOM
 70
     0
  3
_____ _ _ _____ _ _ _____ _ _ _____
 72
    65
 73
     6
 40
0.8
 49
0.45
 74
     0
 49
-0.05
 74
     0
 49
0.1
 74
     0
 49
-0.05
 74
     0
 49
0.1
 74
     0
 49
-0.05
 74
     0
  0
LTYPE
  5
1F8
330
5
100
AcDbSymbolTableRecord
100
AcDbLinetypeTableRecord
  2
DOT
 70
     0
  3
. . . . . . . . . . . . . . . . . . . .
 72
    65
 73
     2
 40
0.2
 49
0.1
 74
     0
 49
-0.1
 74
     0
  0
LTYPE
  5
1F9
330
5
100
AcDbSymbolTableRecord
100
AcDbLinetypeTableRecord
  2
DASHED
 70
     0
  3
- - - - - - - - - - - - - - - - - - - -
 72
    65
 73
     2
 40
0.2
 49
0.1
 74
     0
 49
-0.1
 74
     0
  0
LTYPE
  5
28E
330
5
100
AcDbSymbolTableRecord
100
AcDbLinetypeTableRecord
  2
PHANTOM2
 70
     0
  3
Phantom (.5x) ___ _ _ ___ _ _ ___ _ _ ___ _ _
 72
    65
 73
     6
 40
1.25
 49
0.625
 74
     0
 49
-0.125
 74
     0
 49
0.125
 74
     0
 49
-0.125
 74
     0
 49
0.125
 74
     0
 49
-0.125
 74
     0
  0
LTYPE
  5
2C2
330
5
100
AcDbSymbolTableRecord
100
AcDbLinetypeTableRecord
  2
AM_ISO02W050
 70
     0
  3
__ __ __ __ __ __ __ __ __ __ __ __ __ __ __
 72
    65
 73
     2
 40
7.5
 49
6.0
 74
     0
 49
-1.5
 74
     0
  0
LTYPE
  5
2C3
330
5
100
AcDbSymbolTableRecord
100
AcDbLinetypeTableRecord
  2
AM_ISO08W050
 70
     0
  3
____ . ____ . ____ . ____ . ____ . ____ . ____
 72
    65
 73
     4
 40
18.0
 49
12.0
 74
     0
 49
-1.5
 74
     0
 49
3.0
 74
     0
 49
-1.5
 74
     0
  0
LTYPE
  5
2C4
330
5
100
AcDbSymbolTableRecord
100
AcDbLinetypeTableRecord
  2
AM_ISO09W050
 70
     0
  3
_____ . . _____ . . _____ . . ____ .. ____
 72
    65
 73
     6
 40
22.5
 49
12.0
 74
     0
 49
-1.5
 74
     0
 49
3.0
 74
     0
 49
-1.5
 74
     0
 49
3.0
 74
     0
 49
-1.5
 74
     0
  0
LTYPE
  5
2C5
330
5
100
AcDbSymbolTableRecord
100
AcDbLinetypeTableRecord
  2
Amconstr
 70
     0
  3
_______________________
 72
    65
 73
     2
 40
9999.0
 49
9999.0
 74
     0
 49
0.0
 74
     0
  0
LTYPE
  5
2C6
330
5
100
AcDbSymbolTableRecord
100
AcDbLinetypeTableRecord
  2
AM_ISO08W050x2
 70
     0
  3
__ . __ . __ . __ . __ . __
 72
    65
 73
     4
 40
9.0
 49
6.0
 74
     0
 49
-0.75
 74
     0
 49
1.5
 74
     0
 49
-0.75
 74
     0
  0
LTYPE
  5
2C7
330
5
100
AcDbSymbolTableRecord
100
AcDbLinetypeTableRecord
  2
AM_ISO02W050x2
 70
     0
  3
 _ _ _ _ _ _ _ _ _ _ _ _
 72
    65
 73
     2
 40
3.75
 49
3.0
 74
     0
 49
-0.75
 74
     0
  0
LTYPE
  5
2CA
330
5
100
AcDbSymbolTableRecord
100
AcDbLinetypeTableRecord
  2
Amzigzag
 70
     0
  3
/\/-/\/-/\/-/\/-/\/-/\/
 72
    65
 73
     2
 40
11.0001
 49
0.0001
 74
     4
 75
   136
340
2C9
 46
0.04
 50
0.0
 44
0.0
 45
0.0
 49
-11.0
 74
     0
  0
LTYPE
  5
2CB
330
5
100
AcDbSymbolTableRecord
100
AcDbLinetypeTableRecord
  2
CENTER2
 70
     0
  3
Center (.5x) ___ _ ___ _ ___ _ ___ _ ___ _ ___
 72
    65
 73
     4
 40
1.125
 49
0.75
 74
     0
 49
-0.125
 74
     0
 49
0.125
 74
     0
 49
-0.125
 74
     0
  0
LTYPE
  5
2CC
330
5
100
AcDbSymbolTableRecord
100
AcDbLinetypeTableRecord
  2
HIDDEN2
 70
     0
  3
Hidden (.5x) _ _ _ _ _ _ _ _ _ _ _ _ _ _ _ _ _
 72
    65
 73
     2
 40
0.1875
 49
0.125
 74
     0
 49
-0.0625
 74
     0
  0
LTYPE
  5
2CD
330
5
100
AcDbSymbolTableRecord
100
AcDbLinetypeTableRecord
  2
Amzigzag2
 70
     0
  3
/\/-/\/-/\/-/\/-/\/-/\/
 72
    65
 73
     2
 40
0.4401
 49
0.0001
 74
     4
 75
   136
340
2C9
 46
0.0016
 50
0.0
 44
0.0
 45
0.0
 49
-0.4400000000000001
 74
     0
  0
LTYPE
  5
2DB
330
5
100
AcDbSymbolTableRecord
100
AcDbLinetypeTableRecord
  2
ACANSTGB
 70
     0
  3
__ . . __ . .
 72
    65
 73
     6
 40
0.35433070866
 49
0.15748031496
 74
     0
 49
-0.03937007874
 74
     0
 49
0.03937007874
 74
     0
 49
-0.03937007874
 74
     0
 49
0.03937007874
 74
     0
 49
-0.03937007874
 74
     0
  0
LTYPE
  5
2DC
330
5
100
AcDbSymbolTableRecord
100
AcDbLinetypeTableRecord
  2
ACANSTGL
 70
     0
  3
_ _ _ _ _
 72
    65
 73
     2
 40
0.11811023622
 49
0.07874015748
 74
     0
 49
-0.03937007874
 74
     0
  0
ENDTAB
  0
TABLE
  2
LAYER
  5
2
330
0
100
AcDbSymbolTable
 70
     8
  0
LAYER
  5
10
330
2
100
AcDbSymbolTableRecord
100
AcDbLayerTableRecord
  2
0
 70
     0
 62
     7
  6
CONTINUOUS
370
    -3
390
F
  0
LAYER
  5
1FA
330
2
100
AcDbSymbolTableRecord
100
AcDbLayerTableRecord
  2
DEFAULT_1
 70
     0
 62
     7
  6
CENTER
370
    -3
390
F
  0
LAYER
  5
1FB
330
2
100
AcDbSymbolTableRecord
100
AcDbLayerTableRecord
  2
DEFAULT_2
 70
     0
 62
     8
  6
HIDDEN
370
    -3
390
F
  0
LAYER
  5
1FC
330
2
100
AcDbSymbolTableRecord
100
AcDbLayerTableRecord
  2
DEFAULT_3
 70
     0
 62
     7
  6
PHANTOM
370
    -3
390
F
  0
LAYER
  5
1FD
330
2
100
AcDbSymbolTableRecord
100
AcDbLayerTableRecord
  2
CSYS_PART
 70
     0
 62
     7
  6
CONTINUOUS
370
    -3
390
F
  0
LAYER
  5
1FE
330
2
100
AcDbSymbolTableRecord
100
AcDbLayerTableRecord
  2
R2
 70
     0
 62
     7
  6
CONTINUOUS
370
    -3
390
F
  0
LAYER
  5
309
330
2
100
AcDbSymbolTableRecord
100
AcDbLayerTableRecord
  2
AM_5
 70
     0
 62
     3
  6
CONTINUOUS
370
    15
390
F
1001
AcAecLayerStandard
1000

1000

  0
LAYER
  5
322
330
2
100
AcDbSymbolTableRecord
100
AcDbLayerTableRecord
  2
Defpoints
 70
     0
 62
     7
  6
CONTINUOUS
290
     0
370
    -3
390
F
  0
ENDTAB
  0
TABLE
  2
STYLE
  5
3
330
0
100
AcDbSymbolTable
 70
     5
  0
STYLE
  5
11
330
3
100
AcDbSymbolTableRecord
100
AcDbTextStyleTableRecord
  2
STANDARD
 70
     0
 40
0.0
 41
0.8
 50
0.0
 71
     0
 42
0.2
  3
txt
  4

  0
STYLE
  5
1FF
330
3
100
AcDbSymbolTableRecord
100
AcDbTextStyleTableRecord
  2
TEXTSTYLE_1
 70
     0
 40
0.0
 41
0.8
 50
0.0
 71
     0
 42
0.2
  3
gdt
  4

  0
STYLE
  5
2C9
330
3
100
AcDbSymbolTableRecord
100
AcDbTextStyleTableRecord
  2

 70
     1
 40
0.0
 41
1.0
 50
0.0
 71
     0
 42
0.2
  3
genltshp.shx
  4

  0
STYLE
  5
2CE
330
3
100
AcDbSymbolTableRecord
100
AcDbTextStyleTableRecord
  2
ACANSTS
 70
     0
 40
1.0
 41
1.0
 50
0.0
 71
     0
 42
0.2
  3
romans.shx
  4

  0
STYLE
  5
2DA
330
3
100
AcDbSymbolTableRecord
100
AcDbTextStyleTableRecord
  2
ACANSGDT
 70
     0
 40
0.0
 41
1.0
 50
0.0
 71
     0
 42
0.2
  3
AMGDT
  4

  0
ENDTAB
  0
TABLE
  2
VIEW
  5
6
330
0
100
AcDbSymbolTable
 70
     1
  0
ENDTAB
  0
TABLE
  2
UCS
  5
7
330
0
100
AcDbSymbolTable
 70
     0
  0
ENDTAB
  0
TABLE
  2
APPID
  5
9
330
0
100
AcDbSymbolTable
 70
    12
  0
APPID
  5
200
330
9
100
AcDbSymbolTableRecord
100
AcDbRegAppTableRecord
  2
ACAD
 70
     0
  0
APPID
  5
261
330
9
100
AcDbSymbolTableRecord
100
AcDbRegAppTableRecord
  2
MCAD_NO_VIS
 70
     0
  0
APPID
  5
262
330
9
100
AcDbSymbolTableRecord
100
AcDbRegAppTableRecord
  2
ACAD_TEMP_GRAPHIC
 70
     0
  0
APPID
  5
290
330
9
100
AcDbSymbolTableRecord
100
AcDbRegAppTableRecord
  2
AD_DRAW
 70
     0
  0
APPID
  5
293
330
9
100
AcDbSymbolTableRecord
100
AcDbRegAppTableRecord
  2
ACATTRIBSERVICES
 70
     0
  0
APPID
  5
2B3
330
9
100
AcDbSymbolTableRecord
100
AcDbRegAppTableRecord
  2
DESIGNERASSEMBLIES
 70
     0
  0
APPID
  5
2B9
330
9
100
AcDbSymbolTableRecord
100
AcDbRegAppTableRecord
  2
ACADM_DIM_EDIT
 70
     0
  0
APPID
  5
2BA
330
9
100
AcDbSymbolTableRecord
100
AcDbRegAppTableRecord
  2
AMDT_DM_ADJ
 70
     0
  0
APPID
  5
2E8
330
9
100
AcDbSymbolTableRecord
100
AcDbRegAppTableRecord
  2
ACAD_DSTYLE_DIMARC_LENGTH_SYMBOL
 70
     0
  0
APPID
  5
2E9
330
9
100
AcDbSymbolTableRecord
100
AcDbRegAppTableRecord
  2
ACAD_DSTYLE_DIMJOGGED_JOGANGLE_SYMBOL
 70
     0
  0
APPID
  5
30A
330
9
100
AcDbSymbolTableRecord
100
AcDbRegAppTableRecord
  2
AcAecLayerStandard
 70
     0
  0
APPID
  5
3D5
330
9
100
AcDbSymbolTableRecord
100
AcDbRegAppTableRecord
  2
GENIUS_GENDTOL_13
 70
     0
  0
ENDTAB
  0
TABLE
  2
DIMSTYLE
  5
A
330
0
100
AcDbSymbolTable
 70
     8
100
AcDbDimStyleTable
 71
     1
340
203
  0
DIMSTYLE
105
203
330
A
100
AcDbSymbolTableRecord
100
AcDbDimStyleTableRecord
  2
STANDARD
 70
     0
 41
0.1875
 47
0.05
 48
0.05
 78
     4
140
0.15625
271
     2
272
     2
284
     4
340
11
  0
DIMSTYLE
105
2E7
330
A
100
AcDbSymbolTableRecord
100
AcDbDimStyleTableRecord
  2
AM_ANSI
 70
     0
  4
mm
 41
0.1
 42
0.05
 43
0.5
 44
0.1
 47
0.1
 48
0.1
 78
     7
 79
     2
140
0.12
141
0.0
146
0.71
147
0.06
176
   256
177
   256
178
     2
274
     4
284
     7
340
11
371
    -1
372
    -1
1001
ACAD_DSTYLE_DIMARC_LENGTH_SYMBOL
1070
   379
1070
     1
1001
ACAD_DSTYLE_DIMJOGGED_JOGANGLE_SYMBOL
1070
   384
1040
0.7853981633974483
  0
DIMSTYLE
105
2F0
330
A
100
AcDbSymbolTableRecord
100
AcDbDimStyleTableRecord
  2
AM_ANSI$3
 70
     0
  4
mm
 41
0.1
 42
0.05
 43
0.5
 44
0.1
 47
0.1
 48
0.1
 78
     7
 79
     2
140
0.12
141
0.0
146
0.71
147
0.06
176
   256
177
   256
178
     2
274
     4
284
     7
288
     1
289
     0
340
11
371
    -1
372
    -1
1001
ACAD_DSTYLE_DIMARC_LENGTH_SYMBOL
1070
   379
1070
     1
1001
ACAD_DSTYLE_DIMJOGGED_JOGANGLE_SYMBOL
1070
   384
1040
0.7853981633974483
  0
DIMSTYLE
105
2F3
330
A
100
AcDbSymbolTableRecord
100
AcDbDimStyleTableRecord
  2
AM_ANSI$4
 70
     0
  4
mm
 41
0.1
 42
0.05
 43
0.5
 44
0.1
 47
0.1
 48
0.1
 78
     7
 79
     2
140
0.12
141
0.0
146
0.71
147
0.06
176
   256
177
   256
178
     2
274
     4
284
     7
288
     1
289
     0
340
11
371
    -1
372
    -1
1001
ACAD_DSTYLE_DIMARC_LENGTH_SYMBOL
1070
   379
1070
     1
1001
ACAD_DSTYLE_DIMJOGGED_JOGANGLE_SYMBOL
1070
   384
1040
0.7853981633974483
  0
DIMSTYLE
105
2F8
330
A
100
AcDbSymbolTableRecord
100
AcDbDimStyleTableRecord
  2
AM_ANSI$7
 70
     0
  4
mm
 41
0.1
 42
0.05
 43
0.5
 44
0.1
 47
0.1
 48
0.1
 78
     7
 79
     2
140
0.24
141
0.0
146
0.71
147
0.06
176
   256
177
   256
178
     2
274
     4
284
     7
340
11
371
    -1
372
    -1
1001
ACAD_DSTYLE_DIMARC_LENGTH_SYMBOL
1070
   379
1070
     1
1001
ACAD_DSTYLE_DIMJOGGED_JOGANGLE_SYMBOL
1070
   384
1040
0.7853981633974483
  0
DIMSTYLE
105
2FB
330
A
100
AcDbSymbolTableRecord
100
AcDbDimStyleTableRecord
  2
AM_ANSI$SF
 70
     0
  4
mm
 41
0.1
 42
0.05
 43
0.5
 44
0.1
 47
0.1
 48
0.1
 75
     1
 76
     1
 78
     7
 79
     2
140
0.12
141
0.0
146
0.71
147
0.06
176
   256
177
   256
178
     2
274
     4
284
     7
340
11
371
    -1
372
    -1
1001
ACAD_DSTYLE_DIMARC_LENGTH_SYMBOL
1070
   379
1070
     1
1001
ACAD_DSTYLE_DIMJOGGED_JOGANGLE_SYMBOL
1070
   384
1040
0.7853981633974483
  0
DIMSTYLE
105
302
330
A
100
AcDbSymbolTableRecord
100
AcDbDimStyleTableRecord
  2
AM_ANSI$SH
 70
     0
  4
mm
 41
0.1
 42
0.05
 43
0.5
 44
0.1
 47
0.1
 48
0.1
 75
     1
 76
     1
 78
     7
 79
     2
140
0.12
141
0.0
146
0.71
147
0.06
173
     1
176
   256
177
   256
178
     2
274
     4
284
     7
340
11
343
2FC
371
    -1
372
    -1
1001
ACAD_DSTYLE_DIMARC_LENGTH_SYMBOL
1070
   379
1070
     1
1001
ACAD_DSTYLE_DIMJOGGED_JOGANGLE_SYMBOL
1070
   384
1040
0.7853981633974483
  0
DIMSTYLE
105
31D
102
{ACAD_REACTORS
330
321
330
35E
330
394
102
}
330
A
100
AcDbSymbolTableRecord
100
AcDbDimStyleTableRecord
  2
STANDARD$0
 70
     0
 41
0.1875
 47
0.05
 48
0.05
 78
     4
140
0.15625
271
     2
272
     2
284
     4
340
11
  0
ENDTAB
  0
TABLE
  2
BLOCK_RECORD
  5
1
330
0
100
AcDbSymbolTable
 70
     5
  0
BLOCK_RECORD
  5
201
330
1
100
AcDbSymbolTableRecord
100
AcDbBlockTableRecord
  2
*Model_Space
340
251
  0
BLOCK_RECORD
  5
202
330
1
100
AcDbSymbolTableRecord
100
AcDbBlockTableRecord
  2
*Paper_Space
340
252
  0
BLOCK_RECORD
  5
2FC
330
1
100
AcDbSymbolTableRecord
100
AcDbBlockTableRecord
  2
GENAXEH
340
0
  0
BLOCK_RECORD
  5
323
330
1
100
AcDbSymbolTableRecord
100
AcDbBlockTableRecord
  2
*D2
340
0
  0
BLOCK_RECORD
  5
35F
330
1
100
AcDbSymbolTableRecord
100
AcDbBlockTableRecord
  2
*D3
340
0
  0
BLOCK_RECORD
  5
395
330
1
100
AcDbSymbolTableRecord
100
AcDbBlockTableRecord
  2
*D4
340
0
  0
ENDTAB
  0
ENDSEC
  0
SECTION
  2
BLOCKS
  0
BLOCK
  5
20
330
201
100
AcDbEntity
  8
0
100
AcDbBlockBegin
  2
*Model_Space
 70
     0
 10
0.0
 20
0.0
 30
0.0
  3
*Model_Space
  1

  0
ENDBLK
  5
21
330
201
100
AcDbEntity
  8
0
100
AcDbBlockEnd
  0
BLOCK
  5
1C
330
202
100
AcDbEntity
 67
     1
  8
0
100
AcDbBlockBegin
  2
*Paper_Space
 70
     0
 10
0.0
 20
0.0
 30
0.0
  3
*Paper_Space
  1

  0
ENDBLK
  5
1D
330
202
100
AcDbEntity
 67
     1
  8
0
100
AcDbBlockEnd
  0
BLOCK
  5
2FE
330
2FC
100
AcDbEntity
  8
0
100
AcDbBlockBegin
  2
GENAXEH
 70
     0
 10
0.0
 20
0.0
 30
0.0
  3
GENAXEH
  1

  0
LINE
  5
2FD
330
2FC
100
AcDbEntity
  8
0
100
AcDbLine
 10
-1.0
 20
0.0
 30
0.0
 11
1.0
 21
0.0
 31
0.0
  0
ENDBLK
  5
2FF
330
2FC
100
AcDbEntity
  8
0
100
AcDbBlockEnd
  0
BLOCK
  5
32E
330
323
100
AcDbEntity
  8
0
100
AcDbBlockBegin
  2
*D2
 70
     1
 10
0.0
 20
0.0
 30
0.0
  3
*D2
  1

  0
LINE
  5
346
330
323
100
AcDbEntity
  8
AM_5
 62
     0
370
    -2
100
AcDbLine
 10
1.8915116918
 20
6.226307209599999
 30
0.0
 11
1.8915116918
 21
6.8555572096
 31
0.0
  0
LINE
  5
347
330
323
100
AcDbEntity
  8
AM_5
 62
     0
370
    -2
100
AcDbLine
 10
2.8363935816
 20
6.226307209599999
 30
0.0
 11
2.8363935816
 21
6.8555572096
 31
0.0
  0
LINE
  5
348
330
323
100
AcDbEntity
  8
AM_5
 62
     0
370
    -2
100
AcDbLine
 10
2.079011691799999
 20
6.6575572096
 30
0.0
 11
2.6488935816
 21
6.6575572096
 31
0.0
  0
LINE
  5
349
330
323
100
AcDbEntity
  8
AM_5
 62
     0
370
    -2
100
AcDbLine
 10
2.8363935816
 20
6.6575572096
 30
0.0
 11
3.0238935816
 21
6.6575572096
 31
0.0
  0
SOLID
  5
34A
330
323
100
AcDbEntity
  8
AM_5
 62
     0
100
AcDbTrace
 10
2.079011691799999
 20
6.6888072096
 30
0.0
 11
2.079011691799999
 21
6.6263072096
 31
0.0
 12
1.8915116918
 22
6.6575572096
 32
0.0
 13
1.8915116918
 23
6.6575572096
 33
0.0
  0
SOLID
  5
34B
330
323
100
AcDbEntity
  8
AM_5
 62
     0
100
AcDbTrace
 10
2.6488935816
 20
6.6888072096
 30
0.0
 11
2.6488935816
 21
6.6263072096
 31
0.0
 12
2.8363935816
 22
6.6575572096
 32
0.0
 13
2.8363935816
 23
6.6575572096
 33
0.0
  0
MTEXT
  5
34C
330
323
100
AcDbEntity
  8
AM_5
 62
     0
100
AcDbMText
 10
3.686810248266667
 20
6.6575572096
 30
0.0
 40
0.15625
 41
0.0
 71
     5
 72
     1
  1
\A1;0.94 [24.00]
 73
     1
 44
1.0
  0
POINT
  5
34D
330
323
100
AcDbEntity
  8
Defpoints
 62
     0
100
AcDbPoint
 10
1.8915116918
 20
6.1575572096
 30
0.0
  0
POINT
  5
34E
330
323
100
AcDbEntity
  8
Defpoints
 62
     0
100
AcDbPoint
 10
2.8363935816
 20
6.1575572096
 30
0.0
  0
POINT
  5
34F
330
323
100
AcDbEntity
  8
Defpoints
 62
     0
100
AcDbPoint
 10
2.8363935816
 20
6.6575572096
 30
0.0
  0
ENDBLK
  5
32F
330
323
100
AcDbEntity
  8
0
100
AcDbBlockEnd
  0
BLOCK
  5
36A
330
35F
100
AcDbEntity
  8
0
100
AcDbBlockBegin
  2
*D3
 70
     1
 10
0.0
 20
0.0
 30
0.0
  3
*D3
  1

  0
LINE
  5
3E1
330
35F
100
AcDbEntity
  8
AM_5
 62
     0
370
    -2
100
AcDbLine
 10
4.702808674499999
 20
4.624168576199999
 30
0.0
 11
5.713967458772517
 21
4.624168576199999
 31
0.0
  0
LINE
  5
3E2
330
35F
100
AcDbEntity
  8
AM_5
 62
     0
370
    -2
100
AcDbLine
 10
4.600446469799999
 20
3.368263064399999
 30
0.0
 11
5.713967458772517
 21
3.368263064399999
 31
0.0
  0
LINE
  5
3E3
330
35F
100
AcDbEntity
  8
AM_5
 62
     0
370
    -2
100
AcDbLine
 10
5.515967458772518
 20
4.436668576199999
 30
0.0
 11
5.515967458772518
 21
4.294549153633332
 31
0.0
  0
LINE
  5
3E4
330
35F
100
AcDbEntity
  8
AM_5
 62
     0
370
    -2
100
AcDbLine
 10
5.515967458772518
 20
3.555763064399999
 30
0.0
 11
5.515967458772518
 21
3.697882486966665
 31
0.0
  0
SOLID
  5
3E5
330
35F
100
AcDbEntity
  8
AM_5
 62
     0
100
AcDbTrace
 10
5.484717458772518
 20
4.436668576199999
 30
0.0
 11
5.547217458772518
 21
4.436668576199999
 31
0.0
 12
5.515967458772518
 22
4.624168576199999
 32
0.0
 13
5.515967458772518
 23
4.624168576199999
 33
0.0
  0
SOLID
  5
3E6
330
35F
100
AcDbEntity
  8
AM_5
 62
     0
100
AcDbTrace
 10
5.484717458772518
 20
3.555763064399999
 30
0.0
 11
5.547217458772518
 21
3.555763064399999
 31
0.0
 12
5.515967458772518
 22
3.368263064399999
 32
0.0
 13
5.515967458772518
 23
3.368263064399999
 33
0.0
  0
MTEXT
  5
3E7
330
35F
100
AcDbEntity
  8
AM_5
 62
     0
100
AcDbMText
 10
5.515967458772517
 20
3.9962158203
 30
0.0
 40
0.15625
 41
0.0
 71
     5
 72
     1
  1
\A1;1.26\P [31.90]
 73
     1
 44
1.0
  0
POINT
  5
3E8
330
35F
100
AcDbEntity
  8
Defpoints
 62
     0
100
AcDbPoint
 10
4.6340586745
 20
4.624168576199999
 30
0.0
  0
POINT
  5
3E9
330
35F
100
AcDbEntity
  8
Defpoints
 62
     0
100
AcDbPoint
 10
4.531696469799999
 20
3.368263064399999
 30
0.0
  0
POINT
  5
3EA
330
35F
100
AcDbEntity
  8
Defpoints
 62
     0
100
AcDbPoint
 10
5.515967458772518
 20
3.368263064399999
 30
0.0
  0
ENDBLK
  5
36B
330
35F
100
AcDbEntity
  8
0
100
AcDbBlockEnd
  0
BLOCK
  5
3A1
330
395
100
AcDbEntity
  8
0
100
AcDbBlockBegin
  2
*D4
 70
     1
 10
0.0
 20
0.0
 30
0.0
  3
*D4
  1

  0
LINE
  5
3C6
330
395
100
AcDbEntity
  8
AM_5
 62
     0
370
    -2
100
AcDbLine
 10
1.8227616918
 20
6.1575572096
 30
0.0
 11
1.1935116918
 21
6.1575572096
 31
0.0
  0
LINE
  5
3C7
330
395
100
AcDbEntity
  8
AM_5
 62
     0
370
    -2
100
AcDbLine
 10
1.8227616918
 20
5.822911540399999
 30
0.0
 11
1.1935116918
 21
5.822911540399999
 31
0.0
  0
LINE
  5
3C8
330
395
100
AcDbEntity
  8
AM_5
 62
     0
370
    -2
100
AcDbLine
 10
1.3915116918
 20
6.3450572096
 30
0.0
 11
1.3915116918
 21
6.5325572096
 31
0.0
  0
LINE
  5
3C9
330
395
100
AcDbEntity
  8
AM_5
 62
     0
370
    -2
100
AcDbLine
 10
1.3915116918
 20
5.635411540399999
 30
0.0
 11
1.391511691799999
 21
5.447911540399999
 31
0.0
  0
LINE
  5
3CA
330
395
100
AcDbEntity
  8
AM_5
 62
     0
370
    -2
100
AcDbLine
 10
1.391511691799999
 20
5.447911540399999
 30
0.0
 11
1.204011691799999
 21
5.447911540399999
 31
0.0
  0
SOLID
  5
3CB
330
395
100
AcDbEntity
  8
AM_5
 62
     0
100
AcDbTrace
 10
1.3602616918
 20
6.3450572096
 30
0.0
 11
1.4227616918
 21
6.3450572096
 31
0.0
 12
1.3915116918
 22
6.1575572096
 32
0.0
 13
1.3915116918
 23
6.1575572096
 33
0.0
  0
SOLID
  5
3CC
330
395
100
AcDbEntity
  8
AM_5
 62
     0
100
AcDbTrace
 10
1.3602616918
 20
5.635411540399999
 30
0.0
 11
1.4227616918
 21
5.635411540399999
 31
0.0
 12
1.3915116918
 22
5.822911540399999
 32
0.0
 13
1.3915116918
 23
5.822911540399999
 33
0.0
  0
MTEXT
  5
3CD
330
395
100
AcDbEntity
  8
AM_5
 62
     0
100
AcDbMText
 10
0.7910950251333326
 20
5.447911540399999
 30
0.0
 40
0.15625
 41
0.0
 71
     5
 72
     1
  1
\A1;0.33\P [8.50]
 73
     1
 44
1.0
  0
POINT
  5
3CE
330
395
100
AcDbEntity
  8
Defpoints
 62
     0
100
AcDbPoint
 10
1.8915116918
 20
6.1575572096
 30
0.0
  0
POINT
  5
3CF
330
395
100
AcDbEntity
  8
Defpoints
 62
     0
100
AcDbPoint
 10
1.8915116918
 20
5.822911540399999
 30
0.0
  0
POINT
  5
3D0
330
395
100
AcDbEntity
  8
Defpoints
 62
     0
100
AcDbPoint
 10
1.3915116918
 20
5.822911540399999
 30
0.0
  0
ENDBLK
  5
3A2
330
395
100
AcDbEntity
  8
0
100
AcDbBlockEnd
  0
ENDSEC
  0
SECTION
  2
ENTITIES
  0
MTEXT
  5
204
330
201
100
AcDbEntity
  8
0
  6
Continuous
 62
     2
100
AcDbMText
 10
8.539367675800001
 20
3.291287616099999
 30
0.0
 40
0.15625
 41
1.5
 71
     3
 72
     1
  1
SCALE  2.000
 73
     1
 44
0.9
  0
LINE
  5
205
330
201
100
AcDbEntity
  8
0
  6
Continuous
 62
     7
100
AcDbLine
 10
0.0
 20
0.0
 30
0.0
 11
0.0
 21
8.5
 31
0.0
  0
LINE
  5
206
330
201
100
AcDbEntity
  8
0
  6
Continuous
 62
     7
100
AcDbLine
 10
0.0
 20
0.0
 30
0.0
 11
11.0
 21
0.0
 31
0.0
  0
LINE
  5
207
330
201
100
AcDbEntity
  8
0
  6
Continuous
 62
     7
100
AcDbLine
 10
0.0
 20
8.5
 30
0.0
 11
11.0
 21
8.5
 31
0.0
  0
LINE
  5
208
330
201
100
AcDbEntity
  8
0
  6
Continuous
 62
     7
100
AcDbLine
 10
11.0
 20
0.0
 30
0.0
 11
11.0
 21
8.5
 31
0.0
  0
LINE
  5
209
330
201
100
AcDbEntity
  8
0
  6
Continuous
 62
     7
100
AcDbLine
 10
7.634603265599999
 20
5.9866792796
 30
0.0
 11
8.107861739299998
 21
6.2599135558
 31
0.0
  0
LINE
  5
20A
330
201
100
AcDbEntity
  8
0
  6
Continuous
 62
     7
100
AcDbLine
 10
8.146839443699999
 20
3.7493393029
 30
0.0
 11
8.191381788500001
 21
3.723623349799999
 31
0.0
  0
LINE
  5
20B
330
201
100
AcDbEntity
  8
0
  6
Continuous
 62
     7
100
AcDbLine
 10
8.603398478799999
 20
3.485750784199999
 30
0.0
 11
8.6479408237
 21
3.4600348312
 31
0.0
  0
LINE
  5
20C
330
201
100
AcDbEntity
  8
0
  6
Continuous
 62
     7
100
AcDbLine
 10
7.634603265599999
 20
4.195891207299999
 30
0.0
 11
8.9708736123
 21
3.4244126161
 31
0.0
  0
LINE
  5
20D
330
201
100
AcDbEntity
  8
0
  6
Continuous
 62
     7
100
AcDbLine
 10
7.634603265599999
 20
5.9866792796
 30
0.0
 11
7.634603265599999
 21
4.195891207299999
 31
0.0
  0
LINE
  5
20E
330
201
100
AcDbEntity
  8
0
  6
Continuous
 62
     7
100
AcDbLine
 10
8.127352167799999
 20
3.7995647004
 30
0.0
 11
8.146839443699999
 21
3.7493393029
 31
0.0
  0
LINE
  5
20F
330
201
100
AcDbEntity
  8
0
  6
Continuous
 62
     7
100
AcDbLine
 10
8.127352167799999
 20
3.8244818105
 30
0.0
 11
8.127352167799999
 21
3.7995647004
 31
0.0
  0
LINE
  5
210
330
201
100
AcDbEntity
  8
0
  6
Continuous
 62
     7
100
AcDbLine
 10
8.146839443699999
 20
3.9001582024
 30
0.0
 11
8.146839443699999
 21
3.8522057491
 31
0.0
  0
LINE
  5
211
330
201
100
AcDbEntity
  8
0
  6
Continuous
 62
     7
100
AcDbLine
 10
8.6674280996
 20
3.5126758799
 30
0.0
 11
8.6479408237
 21
3.562901277399999
 31
0.0
  0
LINE
  5
212
330
201
100
AcDbEntity
  8
0
  6
Continuous
 62
     7
100
AcDbLine
 10
8.191381788500001
 20
3.723623349799999
 30
0.0
 11
8.206452474099998
 21
3.865741381799999
 31
0.0
  0
LINE
  5
213
330
201
100
AcDbEntity
  8
0
  6
Continuous
 62
     7
100
AcDbLine
 10
8.9708736123
 20
5.215200688299999
 30
0.0
 11
9.444132085999999
 21
5.4884349646
 31
0.0
  0
LINE
  5
214
330
201
100
AcDbEntity
  8
0
  6
Continuous
 62
     7
100
AcDbLine
 10
8.588327793200001
 20
3.645270551299999
 30
0.0
 11
8.603398478799999
 21
3.485750784199999
 31
0.0
  0
LINE
  5
215
330
201
100
AcDbEntity
  8
0
  6
Continuous
 62
     7
100
AcDbLine
 10
8.6479408237
 20
3.562901277399999
 30
0.0
 11
8.6479408237
 21
3.610853730699999
 31
0.0
  0
LINE
  5
216
330
201
100
AcDbEntity
  8
0
  6
Continuous
 62
     7
100
AcDbLine
 10
8.6674280996
 20
3.4877587698
 30
0.0
 11
8.6674280996
 21
3.5126758799
 31
0.0
  0
LINE
  5
217
330
201
100
AcDbEntity
  8
0
  6
Continuous
 62
     7
100
AcDbLine
 10
8.146839443699999
 20
3.8522057491
 30
0.0
 11
8.127352167799999
 21
3.8244818105
 31
0.0
  0
LINE
  5
218
330
201
100
AcDbEntity
  8
0
  6
Continuous
 62
     7
100
AcDbLine
 10
8.9708736123
 20
3.4244126161
 30
0.0
 11
8.9708736123
 21
5.215200688299999
 31
0.0
  0
LINE
  5
219
330
201
100
AcDbEntity
  8
0
  6
Continuous
 62
     7
100
AcDbLine
 10
8.9708736123
 20
5.215200688299999
 30
0.0
 11
7.634603265599999
 21
5.9866792796
 31
0.0
  0
LINE
  5
21A
330
201
100
AcDbEntity
  8
0
  6
Continuous
 62
     7
100
AcDbLine
 10
8.191381788500001
 20
3.723623349799999
 30
0.0
 11
8.321996654099999
 21
3.799033427499999
 31
0.0
  0
LINE
  5
21B
330
201
100
AcDbEntity
  8
0
  6
Continuous
 62
     7
100
AcDbLine
 10
9.444132085999999
 20
5.4884349646
 30
0.0
 11
9.444132085999999
 21
3.6976468923
 31
0.0
  0
LINE
  5
21C
330
201
100
AcDbEntity
  8
0
  6
Continuous
 62
     7
100
AcDbLine
 10
8.6479408237
 20
3.4600348312
 30
0.0
 11
8.6674280996
 21
3.4877587698
 31
0.0
  0
LINE
  5
21D
330
201
100
AcDbEntity
  8
0
  6
Continuous
 62
     7
100
AcDbLine
 10
8.107861739299998
 20
6.2599135558
 30
0.0
 11
9.444132085999999
 21
5.4884349646
 31
0.0
  0
LINE
  5
21E
330
201
100
AcDbEntity
  8
0
  6
Continuous
 62
     7
100
AcDbLine
 10
8.6479408237
 20
3.562901277399999
 30
0.0
 11
8.689469459999999
 21
3.586877703699999
 31
0.0
  0
LINE
  5
21F
330
201
100
AcDbEntity
  8
0
  6
Continuous
 62
     7
100
AcDbLine
 10
8.6674280996
 20
3.5126758799
 30
0.0
 11
8.742710271099999
 21
3.5561398025
 31
0.0
  0
LINE
  5
220
330
201
100
AcDbEntity
  8
0
  6
Continuous
 62
     7
100
AcDbLine
 10
8.6674280996
 20
3.4877587698
 30
0.0
 11
8.764289429899999
 21
3.5436813512
 31
0.0
  0
LINE
  5
221
330
201
100
AcDbEntity
  8
0
  6
Continuous
 62
     7
100
AcDbLine
 10
8.6479408237
 20
3.4600348312
 30
0.0
 11
8.778555689299999
 21
3.535444908799999
 31
0.0
  0
LINE
  5
222
330
201
100
AcDbEntity
  8
0
  6
Continuous
 62
     7
100
AcDbLine
 10
8.9708736123
 20
3.4244126161
 30
0.0
 11
9.444132085999999
 21
3.6976468923
 31
0.0
  0
LINE
  5
223
330
201
100
AcDbEntity
  8
0
  6
Continuous
 62
     7
100
AcDbLine
 10
2.1867872824
 20
3.368263064399999
 30
0.0
 11
2.218283345399999
 21
3.368263064399999
 31
0.0
  0
LINE
  5
224
330
201
100
AcDbEntity
  8
0
  6
Continuous
 62
     7
100
AcDbLine
 10
2.5096219281
 20
3.368263064399999
 30
0.0
 11
2.541117991
 21
3.368263064399999
 31
0.0
  0
LINE
  5
225
330
201
100
AcDbEntity
  8
0
  6
Continuous
 62
     7
100
AcDbLine
 10
1.8915116918
 20
4.624168576199999
 30
0.0
 11
1.8915116918
 21
3.5275471611
 31
0.0
  0
LINE
  5
226
330
201
100
AcDbEntity
  8
0
  6
Continuous
 62
     7
100
AcDbLine
 10
1.8915116918
 20
3.5275471611
 30
0.0
 11
2.8363935816
 21
3.5275471611
 31
0.0
  0
LINE
  5
227
330
201
100
AcDbEntity
  8
0
  6
Continuous
 62
     7
100
AcDbLine
 10
2.173007754799999
 20
3.3921299062
 30
0.0
 11
2.1867872824
 21
3.368263064399999
 31
0.0
  0
LINE
  5
228
330
201
100
AcDbEntity
  8
0
  6
Continuous
 62
     7
100
AcDbLine
 10
2.173007754799999
 20
3.4073883486
 30
0.0
 11
2.173007754799999
 21
3.3921299062
 31
0.0
  0
LINE
  5
229
330
201
100
AcDbEntity
  8
0
  6
Continuous
 62
     7
100
AcDbLine
 10
2.1867872824
 20
3.5275471611
 30
0.0
 11
2.1867872824
 21
3.4312551904
 31
0.0
  0
LINE
  5
22A
330
201
100
AcDbEntity
  8
0
  6
Continuous
 62
     7
100
AcDbLine
 10
2.5548975186
 20
3.4073883486
 30
0.0
 11
2.541117991
 21
3.4312551904
 31
0.0
  0
LINE
  5
22B
330
201
100
AcDbEntity
  8
0
  6
Continuous
 62
     7
100
AcDbLine
 10
2.218283345399999
 20
3.368263064399999
 30
0.0
 11
2.236662279599999
 21
3.5275471611
 31
0.0
  0
LINE
  5
22C
330
201
100
AcDbEntity
  8
0
  6
Continuous
 62
     7
100
AcDbLine
 10
2.491242993799999
 20
3.5275471611
 30
0.0
 11
2.5096219281
 21
3.368263064399999
 31
0.0
  0
LINE
  5
22D
330
201
100
AcDbEntity
  8
0
  6
Continuous
 62
     7
100
AcDbLine
 10
2.1867872824
 20
3.4312551904
 30
0.0
 11
2.173007754799999
 21
3.4073883486
 31
0.0
  0
LINE
  5
22E
330
201
100
AcDbEntity
  8
0
  6
Continuous
 62
     7
100
AcDbLine
 10
2.541117991
 20
3.4312551904
 30
0.0
 11
2.541117991
 21
3.5275471611
 31
0.0
  0
LINE
  5
22F
330
201
100
AcDbEntity
  8
0
  6
Continuous
 62
     7
100
AcDbLine
 10
2.5548975186
 20
3.3921299062
 30
0.0
 11
2.5548975186
 21
3.4073883486
 31
0.0
  0
LINE
  5
230
330
201
100
AcDbEntity
  8
0
  6
Continuous
 62
     7
100
AcDbLine
 10
2.8363935816
 20
3.5275471611
 30
0.0
 11
2.8363935816
 21
4.624168576199999
 31
0.0
  0
LINE
  5
231
330
201
100
AcDbEntity
  8
0
  6
Continuous
 62
     7
100
AcDbLine
 10
2.541117991
 20
3.368263064399999
 30
0.0
 11
2.5548975186
 21
3.3921299062
 31
0.0
  0
LINE
  5
232
330
201
100
AcDbEntity
  8
0
  6
Continuous
 62
     7
100
AcDbLine
 10
2.8363935816
 20
4.624168576199999
 30
0.0
 11
1.8915116918
 21
4.624168576199999
 31
0.0
  0
LINE
  5
233
330
201
100
AcDbEntity
  8
0
  6
Continuous
 62
     7
100
AcDbLine
 10
1.8915116918
 20
5.822911540399999
 30
0.0
 11
1.8915116918
 21
6.1575572096
 31
0.0
  0
LINE
  5
234
102
{ACAD_REACTORS
330
3A4
102
}
330
201
100
AcDbEntity
  8
0
  6
Continuous
 62
     7
100
AcDbLine
 10
2.8363935816
 20
5.822911540399999
 30
0.0
 11
1.8915116918
 21
5.822911540399999
 31
0.0
  0
LINE
  5
235
102
{ACAD_REACTORS
330
331
330
3A4
102
}
330
201
100
AcDbEntity
  8
0
  6
Continuous
 62
     7
100
AcDbLine
 10
1.8915116918
 20
6.1575572096
 30
0.0
 11
2.8363935816
 21
6.1575572096
 31
0.0
  0
LINE
  5
236
102
{ACAD_REACTORS
330
331
102
}
330
201
100
AcDbEntity
  8
0
  6
Continuous
 62
     7
100
AcDbLine
 10
2.8363935816
 20
5.822911540399999
 30
0.0
 11
2.8363935816
 21
6.1575572096
 31
0.0
  0
LINE
  5
237
330
201
100
AcDbEntity
  8
0
  6
Continuous
 62
     7
100
AcDbLine
 10
1.8915116918
 20
1.629430095
 30
0.0
 11
1.8915116918
 21
1.9640757643
 31
0.0
  0
LINE
  5
238
330
201
100
AcDbEntity
  8
0
  6
Continuous
 62
     7
100
AcDbLine
 10
2.173007754799999
 20
1.8971466305
 30
0.0
 11
2.173007754799999
 21
1.731792299799999
 31
0.0
  0
LINE
  5
239
330
201
100
AcDbEntity
  8
0
  6
Continuous
 62
     7
100
AcDbLine
 10
2.1867872824
 20
1.8971466305
 30
0.0
 11
2.1867872824
 21
1.731792299799999
 31
0.0
  0
LINE
  5
23A
330
201
100
AcDbEntity
  8
0
  6
Continuous
 62
     7
100
AcDbLine
 10
2.8363935816
 20
1.629430095
 30
0.0
 11
1.8915116918
 21
1.629430095
 31
0.0
  0
LINE
  5
23B
330
201
100
AcDbEntity
  8
0
  6
Continuous
 62
     7
100
AcDbLine
 10
2.218283345399999
 20
1.8971466305
 30
0.0
 11
2.218283345399999
 21
1.731792299799999
 31
0.0
  0
LINE
  5
23C
330
201
100
AcDbEntity
  8
0
  6
Continuous
 62
     7
100
AcDbLine
 10
2.236662279599999
 20
1.731792299799999
 30
0.0
 11
2.236662279599999
 21
1.8971466305
 31
0.0
  0
LINE
  5
23D
330
201
100
AcDbEntity
  8
0
  6
Continuous
 62
     7
100
AcDbLine
 10
2.5548975186
 20
1.731792299799999
 30
0.0
 11
2.491242993799999
 21
1.731792299799999
 31
0.0
  0
LINE
  5
23E
330
201
100
AcDbEntity
  8
0
  6
Continuous
 62
     7
100
AcDbLine
 10
2.236662279599999
 20
1.731792299799999
 30
0.0
 11
2.173007754799999
 21
1.731792299799999
 31
0.0
  0
LINE
  5
23F
330
201
100
AcDbEntity
  8
0
  6
Continuous
 62
     7
100
AcDbLine
 10
2.173007754799999
 20
1.8971466305
 30
0.0
 11
2.236662279599999
 21
1.8971466305
 31
0.0
  0
LINE
  5
240
330
201
100
AcDbEntity
  8
0
  6
Continuous
 62
     7
100
AcDbLine
 10
2.491242993799999
 20
1.8971466305
 30
0.0
 11
2.5548975186
 21
1.8971466305
 31
0.0
  0
LINE
  5
241
330
201
100
AcDbEntity
  8
0
  6
Continuous
 62
     7
100
AcDbLine
 10
2.491242993799999
 20
1.8971466305
 30
0.0
 11
2.491242993799999
 21
1.731792299799999
 31
0.0
  0
LINE
  5
242
330
201
100
AcDbEntity
  8
0
  6
Continuous
 62
     7
100
AcDbLine
 10
2.5096219281
 20
1.8971466305
 30
0.0
 11
2.5096219281
 21
1.731792299799999
 31
0.0
  0
LINE
  5
243
330
201
100
AcDbEntity
  8
0
  6
Continuous
 62
     7
100
AcDbLine
 10
1.8915116918
 20
1.9640757643
 30
0.0
 11
2.8363935816
 21
1.9640757643
 31
0.0
  0
LINE
  5
244
330
201
100
AcDbEntity
  8
0
  6
Continuous
 62
     7
100
AcDbLine
 10
2.541117991
 20
1.8971466305
 30
0.0
 11
2.541117991
 21
1.731792299799999
 31
0.0
  0
LINE
  5
245
330
201
100
AcDbEntity
  8
0
  6
Continuous
 62
     7
100
AcDbLine
 10
2.5548975186
 20
1.8971466305
 30
0.0
 11
2.5548975186
 21
1.731792299799999
 31
0.0
  0
LINE
  5
246
330
201
100
AcDbEntity
  8
0
  6
Continuous
 62
     7
100
AcDbLine
 10
2.8363935816
 20
1.9640757643
 30
0.0
 11
2.8363935816
 21
1.629430095
 31
0.0
  0
LINE
  5
247
330
201
100
AcDbEntity
  8
0
  6
Continuous
 62
     7
100
AcDbLine
 10
4.3663421391
 20
3.368263064399999
 30
0.0
 11
4.531696469799999
 21
3.368263064399999
 31
0.0
  0
LINE
  5
248
330
201
100
AcDbEntity
  8
0
  6
Continuous
 62
     7
100
AcDbLine
 10
4.3663421391
 20
3.3921299062
 30
0.0
 11
4.531696469799999
 21
3.3921299062
 31
0.0
  0
LINE
  5
249
330
201
100
AcDbEntity
  8
0
  6
Continuous
 62
     7
100
AcDbLine
 10
4.3663421391
 20
3.4073883486
 30
0.0
 11
4.531696469799999
 21
3.4073883486
 31
0.0
  0
LINE
  5
24A
330
201
100
AcDbEntity
  8
0
  6
Continuous
 62
     7
100
AcDbLine
 10
4.3663421391
 20
3.4312551904
 30
0.0
 11
4.531696469799999
 21
3.4312551904
 31
0.0
  0
LINE
  5
24B
330
201
100
AcDbEntity
  8
0
  6
Continuous
 62
     7
100
AcDbLine
 10
4.299413005199999
 20
3.5275471611
 30
0.0
 11
4.6340586745
 21
3.5275471611
 31
0.0
  0
LINE
  5
24C
330
201
100
AcDbEntity
  8
0
  6
Continuous
 62
     7
100
AcDbLine
 10
4.299413005199999
 20
3.5275471611
 30
0.0
 11
4.299413005199999
 21
4.624168576199999
 31
0.0
  0
LINE
  5
24D
330
201
100
AcDbEntity
  8
0
  6
Continuous
 62
     7
100
AcDbLine
 10
4.3663421391
 20
3.368263064399999
 30
0.0
 11
4.3663421391
 21
3.5275471611
 31
0.0
  0
LINE
  5
24E
102
{ACAD_REACTORS
330
36D
102
}
330
201
100
AcDbEntity
  8
0
  6
Continuous
 62
     7
100
AcDbLine
 10
4.531696469799999
 20
3.5275471611
 30
0.0
 11
4.531696469799999
 21
3.368263064399999
 31
0.0
  0
LINE
  5
24F
330
201
100
AcDbEntity
  8
0
  6
Continuous
 62
     7
100
AcDbLine
 10
4.6340586745
 20
4.624168576199999
 30
0.0
 11
4.6340586745
 21
3.5275471611
 31
0.0
  0
LINE
  5
250
102
{ACAD_REACTORS
330
36D
102
}
330
201
100
AcDbEntity
  8
0
  6
Continuous
 62
     7
100
AcDbLine
 10
4.299413005199999
 20
4.624168576199999
 30
0.0
 11
4.6340586745
 21
4.624168576199999
 31
0.0
  0
DIMENSION
  5
321
102
{ACAD_XDICTIONARY
360
330
102
}
102
{ACAD_REACTORS
330
331
102
}
330
201
100
AcDbEntity
  8
0
100
AcDbDimension
  2
*D2
 10
2.8363935816
 20
6.6575572096
 30
0.0
 11
3.686810248266667
 21
6.6575572096
 31
0.0
 70
    32
  1
<>[]
 71
     5
 42
0.9448818898000002
  3
STANDARD$0
100
AcDbAlignedDimension
 13
1.8915116918
 23
6.1575572096
 33
0.0
 14
2.8363935816
 24
6.1575572096
 34
0.0
 50
0.0000000000000114
100
AcDbRotatedDimension
1001
ACAD
1000
DSTYLE
1002
{
1070
    42
1040
0.06875
1070
    43
1040
0.418
1070
    44
1040
0.198
1070
    47
1040
0.0
1070
    48
1040
0.0
1070
    78
1070
     0
1070
   141
1040
0.099
1070
   170
1070
     1
1070
   272
1070
     4
1070
   284
1070
     0
1002
}
  0
DIMENSION
  5
35E
102
{ACAD_XDICTIONARY
360
36C
102
}
102
{ACAD_REACTORS
330
36D
102
}
330
201
100
AcDbEntity
  8
0
100
AcDbDimension
  2
*D3
 10
5.515967458772518
 20
3.368263064399999
 30
0.0
 11
5.515967458772517
 21
3.9962158203
 31
0.0
 70
    32
  1
<>\P[]
 71
     5
 42
1.255905511799999
  3
STANDARD$0
100
AcDbAlignedDimension
 13
4.6340586745
 23
4.624168576199999
 33
0.0
 14
4.531696469799999
 24
3.368263064399999
 34
0.0
 50
90.00000000000003
100
AcDbRotatedDimension
1001
ACAD
1000
DSTYLE
1002
{
1070
    42
1040
0.06875
1070
    43
1040
0.418
1070
    44
1040
0.198
1070
    47
1040
0.0
1070
    48
1040
0.0
1070
    78
1070
     0
1070
   141
1040
0.099
1070
   170
1070
     1
1070
   272
1070
     4
1002
}
  0
DIMENSION
  5
394
102
{ACAD_XDICTIONARY
360
3A3
102
}
102
{ACAD_REACTORS
330
3A4
102
}
330
201
100
AcDbEntity
  8
0
100
AcDbDimension
  2
*D4
 10
1.3915116918
 20
5.822911540399999
 30
0.0
 11
0.7910950251333326
 21
5.447911540399999
 31
0.0
 70
    32
  1
<>\P[]
 71
     5
 42
0.3346456692000004
  3
STANDARD$0
100
AcDbAlignedDimension
 13
1.8915116918
 23
6.1575572096
 33
0.0
 14
1.8915116918
 24
5.822911540399999
 34
0.0
 50
90.00000000000003
100
AcDbRotatedDimension
1001
ACAD
1000
DSTYLE
1002
{
1070
    42
1040
0.06875
1070
    43
1040
0.418
1070
    44
1040
0.198
1070
    47
1040
0.0
1070
    48
1040
0.0
1070
    78
1070
     0
1070
   141
1040
0.099
1070
   170
1070
     1
1070
   272
1070
     4
1070
   284
1070
     0
1002
}
  0
ENDSEC
  0
SECTION
  2
OBJECTS
  0
DICTIONARY
  5
C
330
0
100
AcDbDictionary
281
     1
  3
ACAD_COLOR
350
256
  3
ACAD_GROUP
350
D
  3
ACAD_LAYOUT
350
1A
  3
ACAD_MATERIAL
350
255
  3
ACAD_MLINESTYLE
350
17
  3
ACAD_PLOTSETTINGS
350
19
  3
ACAD_PLOTSTYLENAME
350
E
  3
ACAD_TABLESTYLE
350
257
  3
AcDbVariableDictionary
350
3EC
  3
AcmDictionary
350
2B4
  3
AMG
350
25C
  3
AMGSNAPSETTINGS
350
30D
  0
DICTIONARY
  5
330
330
321
100
AcDbDictionary
280
     1
281
     1
  3
ACAD_DIMASSOC
360
331
  0
DICTIONARY
  5
36C
330
35E
100
AcDbDictionary
280
     1
281
     1
  3
ACAD_DIMASSOC
360
36D
  0
DICTIONARY
  5
3A3
330
394
100
AcDbDictionary
280
     1
281
     1
  3
ACAD_DIMASSOC
360
3A4
  0
DICTIONARY
  5
256
102
{ACAD_REACTORS
330
C
102
}
330
C
100
AcDbDictionary
281
     1
  0
DICTIONARY
  5
D
102
{ACAD_REACTORS
330
C
102
}
330
C
100
AcDbDictionary
281
     1
  0
DICTIONARY
  5
1A
102
{ACAD_REACTORS
330
C
102
}
330
C
100
AcDbDictionary
281
     1
  3
Layout1
350
252
  3
Model
350
251
  0
DICTIONARY
  5
255
102
{ACAD_REACTORS
330
C
102
}
330
C
100
AcDbDictionary
281
     1
  0
DICTIONARY
  5
17
102
{ACAD_REACTORS
330
C
102
}
330
C
100
AcDbDictionary
281
     1
  3
Standard
350
18
  0
DICTIONARY
  5
19
102
{ACAD_REACTORS
330
C
102
}
330
C
100
AcDbDictionary
281
     1
  0
ACDBDICTIONARYWDFLT
  5
E
102
{ACAD_REACTORS
330
C
102
}
330
C
100
AcDbDictionary
281
     1
  3
Normal
350
F
100
AcDbDictionaryWithDefault
340
F
  0
DICTIONARY
  5
257
102
{ACAD_REACTORS
330
C
102
}
330
C
100
AcDbDictionary
281
     1
  3
Standard
350
258
  0
DICTIONARY
  5
3EC
102
{ACAD_REACTORS
330
C
102
}
330
C
100
AcDbDictionary
281
     1
  3
CTABLESTYLE
350
3ED
  0
DICTIONARY
  5
2B4
102
{ACAD_REACTORS
330
C
102
}
330
C
100
AcDbDictionary
281
     1
  3
AcmStdDictionary
350
2BF
  3
AMDTSECTSYM_ARROWCOLOR
350
2DE
  0
DICTIONARY
  5
25C
102
{ACAD_REACTORS
330
C
102
}
330
C
100
AcDbDictionary
281
     1
  0
DICTIONARY
  5
30D
102
{ACAD_REACTORS
330
C
102
}
330
C
100
AcDbDictionary
281
     1
  0
DIMASSOC
  5
331
102
{ACAD_REACTORS
330
330
102
}
330
330
100
AcDbDimAssoc
330
321
 90
        3
 70
     0
 71
     0
  1
AcDbOsnapPointRef
 72
    13
331
235
 73
     0
 91
        0
 40
0.0
 10
0.0
 20
0.0
 30
2.000000000000000E+50
 75
     0
  1
AcDbOsnapPointRef
 72
     1
331
236
 73
     0
 91
        0
 40
0.0
 10
0.0
 20
0.0
 30
2.000000000000000E+50
 75
     0
  0
DIMASSOC
  5
36D
102
{ACAD_REACTORS
330
36C
102
}
330
36C
100
AcDbDimAssoc
330
35E
 90
        3
 70
     0
 71
     0
  1
AcDbOsnapPointRef
 72
     1
331
250
 73
     0
 91
        0
 40
0.0
 10
0.0
 20
0.0
 30
2.000000000000000E+50
 75
     0
  1
AcDbOsnapPointRef
 72
     1
331
24E
 73
     0
 91
        0
 40
0.0
 10
0.0
 20
0.0
 30
2.000000000000000E+50
 75
     0
  0
DIMASSOC
  5
3A4
102
{ACAD_REACTORS
330
3A3
102
}
330
3A3
100
AcDbDimAssoc
330
394
 90
        3
 70
     0
 71
     0
  1
AcDbOsnapPointRef
 72
    13
331
235
 73
     0
 91
        0
 40
0.0
 10
0.0
 20
0.0
 30
2.000000000000000E+50
 75
     0
  1
AcDbOsnapPointRef
 72
     1
331
234
 73
     0
 91
        0
 40
0.0
 10
0.0
 20
0.0
 30
2.000000000000000E+50
 75
     0
  0
LAYOUT
  5
252
102
{ACAD_REACTORS
330
1A
102
}
330
1A
100
AcDbPlotSettings
  1

  2
none_device
  4
ANSI_A_(11.00_x_8.50_Inches)
  6

 40
0.0
 41
0.0
 42
0.0
 43
0.0
 44
279.4
 45
215.9
 46
0.0
 47
0.0
 48
0.0
 49
0.0
140
0.0
141
0.0
142
1.0
143
1.0
 70
     0
 72
     0
 73
     0
 74
     0
  7

 75
     0
147
1.0
 76
     0
 77
     2
 78
   300
148
0.0
149
0.0
100
AcDbLayout
  1
Layout1
 70
     1
 71
     1
 10
0.0
 20
0.0
 11
12.0
 21
9.0
 12
0.0
 22
0.0
 32
0.0
 14
1.000000000000000E+20
 24
1.000000000000000E+20
 34
1.000000000000000E+20
 15
-1.000000000000000E+20
 25
-1.000000000000000E+20
 35
-1.000000000000000E+20
146
0.0
 13
0.0
 23
0.0
 33
0.0
 16
1.0
 26
0.0
 36
0.0
 17
0.0
 27
1.0
 37
0.0
 76
     0
330
202
  0
LAYOUT
  5
251
102
{ACAD_REACTORS
330
1A
102
}
330
1A
100
AcDbPlotSettings
  1

  2
none_device
  4
ANSI_A_(11.00_x_8.50_Inches)
  6

 40
0.0
 41
0.0
 42
0.0
 43
0.0
 44
279.4
 45
215.9
 46
0.0
 47
0.0
 48
0.0
 49
0.0
140
0.0
141
0.0
142
1.0
143
1.0
 70
  1024
 72
     0
 73
     0
 74
     0
  7

 75
     0
147
1.0
 76
     0
 77
     2
 78
   300
148
0.0
149
0.0
100
AcDbLayout
  1
Model
 70
     0
 71
     0
 10
0.0
 20
0.0
 11
11.0
 21
8.5
 12
0.0
 22
0.0
 32
0.0
 14
0.0
 24
0.0
 34
0.0
 15
0.0
 25
0.0
 35
0.0
146
0.0
 13
0.0
 23
0.0
 33
0.0
 16
1.0
 26
0.0
 36
0.0
 17
0.0
 27
1.0
 37
0.0
 76
     0
330
201
  0
MLINESTYLE
  5
18
102
{ACAD_REACTORS
330
17
102
}
330
17
100
AcDbMlineStyle
  2
STANDARD
 70
     0
  3

 62
   256
 51
90.0
 52
90.0
 71
     2
 49
0.5
 62
   256
  6
BYLAYER
 49
-0.5
 62
   256
  6
BYLAYER
  0
ACDBPLACEHOLDER
  5
F
102
{ACAD_REACTORS
330
E
102
}
330
E
  0
TABLESTYLE
  5
258
102
{ACAD_REACTORS
330
257
102
}
330
257
100
AcDbTableStyle
  3
Standard
 70
     0
 71
     0
 40
0.06
 41
0.06
280
     0
281
     0
  7
STANDARD
140
0.18
170
     2
 62
     0
 63
     7
283
     0
274
    -2
284
     1
 64
     0
275
    -2
285
     1
 65
     0
276
    -2
286
     1
 66
     0
277
    -2
287
     1
 67
     0
278
    -2
288
     1
 68
     0
279
    -2
289
     1
 69
     0
  7
STANDARD
140
0.25
170
     5
 62
     0
 63
     7
283
     0
274
    -2
284
     1
 64
     0
275
    -2
285
     1
 65
     0
276
    -2
286
     1
 66
     0
277
    -2
287
     1
 67
     0
278
    -2
288
     1
 68
     0
279
    -2
289
     1
 69
     0
  7
STANDARD
140
0.18
170
     5
 62
     0
 63
     7
283
     0
274
    -2
284
     1
 64
     0
275
    -2
285
     1
 65
     0
276
    -2
286
     1
 66
     0
277
    -2
287
     1
 67
     0
278
    -2
288
     1
 68
     0
279
    -2
289
     1
 69
     0
  0
DICTIONARYVAR
  5
3ED
102
{ACAD_REACTORS
330
3EC
102
}
330
3EC
100
DictionaryVariables
280
     0
  1
STANDARD
  0
DICTIONARY
  5
2BF
102
{ACAD_REACTORS
330
2B4
102
}
330
2B4
100
AcDbDictionary
281
     1
  0
XRECORD
  5
2DE
102
{ACAD_REACTORS
330
2B4
102
}
330
2B4
100
AcDbXrecord
280
     1
 90
-1023410169
  0
ENDSEC
  0
EOF
