  0
SECTION
  2
HEADER
  9
$ACADVER
  1
AC1014
  9
$ACADMAINTVER
 70
     8
  9
$DWGCODEPAGE
  3
ANSI_1252
  9
$INSBASE
 10
0.0
 20
0.0
 30
0.0
  9
$EXTMIN
 10
-0.683678
 20
-3.375318
 30
0.0
  9
$EXTMAX
 10
1.829055
 20
1.616386
 30
3.332
  9
$LIMMIN
 10
0.0
 20
0.0
  9
$LIMMAX
 10
12.0
 20
9.0
  9
$ORTHOMODE
 70
     0
  9
$REGENMODE
 70
     1
  9
$FILLMODE
 70
     1
  9
$QTEXTMODE
 70
     0
  9
$MIRRTEXT
 70
     1
  9
$DRAGMODE
 70
     2
  9
$LTSCALE
 40
1.0
  9
$OSMODE
 70
    37
  9
$ATTMODE
 70
     1
  9
$TEXTSIZE
 40
0.12
  9
$TRACEWID
 40
0.05
  9
$TEXTSTYLE
  7
STANDARD
  9
$CLAYER
  8
0
  9
$CELTYPE
  6
BYLAYER
  9
$CECOLOR
 62
   256
  9
$CELTSCALE
 40
1.0
  9
$DELOBJ
 70
     1
  9
$DISPSILH
 70
     0
  9
$DIMSCALE
 40
1.0
  9
$DIMASZ
 40
0.18
  9
$DIMEXO
 40
0.0625
  9
$DIMDLI
 40
0.375
  9
$DIMRND
 40
0.0
  9
$DIMDLE
 40
0.0
  9
$DIMEXE
 40
0.18
  9
$DIMTP
 40
0.0
  9
$DIMTM
 40
0.0
  9
$DIMTXT
 40
0.14
  9
$DIMCEN
 40
0.09
  9
$DIMTSZ
 40
0.0
  9
$DIMTOL
 70
     0
  9
$DIMLIM
 70
     0
  9
$DIMTIH
 70
     0
  9
$DIMTOH
 70
     1
  9
$DIMSE1
 70
     0
  9
$DIMSE2
 70
     0
  9
$DIMTAD
 70
     0
  9
$DIMZIN
 70
     4
  9
$DIMBLK
  1

  9
$DIMASO
 70
     1
  9
$DIMSHO
 70
     1
  9
$DIMPOST
  1

  9
$DIMAPOST
  1

  9
$DIMALT
 70
     1
  9
$DIMALTD
 70
     2
  9
$DIMALTF
 40
25.4
  9
$DIMLFAC
 40
1.0
  9
$DIMTOFL
 70
     0
  9
$DIMTVP
 40
0.0
  9
$DIMTIX
 70
     0
  9
$DIMSOXD
 70
     0
  9
$DIMSAH
 70
     0
  9
$DIMBLK1
  1

  9
$DIMBLK2
  1

  9
$DIMSTYLE
  2
ABECAD_3D
  9
$DIMCLRD
 70
     0
  9
$DIMCLRE
 70
     0
  9
$DIMCLRT
 70
     0
  9
$DIMTFAC
 40
1.5
  9
$DIMGAP
 40
0.09
  9
$DIMJUST
 70
     0
  9
$DIMSD1
 70
     0
  9
$DIMSD2
 70
     0
  9
$DIMTOLJ
 70
     1
  9
$DIMTZIN
 70
     4
  9
$DIMALTZ
 70
     4
  9
$DIMALTTZ
 70
     4
  9
$DIMFIT
 70
     5
  9
$DIMUPT
 70
     1
  9
$DIMUNIT
 70
     7
  9
$DIMDEC
 70
     6
  9
$DIMTDEC
 70
     6
  9
$DIMALTU
 70
     2
  9
$DIMALTTD
 70
     2
  9
$DIMTXSTY
  7
STANDARD
  9
$DIMAUNIT
 70
     0
  9
$LUNITS
 70
     2
  9
$LUPREC
 70
     4
  9
$SKETCHINC
 40
0.1
  9
$FILLETRAD
 40
0.0
  9
$AUNITS
 70
     0
  9
$AUPREC
 70
     0
  9
$MENU
  1
ACAD
  9
$ELEVATION
 40
0.0
  9
$PELEVATION
 40
0.0
  9
$THICKNESS
 40
0.0
  9
$LIMCHECK
 70
     0
  9
$BLIPMODE
 70
     0
  9
$CHAMFERA
 40
0.0
  9
$CHAMFERB
 40
0.0
  9
$CHAMFERC
 40
0.0
  9
$CHAMFERD
 40
0.0
  9
$SKPOLY
 70
     0
  9
$TDCREATE
 40
2451726.438389120
  9
$TDUPDATE
 40
2452010.489856481
  9
$TDINDWG
 40
0.6867591435
  9
$TDUSRTIMER
 40
0.6867591435
  9
$USRTIMER
 70
     1
  9
$ANGBASE
 50
0.0
  9
$ANGDIR
 70
     0
  9
$PDMODE
 70
     3
  9
$PDSIZE
 40
0.09
  9
$PLINEWID
 40
0.0
  9
$COORDS
 70
     1
  9
$SPLFRAME
 70
     1
  9
$SPLINETYPE
 70
     6
  9
$SPLINESEGS
 70
     8
  9
$ATTDIA
 70
     0
  9
$ATTREQ
 70
     1
  9
$HANDLING
 70
     1
  9
$HANDSEED
  5
625C0
  9
$SURFTAB1
 70
     6
  9
$SURFTAB2
 70
     6
  9
$SURFTYPE
 70
     6
  9
$SURFU
 70
     6
  9
$SURFV
 70
     6
  9
$UCSNAME
  2

  9
$UCSORG
 10
0.0
 20
0.0
 30
0.0
  9
$UCSXDIR
 10
1.0
 20
0.0
 30
0.0
  9
$UCSYDIR
 10
0.0
 20
1.0
 30
0.0
  9
$PUCSNAME
  2

  9
$PUCSORG
 10
0.0
 20
0.0
 30
0.0
  9
$PUCSXDIR
 10
1.0
 20
0.0
 30
0.0
  9
$PUCSYDIR
 10
0.0
 20
1.0
 30
0.0
  9
$USERI1
 70
     0
  9
$USERI2
 70
     0
  9
$USERI3
 70
     0
  9
$USERI4
 70
     0
  9
$USERI5
 70
     0
  9
$USERR1
 40
0.0
  9
$USERR2
 40
0.0
  9
$USERR3
 40
0.0
  9
$USERR4
 40
0.0
  9
$USERR5
 40
0.0
  9
$WORLDVIEW
 70
     1
  9
$SHADEDGE
 70
     3
  9
$SHADEDIF
 70
    70
  9
$TILEMODE
 70
     1
  9
$MAXACTVP
 70
    16
  9
$PINSBASE
 10
0.0
 20
0.0
 30
0.0
  9
$PLIMCHECK
 70
     0
  9
$PEXTMIN
 10
1.05
 20
0.8
 30
0.0
  9
$PEXTMAX
 10
9.45
 20
7.2
 30
0.0
  9
$PLIMMIN
 10
-0.25
 20
-0.25
  9
$PLIMMAX
 10
10.75
 20
8.25
  9
$UNITMODE
 70
     0
  9
$VISRETAIN
 70
     0
  9
$PLINEGEN
 70
     0
  9
$PSLTSCALE
 70
     1
  9
$TREEDEPTH
 70
  3020
  9
$PICKSTYLE
 70
     1
  9
$CMLSTYLE
  2
STANDARD
  9
$CMLJUST
 70
     0
  9
$CMLSCALE
 40
1.0
  9
$PROXYGRAPHICS
 70
     1
  9
$MEASUREMENT
 70
     0
  0
ENDSEC
  0
SECTION
  2
CLASSES
  0
CLASS
  1
DICTIONARYVAR
  2
AcDbDictionaryVar
  3
"AutoCAD"
 90
        0
280
     0
281
     0
  0
CLASS
  1
ACDBDICTIONARYWDFLT
  2
AcDbDictionaryWithDefault
  3
AutoCAD 2000
 90
        0
280
     0
281
     0
  0
CLASS
  1
ACDBPLACEHOLDER
  2
AcDbPlaceHolder
  3
AutoCAD 2000
 90
        0
280
     0
281
     0
  0
CLASS
  1
LAYOUT
  2
AcDbLayout
  3
AutoCAD 2000
 90
        0
280
     0
281
     0
  0
CLASS
  1
LONG_TRANSACTION
  2
AcDbLongTransaction
  3
AutoCAD 2000
 90
        0
280
     0
281
     0
  0
CLASS
  1
LWPOLYLINE
  2
AcDbPolyline
  3
"AutoCAD"
 90
        0
280
     0
281
     1
  0
CLASS
  1
HATCH
  2
AcDbHatch
  3
"ACAD_SEDONA"
 90
        0
280
     0
281
     1
  0
CLASS
  1
XRECORD
  2
AcDbXrecord
  3
"<Built In>"
 90
        0
280
     0
281
     0
  0
CLASS
  1
LONG_TRANSACTION
  2
AcDbLongTransaction
  3
AutoCAD 2000
 90
        0
280
     0
281
     0
  0
CLASS
  1
LWPOLYLINE
  2
AcDbPolyline
  3
"AutoCAD"
 90
        0
280
     0
281
     1
  0
CLASS
  1
HATCH
  2
AcDbHatch
  3
"ACAD_SEDONA"
 90
        0
280
     0
281
     1
  0
CLASS
  1
XRECORD
  2
AcDbXrecord
  3
"<Built In>"
 90
        0
280
     0
281
     0
  0
CLASS
  1
LONG_TRANSACTION
  2
AcDbLongTransaction
  3
AutoCAD 2000
 90
        0
280
     0
281
     0
  0
CLASS
  1
LWPOLYLINE
  2
AcDbPolyline
  3
"AutoCAD"
 90
        0
280
     0
281
     1
  0
CLASS
  1
HATCH
  2
AcDbHatch
  3
"ACAD_SEDONA"
 90
        0
280
     0
281
     1
  0
CLASS
  1
XRECORD
  2
AcDbXrecord
  3
"<Built In>"
 90
        0
280
     0
281
     0
  0
CLASS
  1
LONG_TRANSACTION
  2
AcDbLongTransaction
  3
AutoCAD 2000
 90
        0
280
     0
281
     0
  0
CLASS
  1
LWPOLYLINE
  2
AcDbPolyline
  3
"AutoCAD"
 90
        0
280
     0
281
     1
  0
CLASS
  1
HATCH
  2
AcDbHatch
  3
"ACAD_SEDONA"
 90
        0
280
     0
281
     1
  0
CLASS
  1
XRECORD
  2
AcDbXrecord
  3
"<Built In>"
 90
        0
280
     0
281
     0
  0
CLASS
  1
LONG_TRANSACTION
  2
AcDbLongTransaction
  3
AutoCAD 2000
 90
        0
280
     0
281
     0
  0
CLASS
  1
LWPOLYLINE
  2
AcDbPolyline
  3
"AutoCAD"
 90
        0
280
     0
281
     1
  0
CLASS
  1
HATCH
  2
AcDbHatch
  3
"ACAD_SEDONA"
 90
        0
280
     0
281
     1
  0
CLASS
  1
XRECORD
  2
AcDbXrecord
  3
"<Built In>"
 90
        0
280
     0
281
     0
  0
CLASS
  1
LONG_TRANSACTION
  2
AcDbLongTransaction
  3
AutoCAD 2000
 90
        0
280
     0
281
     0
  0
CLASS
  1
LWPOLYLINE
  2
AcDbPolyline
  3
"AutoCAD"
 90
        0
280
     0
281
     1
  0
CLASS
  1
HATCH
  2
AcDbHatch
  3
"ACAD_SEDONA"
 90
        0
280
     0
281
     1
  0
CLASS
  1
XRECORD
  2
AcDbXrecord
  3
"<Built In>"
 90
        0
280
     0
281
     0
  0
CLASS
  1
LONG_TRANSACTION
  2
AcDbLongTransaction
  3
AutoCAD 2000
 90
        0
280
     0
281
     0
  0
CLASS
  1
LWPOLYLINE
  2
AcDbPolyline
  3
"AutoCAD"
 90
        0
280
     0
281
     1
  0
CLASS
  1
HATCH
  2
AcDbHatch
  3
"ACAD_SEDONA"
 90
        0
280
     0
281
     1
  0
CLASS
  1
XRECORD
  2
AcDbXrecord
  3
"<Built In>"
 90
        0
280
     0
281
     0
  0
CLASS
  1
LONG_TRANSACTION
  2
AcDbLongTransaction
  3
AutoCAD 2000
 90
        0
280
     0
281
     0
  0
CLASS
  1
LWPOLYLINE
  2
AcDbPolyline
  3
"AutoCAD"
 90
        0
280
     0
281
     1
  0
CLASS
  1
HATCH
  2
AcDbHatch
  3
"ACAD_SEDONA"
 90
        0
280
     0
281
     1
  0
CLASS
  1
XRECORD
  2
AcDbXrecord
  3
"<Built In>"
 90
        0
280
     0
281
     0
  0
CLASS
  1
LONG_TRANSACTION
  2
AcDbLongTransaction
  3
AutoCAD 2000
 90
        0
280
     0
281
     0
  0
CLASS
  1
LWPOLYLINE
  2
AcDbPolyline
  3
"AutoCAD"
 90
        0
280
     0
281
     1
  0
CLASS
  1
HATCH
  2
AcDbHatch
  3
"ACAD_SEDONA"
 90
        0
280
     0
281
     1
  0
CLASS
  1
XRECORD
  2
AcDbXrecord
  3
"<Built In>"
 90
        0
280
     0
281
     0
  0
CLASS
  1
LONG_TRANSACTION
  2
AcDbLongTransaction
  3
AutoCAD 2000
 90
        0
280
     0
281
     0
  0
CLASS
  1
LWPOLYLINE
  2
AcDbPolyline
  3
"AutoCAD"
 90
        0
280
     0
281
     1
  0
CLASS
  1
HATCH
  2
AcDbHatch
  3
"ACAD_SEDONA"
 90
        0
280
     0
281
     1
  0
CLASS
  1
XRECORD
  2
AcDbXrecord
  3
"<Built In>"
 90
        0
280
     0
281
     0
  0
CLASS
  1
LONG_TRANSACTION
  2
AcDbLongTransaction
  3
AutoCAD 2000
 90
        0
280
     0
281
     0
  0
CLASS
  1
LWPOLYLINE
  2
AcDbPolyline
  3
"AutoCAD"
 90
        0
280
     0
281
     1
  0
CLASS
  1
HATCH
  2
AcDbHatch
  3
"ACAD_SEDONA"
 90
        0
280
     0
281
     1
  0
CLASS
  1
XRECORD
  2
AcDbXrecord
  3
"<Built In>"
 90
        0
280
     0
281
     0
  0
CLASS
  1
LONG_TRANSACTION
  2
AcDbLongTransaction
  3
AutoCAD 2000
 90
        0
280
     0
281
     0
  0
CLASS
  1
LWPOLYLINE
  2
AcDbPolyline
  3
"AutoCAD"
 90
        0
280
     0
281
     1
  0
CLASS
  1
HATCH
  2
AcDbHatch
  3
"ACAD_SEDONA"
 90
        0
280
     0
281
     1
  0
CLASS
  1
XRECORD
  2
AcDbXrecord
  3
"<Built In>"
 90
        0
280
     0
281
     0
  0
CLASS
  1
LONG_TRANSACTION
  2
AcDbLongTransaction
  3
AutoCAD 2000
 90
        0
280
     0
281
     0
  0
CLASS
  1
LWPOLYLINE
  2
AcDbPolyline
  3
"AutoCAD"
 90
        0
280
     0
281
     1
  0
CLASS
  1
HATCH
  2
AcDbHatch
  3
"ACAD_SEDONA"
 90
        0
280
     0
281
     1
  0
CLASS
  1
XRECORD
  2
AcDbXrecord
  3
"<Built In>"
 90
        0
280
     0
281
     0
  0
CLASS
  1
LONG_TRANSACTION
  2
AcDbLongTransaction
  3
AutoCAD 2000
 90
        0
280
     0
281
     0
  0
CLASS
  1
LWPOLYLINE
  2
AcDbPolyline
  3
"AutoCAD"
 90
        0
280
     0
281
     1
  0
CLASS
  1
HATCH
  2
AcDbHatch
  3
"ACAD_SEDONA"
 90
        0
280
     0
281
     1
  0
CLASS
  1
XRECORD
  2
AcDbXrecord
  3
"<Built In>"
 90
        0
280
     0
281
     0
  0
CLASS
  1
LONG_TRANSACTION
  2
AcDbLongTransaction
  3
AutoCAD 2000
 90
        0
280
     0
281
     0
  0
CLASS
  1
LWPOLYLINE
  2
AcDbPolyline
  3
"AutoCAD"
 90
        0
280
     0
281
     1
  0
CLASS
  1
HATCH
  2
AcDbHatch
  3
"ACAD_SEDONA"
 90
        0
280
     0
281
     1
  0
CLASS
  1
XRECORD
  2
AcDbXrecord
  3
"<Built In>"
 90
        0
280
     0
281
     0
  0
CLASS
  1
LONG_TRANSACTION
  2
AcDbLongTransaction
  3
AutoCAD 2000
 90
        0
280
     0
281
     0
  0
CLASS
  1
LWPOLYLINE
  2
AcDbPolyline
  3
"AutoCAD"
 90
        0
280
     0
281
     1
  0
CLASS
  1
HATCH
  2
AcDbHatch
  3
"ACAD_SEDONA"
 90
        0
280
     0
281
     1
  0
CLASS
  1
XRECORD
  2
AcDbXrecord
  3
"<Built In>"
 90
        0
280
     0
281
     0
  0
CLASS
  1
LONG_TRANSACTION
  2
AcDbLongTransaction
  3
AutoCAD 2000
 90
        0
280
     0
281
     0
  0
CLASS
  1
LWPOLYLINE
  2
AcDbPolyline
  3
"AutoCAD"
 90
        0
280
     0
281
     1
  0
CLASS
  1
HATCH
  2
AcDbHatch
  3
"ACAD_SEDONA"
 90
        0
280
     0
281
     1
  0
CLASS
  1
XRECORD
  2
AcDbXrecord
  3
"<Built In>"
 90
        0
280
     0
281
     0
  0
CLASS
  1
LONG_TRANSACTION
  2
AcDbLongTransaction
  3
AutoCAD 2000
 90
        0
280
     0
281
     0
  0
CLASS
  1
LWPOLYLINE
  2
AcDbPolyline
  3
"AutoCAD"
 90
        0
280
     0
281
     1
  0
CLASS
  1
HATCH
  2
AcDbHatch
  3
"ACAD_SEDONA"
 90
        0
280
     0
281
     1
  0
CLASS
  1
XRECORD
  2
AcDbXrecord
  3
"<Built In>"
 90
        0
280
     0
281
     0
  0
CLASS
  1
LONG_TRANSACTION
  2
AcDbLongTransaction
  3
AutoCAD 2000
 90
        0
280
     0
281
     0
  0
CLASS
  1
LWPOLYLINE
  2
AcDbPolyline
  3
"AutoCAD"
 90
        0
280
     0
281
     1
  0
CLASS
  1
HATCH
  2
AcDbHatch
  3
"ACAD_SEDONA"
 90
        0
280
     0
281
     1
  0
CLASS
  1
XRECORD
  2
AcDbXrecord
  3
"<Built In>"
 90
        0
280
     0
281
     0
  0
CLASS
  1
LONG_TRANSACTION
  2
AcDbLongTransaction
  3
AutoCAD 2000
 90
        0
280
     0
281
     0
  0
CLASS
  1
LWPOLYLINE
  2
AcDbPolyline
  3
"AutoCAD"
 90
        0
280
     0
281
     1
  0
CLASS
  1
HATCH
  2
AcDbHatch
  3
"ACAD_SEDONA"
 90
        0
280
     0
281
     1
  0
CLASS
  1
XRECORD
  2
AcDbXrecord
  3
"<Built In>"
 90
        0
280
     0
281
     0
  0
CLASS
  1
LONG_TRANSACTION
  2
AcDbLongTransaction
  3
AutoCAD 2000
 90
        0
280
     0
281
     0
  0
CLASS
  1
LWPOLYLINE
  2
AcDbPolyline
  3
"AutoCAD"
 90
        0
280
     0
281
     1
  0
CLASS
  1
HATCH
  2
AcDbHatch
  3
"ACAD_SEDONA"
 90
        0
280
     0
281
     1
  0
CLASS
  1
XRECORD
  2
AcDbXrecord
  3
"<Built In>"
 90
        0
280
     0
281
     0
  0
CLASS
  1
LONG_TRANSACTION
  2
AcDbLongTransaction
  3
AutoCAD 2000
 90
        0
280
     0
281
     0
  0
CLASS
  1
LWPOLYLINE
  2
AcDbPolyline
  3
"AutoCAD"
 90
        0
280
     0
281
     1
  0
CLASS
  1
HATCH
  2
AcDbHatch
  3
"ACAD_SEDONA"
 90
        0
280
     0
281
     1
  0
CLASS
  1
XRECORD
  2
AcDbXrecord
  3
"<Built In>"
 90
        0
280
     0
281
     0
  0
ENDSEC
  0
SECTION
  2
TABLES
  0
TABLE
  2
VPORT
  5
458C7
100
AcDbSymbolTable
 70
     1
  0
VPORT
  5
6258B
102
{ACAD_XDICTIONARY
360
6258E
102
}
100
AcDbSymbolTableRecord
100
AcDbViewportTableRecord
  2
*ACTIVE
 70
     0
 10
0.0
 20
0.0
 11
1.0
 21
1.0
 12
0.009518
 22
0.000805
 13
0.0
 23
0.0
 14
0.25
 24
0.25
 15
0.25
 25
0.25
 16
0.0
 26
0.0
 36
1.0
 17
0.563444
 27
-0.880137
 37
1.686493
 40
5.076639
 41
1.960674
 42
50.0
 43
0.0
 44
0.0
 50
0.0
 51
0.0
 71
     0
 72
 20000
 73
     1
 74
     1
 75
     0
 76
     0
 77
     0
 78
     0
  0
ENDTAB
  0
TABLE
  2
LTYPE
  5
458C4
100
AcDbSymbolTable
 70
     1
  0
LTYPE
  5
458D0
100
AcDbSymbolTableRecord
100
AcDbLinetypeTableRecord
  2
BYBLOCK
 70
     0
  3

 72
    65
 73
     0
 40
0.0
  0
LTYPE
  5
458D1
100
AcDbSymbolTableRecord
100
AcDbLinetypeTableRecord
  2
BYLAYER
 70
     0
  3

 72
    65
 73
     0
 40
0.0
  0
LTYPE
  5
458D2
100
AcDbSymbolTableRecord
100
AcDbLinetypeTableRecord
  2
CONTINUOUS
 70
     0
  3
Solid line
 72
    65
 73
     0
 40
0.0
  0
ENDTAB
  0
TABLE
  2
LAYER
  5
458C1
100
AcDbSymbolTable
 70
     7
  0
LAYER
  5
458CD
100
AcDbSymbolTableRecord
100
AcDbLayerTableRecord
  2
0
 70
     0
 62
     7
  6
CONTINUOUS
  0
LAYER
  5
458EA
100
AcDbSymbolTableRecord
100
AcDbLayerTableRecord
  2
DIMS-MTG-HOLES
 70
     0
 62
     1
  6
CONTINUOUS
  0
LAYER
  5
458EB
100
AcDbSymbolTableRecord
100
AcDbLayerTableRecord
  2
ATTRIBUTES
 70
     0
 62
     7
  6
CONTINUOUS
  0
LAYER
  5
4593B
102
{ACAD_XDICTIONARY
360
625B7
102
}
100
AcDbSymbolTableRecord
100
AcDbLayerTableRecord
  2
AREA1
 70
     0
 62
    -7
  6
CONTINUOUS
  0
LAYER
  5
45940
102
{ACAD_XDICTIONARY
360
6258C
102
}
100
AcDbSymbolTableRecord
100
AcDbLayerTableRecord
  2
DEFPOINTS
 70
     0
 62
    -7
  6
CONTINUOUS
  0
LAYER
  5
45954
100
AcDbSymbolTableRecord
100
AcDbLayerTableRecord
  2
SCALE
 70
     0
 62
    -7
  6
CONTINUOUS
  0
LAYER
  5
4D59A
100
AcDbSymbolTableRecord
100
AcDbLayerTableRecord
  2
SNAP_POINTS
 70
     0
 62
    -1
  6
CONTINUOUS
  0
ENDTAB
  0
TABLE
  2
STYLE
  5
458C2
100
AcDbSymbolTable
 70
     1
  0
STYLE
  5
458CE
100
AcDbSymbolTableRecord
100
AcDbTextStyleTableRecord
  2
STANDARD
 70
     0
 40
0.0
 41
1.0
 50
0.0
 71
     0
 42
0.12
  3
txt
  4

  0
ENDTAB
  0
TABLE
  2
VIEW
  5
458C5
100
AcDbSymbolTable
 70
     0
  0
ENDTAB
  0
TABLE
  2
UCS
  5
458C6
100
AcDbSymbolTable
 70
     0
  0
ENDTAB
  0
TABLE
  2
APPID
  5
458C8
100
AcDbSymbolTable
 70
     2
  0
APPID
  5
458CF
100
AcDbSymbolTableRecord
100
AcDbRegAppTableRecord
  2
ACAD
 70
     0
  0
APPID
  5
5FD5B
100
AcDbSymbolTableRecord
100
AcDbRegAppTableRecord
  2
AVE_RENDER
 70
     0
  0
ENDTAB
  0
TABLE
  2
DIMSTYLE
  5
458C9
100
AcDbSymbolTable
 70
     1
  0
DIMSTYLE
105
458F6
102
{ACAD_XDICTIONARY
360
625B3
102
}
102
{ACAD_REACTORS
330
624E3
330
624F1
102
}
100
AcDbSymbolTableRecord
100
AcDbDimStyleTableRecord
  2
ABECAD_3D
 70
     0
  3

  4

  5

  6

  7

 40
1.0
 41
0.18
 42
0.0625
 43
0.375
 44
0.18
 45
0.0
 46
0.0
 47
0.0
 48
0.0
140
0.14
141
0.09
142
0.0
143
25.4
144
1.0
145
0.0
146
1.5
147
0.09
 71
     0
 72
     0
 73
     0
 74
     1
 75
     0
 76
     0
 77
     0
 78
     4
170
     1
171
     2
172
     0
173
     0
174
     0
175
     0
176
     0
177
     0
178
     0
270
     7
271
     6
272
     6
273
     2
274
     2
340
458CE
275
     0
280
     0
281
     0
282
     0
283
     1
284
     4
285
     4
286
     4
287
     5
288
     1
  0
ENDTAB
  0
TABLE
  2
BLOCK_RECORD
  5
458C0
100
AcDbSymbolTable
 70
     3
  0
BLOCK_RECORD
  5
458D6
102
{ACAD_XDICTIONARY
360
4592C
102
}
100
AcDbSymbolTableRecord
100
AcDbBlockTableRecord
  2
*MODEL_SPACE
  0
BLOCK_RECORD
  5
458D3
102
{ACAD_XDICTIONARY
360
4592A
102
}
100
AcDbSymbolTableRecord
100
AcDbBlockTableRecord
  2
*PAPER_SPACE
  0
BLOCK_RECORD
  5
61D1A
100
AcDbSymbolTableRecord
100
AcDbBlockTableRecord
  2
AVE_RENDER
  0
BLOCK_RECORD
  5
624E4
100
AcDbSymbolTableRecord
100
AcDbBlockTableRecord
  2
*D1
  0
BLOCK_RECORD
  5
624F2
100
AcDbSymbolTableRecord
100
AcDbBlockTableRecord
  2
*D2
  0
ENDTAB
  0
ENDSEC
  0
SECTION
  2
BLOCKS
  0
BLOCK
  5
458DF
100
AcDbEntity
  8
0
100
AcDbBlockBegin
  2
*MODEL_SPACE
 70
     0
 10
0.0
 20
0.0
 30
0.0
  3
*MODEL_SPACE
  1

  0
ENDBLK
  5
458E0
100
AcDbEntity
  8
0
100
AcDbBlockEnd
  0
BLOCK
  5
458DD
100
AcDbEntity
 67
     1
  8
0
100
AcDbBlockBegin
  2
*PAPER_SPACE
 70
     0
 10
0.0
 20
0.0
 30
0.0
  3
*PAPER_SPACE
  1

  0
ENDBLK
  5
458DE
100
AcDbEntity
 67
     1
  8
0
100
AcDbBlockEnd
  0
BLOCK
  5
61D1B
100
AcDbEntity
  8
0
100
AcDbBlockBegin
  2
AVE_RENDER
 70
     0
 10
0.0
 20
0.0
 30
0.0
  3
AVE_RENDER
  1
AVE_RENDER
  0
ENDBLK
  5
61D1C
100
AcDbEntity
  8
0
100
AcDbBlockEnd
  0
BLOCK
  5
624EF
100
AcDbEntity
  8
0
100
AcDbBlockBegin
  2
*D1
 70
     1
 10
0.0
 20
0.0
 30
0.0
  3
*D1
  1

  0
LINE
  5
624E5
100
AcDbEntity
  8
AREA1
 62
     0
100
AcDbLine
 10
0.6372
 20
0.7745
 30
0.0
 11
-0.683678
 21
0.7745
 31
0.0
1001
ACAD
1000
RTLwPs
1070
   158
  0
LINE
  5
624E6
100
AcDbEntity
  8
AREA1
 62
     0
100
AcDbLine
 10
0.2702
 20
-2.4055
 30
0.0
 11
-0.683678
 21
-2.4055
 31
0.0
1001
ACAD
1000
RTLwPs
1070
   158
  0
LINE
  5
624E7
100
AcDbEntity
  8
AREA1
 62
     0
100
AcDbLine
 10
-0.503678
 20
0.5945
 30
0.0
 11
-0.503678
 21
0.130302
 31
0.0
1001
ACAD
1000
RTLwPs
1070
   158
  0
LINE
  5
624E8
100
AcDbEntity
  8
AREA1
 62
     0
100
AcDbLine
 10
-0.503678
 20
-2.2255
 30
0.0
 11
-0.503678
 21
-1.706365
 31
0.0
1001
ACAD
1000
RTLwPs
1070
   158
  0
MTEXT
  5
624E9
100
AcDbEntity
  8
AREA1
 62
     0
100
AcDbMText
 10
-0.503678
 20
-0.788032
 30
0.0
 40
0.14
 41
0.0
 71
     5
 72
     1
  1
\A1;3 3/16 [80.77]
 11
0.0
 21
1.0
 31
0.0
1001
ACAD
1000
MTEXTBEGIN
1070
    73
1070
     1
1070
    44
1040
1.0
1070
    74
1070
     0
1000
MTEXTEND
1000
MTEXTBEGIN
1070
    73
1070
     1
1070
    44
1040
1.0
1070
    74
1070
     0
1000
MTEXTEND
1000
MTEXTBEGIN
1070
    73
1070
     1
1070
    44
1040
1.0
1070
    74
1070
     0
1000
MTEXTEND
  0
SOLID
  5
624EA
100
AcDbEntity
  8
AREA1
 62
     0
100
AcDbTrace
 10
-0.533678
 20
0.5945
 30
0.0
 11
-0.473678
 21
0.5945
 31
0.0
 12
-0.503678
 22
0.7745
 32
0.0
 13
-0.503678
 23
0.7745
 33
0.0
  0
SOLID
  5
624EB
100
AcDbEntity
  8
AREA1
 62
     0
100
AcDbTrace
 10
-0.533678
 20
-2.2255
 30
0.0
 11
-0.473678
 21
-2.2255
 31
0.0
 12
-0.503678
 22
-2.4055
 32
0.0
 13
-0.503678
 23
-2.4055
 33
0.0
  0
POINT
  5
624EC
100
AcDbEntity
  8
DEFPOINTS
 62
     0
100
AcDbPoint
 10
0.6997
 20
0.7745
 30
1.386
  0
POINT
  5
624ED
100
AcDbEntity
  8
DEFPOINTS
 62
     0
100
AcDbPoint
 10
0.3327
 20
-2.4055
 30
1.386
  0
POINT
  5
624EE
100
AcDbEntity
  8
DEFPOINTS
 62
     0
100
AcDbPoint
 10
-0.503678
 20
-2.4055
 30
0.0
  0
ENDBLK
  5
624F0
100
AcDbEntity
  8
0
100
AcDbBlockEnd
  0
BLOCK
  5
624FC
100
AcDbEntity
  8
0
100
AcDbBlockBegin
  2
*D2
 70
     1
 10
0.0
 20
0.0
 30
0.0
  3
*D2
  1

  0
LINE
  5
624FE
100
AcDbEntity
  8
AREA1
 62
     0
100
AcDbLine
 10
0.0052
 20
0.781
 30
0.0
 11
0.0052
 21
1.335143
 31
0.0
1001
ACAD
1000
RTLwPs
1070
   158
  0
LINE
  5
624FF
100
AcDbEntity
  8
AREA1
 62
     0
100
AcDbLine
 10
1.7652
 20
0.637
 30
0.0
 11
1.7652
 21
1.335143
 31
0.0
1001
ACAD
1000
RTLwPs
1070
   158
  0
LINE
  5
62500
100
AcDbEntity
  8
AREA1
 62
     0
100
AcDbLine
 10
0.1852
 20
1.155143
 30
0.0
 11
1.5852
 21
1.155143
 31
0.0
1001
ACAD
1000
RTLwPs
1070
   158
  0
MTEXT
  5
62501
100
AcDbEntity
  8
AREA1
 62
     0
100
AcDbMText
 10
0.892959
 20
1.546386
 30
0.0
 40
0.14
 41
0.0
 71
     5
 72
     1
  1
\A1;1 49/64 [44.70]
1001
ACAD
1000
MTEXTBEGIN
1070
    73
1070
     1
1070
    44
1040
1.0
1070
    74
1070
     0
1000
MTEXTEND
1000
MTEXTBEGIN
1070
    73
1070
     1
1070
    44
1040
1.0
1070
    74
1070
     0
1000
MTEXTEND
1000
MTEXTBEGIN
1070
    73
1070
     1
1070
    44
1040
1.0
1070
    74
1070
     0
1000
MTEXTEND
  0
SOLID
  5
62502
100
AcDbEntity
  8
AREA1
 62
     0
100
AcDbTrace
 10
0.1852
 20
1.185143
 30
0.0
 11
0.1852
 21
1.125143
 31
0.0
 12
0.0052
 22
1.155143
 32
0.0
 13
0.0052
 23
1.155143
 33
0.0
  0
SOLID
  5
62503
100
AcDbEntity
  8
AREA1
 62
     0
100
AcDbTrace
 10
1.5852
 20
1.185143
 30
0.0
 11
1.5852
 21
1.125143
 31
0.0
 12
1.7652
 22
1.155143
 32
0.0
 13
1.7652
 23
1.155143
 33
0.0
  0
POINT
  5
62504
100
AcDbEntity
  8
DEFPOINTS
 62
     0
100
AcDbPoint
 10
0.0052
 20
0.7185
 30
0.0
  0
POINT
  5
62505
100
AcDbEntity
  8
DEFPOINTS
 62
     0
100
AcDbPoint
 10
1.7652
 20
0.5745
 30
0.0
  0
POINT
  5
62506
100
AcDbEntity
  8
DEFPOINTS
 62
     0
100
AcDbPoint
 10
1.7652
 20
1.155143
 30
0.0
  0
ENDBLK
  5
624FD
100
AcDbEntity
  8
0
100
AcDbBlockEnd
  0
ENDSEC
  0
SECTION
  2
ENTITIES
  0
ATTDEF
  5
6210A
100
AcDbEntity
  8
ATTRIBUTES
100
AcDbText
 10
0.100094
 20
-0.134243
 30
0.0
 40
0.08052
  1
ALLEN-BRADLEY
100
AcDbAttributeDefinition
  3
MANUFACTURER NAME?
  2
AC_VND_LABEL
 70
     1
  0
ATTDEF
  5
6210B
100
AcDbEntity
  8
ATTRIBUTES
100
AcDbText
 10
0.100094
 20
-0.301994
 30
0.0
 40
0.08052
  1
100-C09U, C12U, C16U, C23U*10
100
AcDbAttributeDefinition
  3
CATALOG NUMBER?
  2
AC_PART_NO
 70
     1
  0
ATTDEF
  5
6210C
100
AcDbEntity
  8
ATTRIBUTES
100
AcDbText
 10
0.100094
 20
-0.469745
 30
0.0
 40
0.08052
  1
MCS IEC AC CONTACTOR; 9A-23A; 1 N.O.
100
AcDbAttributeDefinition
  3
PART DESCRIPTION?
  2
AC_DESCRIPTION
 70
     1
  0
ATTDEF
  5
6210D
100
AcDbEntity
  8
ATTRIBUTES
100
AcDbText
 10
0.100094
 20
-0.637495
 30
0.0
 40
0.08052
  1

100
AcDbAttributeDefinition
  3
DEVICE ID?
  2
DEVICE_ID
 70
     1
  0
ATTDEF
  5
6210E
100
AcDbEntity
  8
ATTRIBUTES
100
AcDbText
 10
0.100094
 20
-0.805246
 30
0.0
 40
0.08052
  1

100
AcDbAttributeDefinition
  3
CUSTOMER PART NUMBER?
  2
AC_CPART_NO
 70
     1
  0
ATTDEF
  5
6210F
100
AcDbEntity
  8
ATTRIBUTES
100
AcDbText
 10
0.100094
 20
-0.972997
 30
0.0
 40
0.08052
  1

100
AcDbAttributeDefinition
  3
CUSTOMER NOTE?
  2
AC_NOTE
 70
     1
  0
ATTDEF
  5
62110
100
AcDbEntity
  8
ATTRIBUTES
100
AcDbText
 10
0.100094
 20
-1.140748
 30
0.0
 40
0.08052
  1

100
AcDbAttributeDefinition
  3
FASTENER DATA?
  2
FASTENER
 70
     1
  0
ATTDEF
  5
62111
100
AcDbEntity
  8
ATTRIBUTES
100
AcDbText
 10
0.100094
 20
-1.308498
 30
0.0
 40
0.08052
  1
INCH
100
AcDbAttributeDefinition
  3
UNIT OF SCALE?
  2
AC_SCALE_UNIT
 70
     1
  0
ATTDEF
  5
62112
100
AcDbEntity
  8
ATTRIBUTES
100
AcDbText
 10
0.100094
 20
-1.476249
 30
0.0
 40
0.08052
  1
0
100
AcDbAttributeDefinition
  3
VIEW CODE?
  2
AC_VIEW_CODE
 70
     1
  0
POLYLINE
  5
62113
100
AcDbEntity
  8
0
100
AcDbPolygonMesh
 66
     1
 10
0.0
 20
0.0
 30
0.0
 70
    16
 71
     6
 72
     3
  0
VERTEX
  5
62114
100
AcDbEntity
  8
0
100
AcDbVertex
100
AcDbPolygonMeshVertex
 10
1.7652
 20
0.2385
 30
0.316
 70
    64
  0
VERTEX
  5
62115
100
AcDbEntity
  8
0
100
AcDbVertex
100
AcDbPolygonMeshVertex
 10
1.7652
 20
0.2385
 30
0.0
 70
    64
  0
VERTEX
  5
62116
100
AcDbEntity
  8
0
100
AcDbVertex
100
AcDbPolygonMeshVertex
 10
1.7652
 20
0.2385
 30
0.0
 70
    64
  0
VERTEX
  5
62117
100
AcDbEntity
  8
0
100
AcDbVertex
100
AcDbPolygonMeshVertex
 10
1.3742
 20
0.2385
 30
0.316
 70
    64
  0
VERTEX
  5
62118
100
AcDbEntity
  8
0
100
AcDbVertex
100
AcDbPolygonMeshVertex
 10
1.3742
 20
0.2385
 30
0.0
 70
    64
  0
VERTEX
  5
62119
100
AcDbEntity
  8
0
100
AcDbVertex
100
AcDbPolygonMeshVertex
 10
1.3742
 20
0.2385
 30
0.0
 70
    64
  0
VERTEX
  5
6211A
100
AcDbEntity
  8
0
100
AcDbVertex
100
AcDbPolygonMeshVertex
 10
1.3742
 20
0.5745
 30
0.316
 70
    64
  0
VERTEX
  5
6211B
100
AcDbEntity
  8
0
100
AcDbVertex
100
AcDbPolygonMeshVertex
 10
1.3742
 20
0.5745
 30
0.0
 70
    64
  0
VERTEX
  5
6211C
100
AcDbEntity
  8
0
100
AcDbVertex
100
AcDbPolygonMeshVertex
 10
1.3742
 20
0.2385
 30
0.0
 70
    64
  0
VERTEX
  5
6211D
100
AcDbEntity
  8
0
100
AcDbVertex
100
AcDbPolygonMeshVertex
 10
1.7652
 20
0.5745
 30
0.316
 70
    64
  0
VERTEX
  5
6211E
100
AcDbEntity
  8
0
100
AcDbVertex
100
AcDbPolygonMeshVertex
 10
1.7652
 20
0.5745
 30
0.0
 70
    64
  0
VERTEX
  5
6211F
100
AcDbEntity
  8
0
100
AcDbVertex
100
AcDbPolygonMeshVertex
 10
1.7652
 20
0.2385
 30
0.0
 70
    64
  0
VERTEX
  5
62120
100
AcDbEntity
  8
0
100
AcDbVertex
100
AcDbPolygonMeshVertex
 10
1.7652
 20
0.5745
 30
0.316
 70
    64
  0
VERTEX
  5
62121
100
AcDbEntity
  8
0
100
AcDbVertex
100
AcDbPolygonMeshVertex
 10
1.7652
 20
0.5745
 30
0.316
 70
    64
  0
VERTEX
  5
62122
100
AcDbEntity
  8
0
100
AcDbVertex
100
AcDbPolygonMeshVertex
 10
1.7652
 20
0.2385
 30
0.316
 70
    64
  0
VERTEX
  5
62123
100
AcDbEntity
  8
0
100
AcDbVertex
100
AcDbPolygonMeshVertex
 10
1.3742
 20
0.5745
 30
0.316
 70
    64
  0
VERTEX
  5
62124
100
AcDbEntity
  8
0
100
AcDbVertex
100
AcDbPolygonMeshVertex
 10
1.3742
 20
0.5745
 30
0.316
 70
    64
  0
VERTEX
  5
62125
100
AcDbEntity
  8
0
100
AcDbVertex
100
AcDbPolygonMeshVertex
 10
1.3742
 20
0.2385
 30
0.316
 70
    64
  0
SEQEND
  5
62126
100
AcDbEntity
  8
0
  0
POLYLINE
  5
62127
100
AcDbEntity
  8
0
100
AcDbPolygonMesh
 66
     1
 10
0.0
 20
0.0
 30
0.0
 70
    16
 71
     6
 72
     3
  0
VERTEX
  5
62128
100
AcDbEntity
  8
0
100
AcDbVertex
100
AcDbPolygonMeshVertex
 10
0.3962
 20
-1.6855
 30
1.318
 70
    64
  0
VERTEX
  5
62129
100
AcDbEntity
  8
0
100
AcDbVertex
100
AcDbPolygonMeshVertex
 10
0.3962
 20
-1.6855
 30
0.187
 70
    64
  0
VERTEX
  5
6212A
100
AcDbEntity
  8
0
100
AcDbVertex
100
AcDbPolygonMeshVertex
 10
0.3962
 20
-1.6855
 30
0.187
 70
    64
  0
VERTEX
  5
6212B
100
AcDbEntity
  8
0
100
AcDbVertex
100
AcDbPolygonMeshVertex
 10
0.0052
 20
-1.6855
 30
1.318
 70
    64
  0
VERTEX
  5
6212C
100
AcDbEntity
  8
0
100
AcDbVertex
100
AcDbPolygonMeshVertex
 10
0.0052
 20
-1.6855
 30
0.187
 70
    64
  0
VERTEX
  5
6212D
100
AcDbEntity
  8
0
100
AcDbVertex
100
AcDbPolygonMeshVertex
 10
0.0052
 20
-1.6855
 30
0.187
 70
    64
  0
VERTEX
  5
6212E
100
AcDbEntity
  8
0
100
AcDbVertex
100
AcDbPolygonMeshVertex
 10
0.0052
 20
0.5215
 30
1.318
 70
    64
  0
VERTEX
  5
6212F
100
AcDbEntity
  8
0
100
AcDbVertex
100
AcDbPolygonMeshVertex
 10
0.0052
 20
0.5215
 30
0.187
 70
    64
  0
VERTEX
  5
62130
100
AcDbEntity
  8
0
100
AcDbVertex
100
AcDbPolygonMeshVertex
 10
0.0052
 20
-1.6855
 30
0.187
 70
    64
  0
VERTEX
  5
62131
100
AcDbEntity
  8
0
100
AcDbVertex
100
AcDbPolygonMeshVertex
 10
0.3962
 20
0.5215
 30
1.318
 70
    64
  0
VERTEX
  5
62132
100
AcDbEntity
  8
0
100
AcDbVertex
100
AcDbPolygonMeshVertex
 10
0.3962
 20
0.5215
 30
0.187
 70
    64
  0
VERTEX
  5
62133
100
AcDbEntity
  8
0
100
AcDbVertex
100
AcDbPolygonMeshVertex
 10
0.3962
 20
-1.6855
 30
0.187
 70
    64
  0
VERTEX
  5
62134
100
AcDbEntity
  8
0
100
AcDbVertex
100
AcDbPolygonMeshVertex
 10
0.3962
 20
0.5215
 30
1.318
 70
    64
  0
VERTEX
  5
62135
100
AcDbEntity
  8
0
100
AcDbVertex
100
AcDbPolygonMeshVertex
 10
0.3962
 20
0.5215
 30
1.318
 70
    64
  0
VERTEX
  5
62136
100
AcDbEntity
  8
0
100
AcDbVertex
100
AcDbPolygonMeshVertex
 10
0.3962
 20
-1.6855
 30
1.318
 70
    64
  0
VERTEX
  5
62137
100
AcDbEntity
  8
0
100
AcDbVertex
100
AcDbPolygonMeshVertex
 10
0.0052
 20
0.5215
 30
1.318
 70
    64
  0
VERTEX
  5
62138
100
AcDbEntity
  8
0
100
AcDbVertex
100
AcDbPolygonMeshVertex
 10
0.0052
 20
0.5215
 30
1.318
 70
    64
  0
VERTEX
  5
62139
100
AcDbEntity
  8
0
100
AcDbVertex
100
AcDbPolygonMeshVertex
 10
0.0052
 20
-1.6855
 30
1.318
 70
    64
  0
SEQEND
  5
6213A
100
AcDbEntity
  8
0
  0
POLYLINE
  5
6213B
100
AcDbEntity
  8
0
100
AcDbPolygonMesh
 66
     1
 10
0.0
 20
0.0
 30
0.0
 70
    16
 71
     6
 72
     3
  0
VERTEX
  5
6213C
100
AcDbEntity
  8
0
100
AcDbVertex
100
AcDbPolygonMeshVertex
 10
1.7652
 20
-1.9685
 30
1.318
 70
    64
  0
VERTEX
  5
6213D
100
AcDbEntity
  8
0
100
AcDbVertex
100
AcDbPolygonMeshVertex
 10
1.7652
 20
-1.9685
 30
0.187
 70
    64
  0
VERTEX
  5
6213E
100
AcDbEntity
  8
0
100
AcDbVertex
100
AcDbPolygonMeshVertex
 10
1.7652
 20
-1.9685
 30
0.187
 70
    64
  0
VERTEX
  5
6213F
100
AcDbEntity
  8
0
100
AcDbVertex
100
AcDbPolygonMeshVertex
 10
1.3742
 20
-1.9685
 30
1.318
 70
    64
  0
VERTEX
  5
62140
100
AcDbEntity
  8
0
100
AcDbVertex
100
AcDbPolygonMeshVertex
 10
1.3742
 20
-1.9685
 30
0.187
 70
    64
  0
VERTEX
  5
62141
100
AcDbEntity
  8
0
100
AcDbVertex
100
AcDbPolygonMeshVertex
 10
1.3742
 20
-1.9685
 30
0.187
 70
    64
  0
VERTEX
  5
62142
100
AcDbEntity
  8
0
100
AcDbVertex
100
AcDbPolygonMeshVertex
 10
1.3742
 20
0.2385
 30
1.318
 70
    64
  0
VERTEX
  5
62143
100
AcDbEntity
  8
0
100
AcDbVertex
100
AcDbPolygonMeshVertex
 10
1.3742
 20
0.2385
 30
0.187
 70
    64
  0
VERTEX
  5
62144
100
AcDbEntity
  8
0
100
AcDbVertex
100
AcDbPolygonMeshVertex
 10
1.3742
 20
-1.9685
 30
0.187
 70
    64
  0
VERTEX
  5
62145
100
AcDbEntity
  8
0
100
AcDbVertex
100
AcDbPolygonMeshVertex
 10
1.7652
 20
0.2385
 30
1.318
 70
    64
  0
VERTEX
  5
62146
100
AcDbEntity
  8
0
100
AcDbVertex
100
AcDbPolygonMeshVertex
 10
1.7652
 20
0.2385
 30
0.187
 70
    64
  0
VERTEX
  5
62147
100
AcDbEntity
  8
0
100
AcDbVertex
100
AcDbPolygonMeshVertex
 10
1.7652
 20
-1.9685
 30
0.187
 70
    64
  0
VERTEX
  5
62148
100
AcDbEntity
  8
0
100
AcDbVertex
100
AcDbPolygonMeshVertex
 10
1.7652
 20
0.2385
 30
1.318
 70
    64
  0
VERTEX
  5
62149
100
AcDbEntity
  8
0
100
AcDbVertex
100
AcDbPolygonMeshVertex
 10
1.7652
 20
0.2385
 30
1.318
 70
    64
  0
VERTEX
  5
6214A
100
AcDbEntity
  8
0
100
AcDbVertex
100
AcDbPolygonMeshVertex
 10
1.7652
 20
-1.9685
 30
1.318
 70
    64
  0
VERTEX
  5
6214B
100
AcDbEntity
  8
0
100
AcDbVertex
100
AcDbPolygonMeshVertex
 10
1.3742
 20
0.2385
 30
1.318
 70
    64
  0
VERTEX
  5
6214C
100
AcDbEntity
  8
0
100
AcDbVertex
100
AcDbPolygonMeshVertex
 10
1.3742
 20
0.2385
 30
1.318
 70
    64
  0
VERTEX
  5
6214D
100
AcDbEntity
  8
0
100
AcDbVertex
100
AcDbPolygonMeshVertex
 10
1.3742
 20
-1.9685
 30
1.318
 70
    64
  0
SEQEND
  5
6214E
100
AcDbEntity
  8
0
  0
POLYLINE
  5
6214F
100
AcDbEntity
  8
0
100
AcDbPolygonMesh
 66
     1
 10
0.0
 20
0.0
 30
0.0
 70
    16
 71
     6
 72
     3
  0
VERTEX
  5
62150
100
AcDbEntity
  8
0
100
AcDbVertex
100
AcDbPolygonMeshVertex
 10
1.3742
 20
-1.9685
 30
1.318
 70
    64
  0
VERTEX
  5
62151
100
AcDbEntity
  8
0
100
AcDbVertex
100
AcDbPolygonMeshVertex
 10
1.3742
 20
-1.9685
 30
0.187
 70
    64
  0
VERTEX
  5
62152
100
AcDbEntity
  8
0
100
AcDbVertex
100
AcDbPolygonMeshVertex
 10
1.3742
 20
-1.9685
 30
0.187
 70
    64
  0
VERTEX
  5
62153
100
AcDbEntity
  8
0
100
AcDbVertex
100
AcDbPolygonMeshVertex
 10
0.3962
 20
-1.9685
 30
1.318
 70
    64
  0
VERTEX
  5
62154
100
AcDbEntity
  8
0
100
AcDbVertex
100
AcDbPolygonMeshVertex
 10
0.3962
 20
-1.9685
 30
0.187
 70
    64
  0
VERTEX
  5
62155
100
AcDbEntity
  8
0
100
AcDbVertex
100
AcDbPolygonMeshVertex
 10
0.3962
 20
-1.9685
 30
0.187
 70
    64
  0
VERTEX
  5
62156
100
AcDbEntity
  8
0
100
AcDbVertex
100
AcDbPolygonMeshVertex
 10
0.3962
 20
0.5215
 30
1.318
 70
    64
  0
VERTEX
  5
62157
100
AcDbEntity
  8
0
100
AcDbVertex
100
AcDbPolygonMeshVertex
 10
0.3962
 20
0.5215
 30
0.187
 70
    64
  0
VERTEX
  5
62158
100
AcDbEntity
  8
0
100
AcDbVertex
100
AcDbPolygonMeshVertex
 10
0.3962
 20
-1.9685
 30
0.187
 70
    64
  0
VERTEX
  5
62159
100
AcDbEntity
  8
0
100
AcDbVertex
100
AcDbPolygonMeshVertex
 10
1.3742
 20
0.5215
 30
1.318
 70
    64
  0
VERTEX
  5
6215A
100
AcDbEntity
  8
0
100
AcDbVertex
100
AcDbPolygonMeshVertex
 10
1.3742
 20
0.5215
 30
0.187
 70
    64
  0
VERTEX
  5
6215B
100
AcDbEntity
  8
0
100
AcDbVertex
100
AcDbPolygonMeshVertex
 10
1.3742
 20
-1.9685
 30
0.187
 70
    64
  0
VERTEX
  5
6215C
100
AcDbEntity
  8
0
100
AcDbVertex
100
AcDbPolygonMeshVertex
 10
1.3742
 20
0.5215
 30
1.318
 70
    64
  0
VERTEX
  5
6215D
100
AcDbEntity
  8
0
100
AcDbVertex
100
AcDbPolygonMeshVertex
 10
1.3742
 20
0.5215
 30
1.318
 70
    64
  0
VERTEX
  5
6215E
100
AcDbEntity
  8
0
100
AcDbVertex
100
AcDbPolygonMeshVertex
 10
1.3742
 20
-1.9685
 30
1.318
 70
    64
  0
VERTEX
  5
6215F
100
AcDbEntity
  8
0
100
AcDbVertex
100
AcDbPolygonMeshVertex
 10
0.3962
 20
0.5215
 30
1.318
 70
    64
  0
VERTEX
  5
62160
100
AcDbEntity
  8
0
100
AcDbVertex
100
AcDbPolygonMeshVertex
 10
0.3962
 20
0.5215
 30
1.318
 70
    64
  0
VERTEX
  5
62161
100
AcDbEntity
  8
0
100
AcDbVertex
100
AcDbPolygonMeshVertex
 10
0.3962
 20
-1.9685
 30
1.318
 70
    64
  0
SEQEND
  5
62162
100
AcDbEntity
  8
0
  0
POLYLINE
  5
62163
100
AcDbEntity
  8
0
100
AcDbPolygonMesh
 66
     1
 10
0.0
 20
0.0
 30
0.0
 70
    16
 71
     6
 72
     3
  0
VERTEX
  5
62164
100
AcDbEntity
  8
0
100
AcDbVertex
100
AcDbPolygonMeshVertex
 10
1.0707
 20
0.7745
 30
2.06
 70
    64
  0
VERTEX
  5
62165
100
AcDbEntity
  8
0
100
AcDbVertex
100
AcDbPolygonMeshVertex
 10
1.0707
 20
0.7745
 30
1.386
 70
    64
  0
VERTEX
  5
62166
100
AcDbEntity
  8
0
100
AcDbVertex
100
AcDbPolygonMeshVertex
 10
1.0707
 20
0.7745
 30
1.386
 70
    64
  0
VERTEX
  5
62167
100
AcDbEntity
  8
0
100
AcDbVertex
100
AcDbPolygonMeshVertex
 10
0.6997
 20
0.7745
 30
2.06
 70
    64
  0
VERTEX
  5
62168
100
AcDbEntity
  8
0
100
AcDbVertex
100
AcDbPolygonMeshVertex
 10
0.6997
 20
0.7745
 30
1.386
 70
    64
  0
VERTEX
  5
62169
100
AcDbEntity
  8
0
100
AcDbVertex
100
AcDbPolygonMeshVertex
 10
0.6997
 20
0.7745
 30
1.386
 70
    64
  0
VERTEX
  5
6216A
100
AcDbEntity
  8
0
100
AcDbVertex
100
AcDbPolygonMeshVertex
 10
0.6997
 20
0.5215
 30
2.06
 70
    64
  0
VERTEX
  5
6216B
100
AcDbEntity
  8
0
100
AcDbVertex
100
AcDbPolygonMeshVertex
 10
0.6997
 20
0.5215
 30
1.386
 70
    64
  0
VERTEX
  5
6216C
100
AcDbEntity
  8
0
100
AcDbVertex
100
AcDbPolygonMeshVertex
 10
0.6997
 20
0.7745
 30
1.386
 70
    64
  0
VERTEX
  5
6216D
100
AcDbEntity
  8
0
100
AcDbVertex
100
AcDbPolygonMeshVertex
 10
1.0707
 20
0.5215
 30
2.06
 70
    64
  0
VERTEX
  5
6216E
100
AcDbEntity
  8
0
100
AcDbVertex
100
AcDbPolygonMeshVertex
 10
1.0707
 20
0.5215
 30
1.386
 70
    64
  0
VERTEX
  5
6216F
100
AcDbEntity
  8
0
100
AcDbVertex
100
AcDbPolygonMeshVertex
 10
1.0707
 20
0.7745
 30
1.386
 70
    64
  0
VERTEX
  5
62170
100
AcDbEntity
  8
0
100
AcDbVertex
100
AcDbPolygonMeshVertex
 10
1.0707
 20
0.5215
 30
2.06
 70
    64
  0
VERTEX
  5
62171
100
AcDbEntity
  8
0
100
AcDbVertex
100
AcDbPolygonMeshVertex
 10
1.0707
 20
0.5215
 30
2.06
 70
    64
  0
VERTEX
  5
62172
100
AcDbEntity
  8
0
100
AcDbVertex
100
AcDbPolygonMeshVertex
 10
1.0707
 20
0.7745
 30
2.06
 70
    64
  0
VERTEX
  5
62173
100
AcDbEntity
  8
0
100
AcDbVertex
100
AcDbPolygonMeshVertex
 10
0.6997
 20
0.5215
 30
2.06
 70
    64
  0
VERTEX
  5
62174
100
AcDbEntity
  8
0
100
AcDbVertex
100
AcDbPolygonMeshVertex
 10
0.6997
 20
0.5215
 30
2.06
 70
    64
  0
VERTEX
  5
62175
100
AcDbEntity
  8
0
100
AcDbVertex
100
AcDbPolygonMeshVertex
 10
0.6997
 20
0.7745
 30
2.06
 70
    64
  0
SEQEND
  5
62176
100
AcDbEntity
  8
0
  0
LWPOLYLINE
  5
62177
100
AcDbEntity
  8
0
100
AcDbPolyline
 90
        4
 70
     1
 43
0.0
 38
2.062
 10
0.7517
 20
0.5735
 10
1.0187
 20
0.5735
 10
1.0187
 20
0.7225
 10
0.7517
 20
0.7225
  0
LWPOLYLINE
  5
62178
100
AcDbEntity
  8
0
100
AcDbPolyline
 90
        4
 70
     1
 43
0.0
 38
1.388
 10
0.7517
 20
-2.0205
 10
1.0187
 20
-2.0205
 10
1.0187
 20
-2.1695
 10
0.7517
 20
-2.1695
  0
POLYLINE
  5
62179
100
AcDbEntity
  8
0
100
AcDbPolygonMesh
 66
     1
 10
0.0
 20
0.0
 30
0.0
 70
    16
 71
     6
 72
     3
  0
VERTEX
  5
6217A
100
AcDbEntity
  8
0
100
AcDbVertex
100
AcDbPolygonMeshVertex
 10
0.3327
 20
-2.4055
 30
2.06
 70
    64
  0
VERTEX
  5
6217B
100
AcDbEntity
  8
0
100
AcDbVertex
100
AcDbPolygonMeshVertex
 10
0.3327
 20
-2.4055
 30
1.386
 70
    64
  0
VERTEX
  5
6217C
100
AcDbEntity
  8
0
100
AcDbVertex
100
AcDbPolygonMeshVertex
 10
0.3327
 20
-2.4055
 30
1.386
 70
    64
  0
VERTEX
  5
6217D
100
AcDbEntity
  8
0
100
AcDbVertex
100
AcDbPolygonMeshVertex
 10
1.4377
 20
-2.4055
 30
2.06
 70
    64
  0
VERTEX
  5
6217E
100
AcDbEntity
  8
0
100
AcDbVertex
100
AcDbPolygonMeshVertex
 10
1.4377
 20
-2.4055
 30
1.386
 70
    64
  0
VERTEX
  5
6217F
100
AcDbEntity
  8
0
100
AcDbVertex
100
AcDbPolygonMeshVertex
 10
1.4377
 20
-2.4055
 30
1.386
 70
    64
  0
VERTEX
  5
62180
100
AcDbEntity
  8
0
100
AcDbVertex
100
AcDbPolygonMeshVertex
 10
1.4377
 20
-1.9685
 30
2.06
 70
    64
  0
VERTEX
  5
62181
100
AcDbEntity
  8
0
100
AcDbVertex
100
AcDbPolygonMeshVertex
 10
1.4377
 20
-1.9685
 30
1.386
 70
    64
  0
VERTEX
  5
62182
100
AcDbEntity
  8
0
100
AcDbVertex
100
AcDbPolygonMeshVertex
 10
1.4377
 20
-2.4055
 30
1.386
 70
    64
  0
VERTEX
  5
62183
100
AcDbEntity
  8
0
100
AcDbVertex
100
AcDbPolygonMeshVertex
 10
0.3327
 20
-1.9685
 30
2.06
 70
    64
  0
VERTEX
  5
62184
100
AcDbEntity
  8
0
100
AcDbVertex
100
AcDbPolygonMeshVertex
 10
0.3327
 20
-1.9685
 30
1.386
 70
    64
  0
VERTEX
  5
62185
100
AcDbEntity
  8
0
100
AcDbVertex
100
AcDbPolygonMeshVertex
 10
0.3327
 20
-2.4055
 30
1.386
 70
    64
  0
VERTEX
  5
62186
100
AcDbEntity
  8
0
100
AcDbVertex
100
AcDbPolygonMeshVertex
 10
0.3327
 20
-1.9685
 30
2.06
 70
    64
  0
VERTEX
  5
62187
100
AcDbEntity
  8
0
100
AcDbVertex
100
AcDbPolygonMeshVertex
 10
0.3327
 20
-1.9685
 30
2.06
 70
    64
  0
VERTEX
  5
62188
100
AcDbEntity
  8
0
100
AcDbVertex
100
AcDbPolygonMeshVertex
 10
0.3327
 20
-2.4055
 30
2.06
 70
    64
  0
VERTEX
  5
62189
100
AcDbEntity
  8
0
100
AcDbVertex
100
AcDbPolygonMeshVertex
 10
1.4377
 20
-1.9685
 30
2.06
 70
    64
  0
VERTEX
  5
6218A
100
AcDbEntity
  8
0
100
AcDbVertex
100
AcDbPolygonMeshVertex
 10
1.4377
 20
-1.9685
 30
2.06
 70
    64
  0
VERTEX
  5
6218B
100
AcDbEntity
  8
0
100
AcDbVertex
100
AcDbPolygonMeshVertex
 10
1.4377
 20
-2.4055
 30
2.06
 70
    64
  0
SEQEND
  5
6218C
100
AcDbEntity
  8
0
  0
LINE
  5
6218D
100
AcDbEntity
  8
0
100
AcDbLine
 10
0.7452
 20
-1.9685
 30
2.06
 11
0.7452
 21
-2.2035
 31
2.06
  0
LINE
  5
6218E
100
AcDbEntity
  8
0
100
AcDbLine
 10
1.0252
 20
-1.9685
 30
2.06
 11
1.0252
 21
-2.2035
 31
2.06
  0
LINE
  5
6218F
100
AcDbEntity
  8
0
100
AcDbLine
 10
1.0252
 20
-2.2035
 30
2.06
 11
0.7452
 21
-2.2035
 31
2.06
  0
CIRCLE
  5
62190
100
AcDbEntity
  8
0
100
AcDbCircle
 10
0.5462
 20
-2.187
 30
2.06
 40
0.12
  0
CIRCLE
  5
62191
100
AcDbEntity
  8
0
100
AcDbCircle
 10
1.2242
 20
-2.187
 30
2.06
 40
0.12
  0
POLYLINE
  5
62192
100
AcDbEntity
  8
0
100
AcDb3dPolyline
 66
     1
 10
0.0
 20
0.0
 30
0.0
 70
     8
  0
VERTEX
  5
62193
100
AcDbEntity
  8
0
100
AcDbVertex
100
AcDb3dPolylineVertex
 10
1.7652
 20
-1.3525
 30
0.187
 70
    32
  0
VERTEX
  5
62194
100
AcDbEntity
  8
0
100
AcDbVertex
100
AcDb3dPolylineVertex
 10
1.7652
 20
-1.3525
 30
1.057
 70
    32
  0
VERTEX
  5
62195
100
AcDbEntity
  8
0
100
AcDbVertex
100
AcDb3dPolylineVertex
 10
1.7652
 20
-1.5075
 30
1.057
 70
    32
  0
VERTEX
  5
62196
100
AcDbEntity
  8
0
100
AcDbVertex
100
AcDb3dPolylineVertex
 10
1.7652
 20
-1.5075
 30
0.187
 70
    32
  0
SEQEND
  5
62197
100
AcDbEntity
  8
0
  0
POLYLINE
  5
62198
100
AcDbEntity
  8
0
100
AcDb3dPolyline
 66
     1
 10
0.0
 20
0.0
 30
0.0
 70
     8
  0
VERTEX
  5
62199
100
AcDbEntity
  8
0
100
AcDbVertex
100
AcDb3dPolylineVertex
 10
1.7652
 20
0.0265
 30
0.187
 70
    32
  0
VERTEX
  5
6219A
100
AcDbEntity
  8
0
100
AcDbVertex
100
AcDb3dPolylineVertex
 10
1.7652
 20
0.0265
 30
1.057
 70
    32
  0
VERTEX
  5
6219B
100
AcDbEntity
  8
0
100
AcDbVertex
100
AcDb3dPolylineVertex
 10
1.7652
 20
-0.1285
 30
1.057
 70
    32
  0
VERTEX
  5
6219C
100
AcDbEntity
  8
0
100
AcDbVertex
100
AcDb3dPolylineVertex
 10
1.7652
 20
-0.1285
 30
0.187
 70
    32
  0
SEQEND
  5
6219D
100
AcDbEntity
  8
0
  0
LINE
  5
6219E
100
AcDbEntity
  8
0
100
AcDbLine
 10
1.7652
 20
-0.6295
 30
0.517
 11
1.7652
 21
-0.8515
 31
0.517
  0
LINE
  5
6219F
100
AcDbEntity
  8
0
100
AcDbLine
 10
1.7652
 20
-0.8515
 30
0.517
 11
1.7652
 21
-0.8515
 31
0.187
  0
LINE
  5
621A0
100
AcDbEntity
  8
0
100
AcDbLine
 10
1.7652
 20
-0.6295
 30
0.517
 11
1.7652
 21
-0.6295
 31
0.187
  0
POLYLINE
  5
621A1
100
AcDbEntity
  8
0
100
AcDb3dPolyline
 66
     1
 10
0.0
 20
0.0
 30
0.0
 70
     8
  0
VERTEX
  5
621A2
100
AcDbEntity
  8
0
100
AcDbVertex
100
AcDb3dPolylineVertex
 10
0.0052
 20
0.0265
 30
0.187
 70
    32
  0
VERTEX
  5
621A3
100
AcDbEntity
  8
0
100
AcDbVertex
100
AcDb3dPolylineVertex
 10
0.0052
 20
0.0265
 30
1.057
 70
    32
  0
VERTEX
  5
621A4
100
AcDbEntity
  8
0
100
AcDbVertex
100
AcDb3dPolylineVertex
 10
0.0052
 20
-0.1285
 30
1.057
 70
    32
  0
VERTEX
  5
621A5
100
AcDbEntity
  8
0
100
AcDbVertex
100
AcDb3dPolylineVertex
 10
0.0052
 20
-0.1285
 30
0.187
 70
    32
  0
SEQEND
  5
621A6
100
AcDbEntity
  8
0
  0
POLYLINE
  5
621A7
100
AcDbEntity
  8
0
100
AcDb3dPolyline
 66
     1
 10
0.0
 20
0.0
 30
0.0
 70
     8
  0
VERTEX
  5
621A8
100
AcDbEntity
  8
0
100
AcDbVertex
100
AcDb3dPolylineVertex
 10
0.0052
 20
-1.3525
 30
0.187
 70
    32
  0
VERTEX
  5
621A9
100
AcDbEntity
  8
0
100
AcDbVertex
100
AcDb3dPolylineVertex
 10
0.0052
 20
-1.3525
 30
1.057
 70
    32
  0
VERTEX
  5
621AA
100
AcDbEntity
  8
0
100
AcDbVertex
100
AcDb3dPolylineVertex
 10
0.0052
 20
-1.5075
 30
1.057
 70
    32
  0
VERTEX
  5
621AB
100
AcDbEntity
  8
0
100
AcDbVertex
100
AcDb3dPolylineVertex
 10
0.0052
 20
-1.5075
 30
0.187
 70
    32
  0
SEQEND
  5
621AC
100
AcDbEntity
  8
0
  0
LINE
  5
621AD
100
AcDbEntity
  8
0
100
AcDbLine
 10
1.7652
 20
-1.5675
 30
0.187
 11
1.7652
 21
-1.5675
 31
0.0
  0
LINE
  5
621AE
100
AcDbEntity
  8
0
100
AcDbLine
 10
1.7652
 20
-1.5675
 30
0.0
 11
0.8852
 21
-1.5675
 31
0.0
  0
POLYLINE
  5
621AF
100
AcDbEntity
  8
0
100
AcDbPolygonMesh
 66
     1
 10
0.0
 20
0.0
 30
0.0
 70
    16
 71
     6
 72
     3
  0
VERTEX
  5
621B0
100
AcDbEntity
  8
0
100
AcDbVertex
100
AcDbPolygonMeshVertex
 10
0.8852
 20
-1.5675
 30
0.187
 70
    64
  0
VERTEX
  5
621B1
100
AcDbEntity
  8
0
100
AcDbVertex
100
AcDbPolygonMeshVertex
 10
0.8852
 20
-1.5675
 30
0.0
 70
    64
  0
VERTEX
  5
621B2
100
AcDbEntity
  8
0
100
AcDbVertex
100
AcDbPolygonMeshVertex
 10
0.8852
 20
-1.5675
 30
0.0
 70
    64
  0
VERTEX
  5
621B3
100
AcDbEntity
  8
0
100
AcDbVertex
100
AcDbPolygonMeshVertex
 10
1.7652
 20
-1.5675
 30
0.187
 70
    64
  0
VERTEX
  5
621B4
100
AcDbEntity
  8
0
100
AcDbVertex
100
AcDbPolygonMeshVertex
 10
1.7652
 20
-1.5675
 30
0.0
 70
    64
  0
VERTEX
  5
621B5
100
AcDbEntity
  8
0
100
AcDbVertex
100
AcDbPolygonMeshVertex
 10
1.7652
 20
-1.5675
 30
0.0
 70
    64
  0
VERTEX
  5
621B6
100
AcDbEntity
  8
0
100
AcDbVertex
100
AcDbPolygonMeshVertex
 10
1.7652
 20
-2.1655
 30
0.187
 70
    64
  0
VERTEX
  5
621B7
100
AcDbEntity
  8
0
100
AcDbVertex
100
AcDbPolygonMeshVertex
 10
1.7652
 20
-2.1655
 30
0.0
 70
    64
  0
VERTEX
  5
621B8
100
AcDbEntity
  8
0
100
AcDbVertex
100
AcDbPolygonMeshVertex
 10
1.7652
 20
-1.5675
 30
0.0
 70
    64
  0
VERTEX
  5
621B9
100
AcDbEntity
  8
0
100
AcDbVertex
100
AcDbPolygonMeshVertex
 10
0.8852
 20
-2.1655
 30
0.187
 70
    64
  0
VERTEX
  5
621BA
100
AcDbEntity
  8
0
100
AcDbVertex
100
AcDbPolygonMeshVertex
 10
0.8852
 20
-2.1655
 30
0.0
 70
    64
  0
VERTEX
  5
621BB
100
AcDbEntity
  8
0
100
AcDbVertex
100
AcDbPolygonMeshVertex
 10
0.8852
 20
-1.5675
 30
0.0
 70
    64
  0
VERTEX
  5
621BC
100
AcDbEntity
  8
0
100
AcDbVertex
100
AcDbPolygonMeshVertex
 10
0.8852
 20
-2.1655
 30
0.187
 70
    64
  0
VERTEX
  5
621BD
100
AcDbEntity
  8
0
100
AcDbVertex
100
AcDbPolygonMeshVertex
 10
0.8852
 20
-2.1655
 30
0.187
 70
    64
  0
VERTEX
  5
621BE
100
AcDbEntity
  8
0
100
AcDbVertex
100
AcDbPolygonMeshVertex
 10
0.8852
 20
-1.5675
 30
0.187
 70
    64
  0
VERTEX
  5
621BF
100
AcDbEntity
  8
0
100
AcDbVertex
100
AcDbPolygonMeshVertex
 10
1.7652
 20
-2.1655
 30
0.187
 70
    64
  0
VERTEX
  5
621C0
100
AcDbEntity
  8
0
100
AcDbVertex
100
AcDbPolygonMeshVertex
 10
1.7652
 20
-2.1655
 30
0.187
 70
    64
  0
VERTEX
  5
621C1
100
AcDbEntity
  8
0
100
AcDbVertex
100
AcDbPolygonMeshVertex
 10
1.7652
 20
-1.5675
 30
0.187
 70
    64
  0
SEQEND
  5
621C2
100
AcDbEntity
  8
0
  0
POLYLINE
  5
621C3
100
AcDbEntity
  8
0
100
AcDbPolygonMesh
 66
     1
 10
0.0
 20
0.0
 30
0.0
 70
    16
 71
     6
 72
     3
  0
VERTEX
  5
621C4
100
AcDbEntity
  8
0
100
AcDbVertex
100
AcDbPolygonMeshVertex
 10
0.0052
 20
0.7185
 30
0.187
 70
    64
  0
VERTEX
  5
621C5
100
AcDbEntity
  8
0
100
AcDbVertex
100
AcDbPolygonMeshVertex
 10
0.0052
 20
0.7185
 30
0.0
 70
    64
  0
VERTEX
  5
621C6
100
AcDbEntity
  8
0
100
AcDbVertex
100
AcDbPolygonMeshVertex
 10
0.0052
 20
0.7185
 30
0.0
 70
    64
  0
VERTEX
  5
621C7
100
AcDbEntity
  8
0
100
AcDbVertex
100
AcDbPolygonMeshVertex
 10
0.8852
 20
0.7185
 30
0.187
 70
    64
  0
VERTEX
  5
621C8
100
AcDbEntity
  8
0
100
AcDbVertex
100
AcDbPolygonMeshVertex
 10
0.8852
 20
0.7185
 30
0.0
 70
    64
  0
VERTEX
  5
621C9
100
AcDbEntity
  8
0
100
AcDbVertex
100
AcDbPolygonMeshVertex
 10
0.8852
 20
0.7185
 30
0.0
 70
    64
  0
VERTEX
  5
621CA
100
AcDbEntity
  8
0
100
AcDbVertex
100
AcDbPolygonMeshVertex
 10
0.8852
 20
0.1205
 30
0.187
 70
    64
  0
VERTEX
  5
621CB
100
AcDbEntity
  8
0
100
AcDbVertex
100
AcDbPolygonMeshVertex
 10
0.8852
 20
0.1205
 30
0.0
 70
    64
  0
VERTEX
  5
621CC
100
AcDbEntity
  8
0
100
AcDbVertex
100
AcDbPolygonMeshVertex
 10
0.8852
 20
0.7185
 30
0.0
 70
    64
  0
VERTEX
  5
621CD
100
AcDbEntity
  8
0
100
AcDbVertex
100
AcDbPolygonMeshVertex
 10
0.0052
 20
0.1205
 30
0.187
 70
    64
  0
VERTEX
  5
621CE
100
AcDbEntity
  8
0
100
AcDbVertex
100
AcDbPolygonMeshVertex
 10
0.0052
 20
0.1205
 30
0.0
 70
    64
  0
VERTEX
  5
621CF
100
AcDbEntity
  8
0
100
AcDbVertex
100
AcDbPolygonMeshVertex
 10
0.0052
 20
0.7185
 30
0.0
 70
    64
  0
VERTEX
  5
621D0
100
AcDbEntity
  8
0
100
AcDbVertex
100
AcDbPolygonMeshVertex
 10
0.0052
 20
0.1205
 30
0.187
 70
    64
  0
VERTEX
  5
621D1
100
AcDbEntity
  8
0
100
AcDbVertex
100
AcDbPolygonMeshVertex
 10
0.0052
 20
0.1205
 30
0.187
 70
    64
  0
VERTEX
  5
621D2
100
AcDbEntity
  8
0
100
AcDbVertex
100
AcDbPolygonMeshVertex
 10
0.0052
 20
0.7185
 30
0.187
 70
    64
  0
VERTEX
  5
621D3
100
AcDbEntity
  8
0
100
AcDbVertex
100
AcDbPolygonMeshVertex
 10
0.8852
 20
0.1205
 30
0.187
 70
    64
  0
VERTEX
  5
621D4
100
AcDbEntity
  8
0
100
AcDbVertex
100
AcDbPolygonMeshVertex
 10
0.8852
 20
0.1205
 30
0.187
 70
    64
  0
VERTEX
  5
621D5
100
AcDbEntity
  8
0
100
AcDbVertex
100
AcDbPolygonMeshVertex
 10
0.8852
 20
0.7185
 30
0.187
 70
    64
  0
SEQEND
  5
621D6
100
AcDbEntity
  8
0
  0
LINE
  5
621D7
100
AcDbEntity
  8
0
100
AcDbLine
 10
1.7652
 20
-0.8065
 30
1.8785
 11
1.7652
 21
-0.6405
 31
1.8785
  0
POLYLINE
  5
621D8
100
AcDbEntity
  8
0
100
AcDb3dPolyline
 66
     1
 10
0.0
 20
0.0
 30
0.0
 70
     8
  0
VERTEX
  5
621D9
100
AcDbEntity
  8
0
100
AcDbVertex
100
AcDb3dPolylineVertex
 10
-0.00001
 20
-0.6405
 30
1.592
 70
    32
  0
VERTEX
  5
621DA
100
AcDbEntity
  8
0
100
AcDbVertex
100
AcDb3dPolylineVertex
 10
-0.00001
 20
-0.6405
 30
2.165
 70
    32
  0
VERTEX
  5
621DB
100
AcDbEntity
  8
0
100
AcDbVertex
100
AcDb3dPolylineVertex
 10
-0.00001
 20
-0.8065
 30
2.165
 70
    32
  0
VERTEX
  5
621DC
100
AcDbEntity
  8
0
100
AcDbVertex
100
AcDb3dPolylineVertex
 10
-0.00001
 20
-0.8065
 30
1.592
 70
    32
  0
VERTEX
  5
621DD
100
AcDbEntity
  8
0
100
AcDbVertex
100
AcDb3dPolylineVertex
 10
-0.00001
 20
-0.6405
 30
1.592
 70
    32
  0
SEQEND
  5
621DE
100
AcDbEntity
  8
0
  0
LINE
  5
621DF
100
AcDbEntity
  8
0
100
AcDbLine
 10
-0.00001
 20
-0.8065
 30
1.8785
 11
-0.00001
 21
-0.6405
 31
1.8785
  0
LINE
  5
621E0
100
AcDbEntity
  8
0
100
AcDbLine
 10
-0.00001
 20
-0.8065
 30
2.0685
 11
-0.00001
 21
-0.6405
 31
2.0685
  0
CIRCLE
  5
621E1
100
AcDbEntity
  8
0
100
AcDbCircle
 10
1.5712
 20
0.4255
 30
0.316
 40
0.086
  0
POLYLINE
  5
621E2
100
AcDbEntity
  8
0
100
AcDb3dPolyline
 66
     1
 10
0.0
 20
0.0
 30
0.0
 70
     8
  0
VERTEX
  5
621E3
100
AcDbEntity
  8
0
100
AcDbVertex
100
AcDb3dPolylineVertex
 10
0.550533
 20
0.5215
 30
0.187
 70
    32
  0
VERTEX
  5
621E4
100
AcDbEntity
  8
0
100
AcDbVertex
100
AcDb3dPolylineVertex
 10
0.550533
 20
0.6565
 30
0.187
 70
    32
  0
VERTEX
  5
621E5
100
AcDbEntity
  8
0
100
AcDbVertex
100
AcDb3dPolylineVertex
 10
0.339867
 20
0.6565
 30
0.187
 70
    32
  0
VERTEX
  5
621E6
100
AcDbEntity
  8
0
100
AcDbVertex
100
AcDb3dPolylineVertex
 10
0.339867
 20
0.5215
 30
0.187
 70
    32
  0
SEQEND
  5
621E7
100
AcDbEntity
  8
0
  0
POLYLINE
  5
621E8
100
AcDbEntity
  8
0
100
AcDb3dPolyline
 66
     1
 10
0.0
 20
0.0
 30
0.0
 70
     8
  0
VERTEX
  5
621E9
100
AcDbEntity
  8
0
100
AcDbVertex
100
AcDb3dPolylineVertex
 10
0.277867
 20
0.5215
 30
0.187
 70
    32
  0
VERTEX
  5
621EA
100
AcDbEntity
  8
0
100
AcDbVertex
100
AcDb3dPolylineVertex
 10
0.277867
 20
0.6565
 30
0.187
 70
    32
  0
VERTEX
  5
621EB
100
AcDbEntity
  8
0
100
AcDbVertex
100
AcDb3dPolylineVertex
 10
0.0672
 20
0.6565
 30
0.187
 70
    32
  0
VERTEX
  5
621EC
100
AcDbEntity
  8
0
100
AcDbVertex
100
AcDb3dPolylineVertex
 10
0.0672
 20
0.5215
 30
0.187
 70
    32
  0
SEQEND
  5
621ED
100
AcDbEntity
  8
0
  0
POLYLINE
  5
621EE
100
AcDbEntity
  8
0
100
AcDb3dPolyline
 66
     1
 10
0.0
 20
0.0
 30
0.0
 70
     8
  0
VERTEX
  5
621EF
100
AcDbEntity
  8
0
100
AcDbVertex
100
AcDb3dPolylineVertex
 10
0.8232
 20
0.5215
 30
0.187
 70
    32
  0
VERTEX
  5
621F0
100
AcDbEntity
  8
0
100
AcDbVertex
100
AcDb3dPolylineVertex
 10
0.8232
 20
0.6565
 30
0.187
 70
    32
  0
VERTEX
  5
621F1
100
AcDbEntity
  8
0
100
AcDbVertex
100
AcDb3dPolylineVertex
 10
0.612533
 20
0.6565
 30
0.187
 70
    32
  0
VERTEX
  5
621F2
100
AcDbEntity
  8
0
100
AcDbVertex
100
AcDb3dPolylineVertex
 10
0.612533
 20
0.5215
 30
0.187
 70
    32
  0
SEQEND
  5
621F3
100
AcDbEntity
  8
0
  0
POLYLINE
  5
621F4
100
AcDbEntity
  8
0
100
AcDb3dPolyline
 66
     1
 10
0.0
 20
0.0
 30
0.0
 70
     8
  0
VERTEX
  5
621F5
100
AcDbEntity
  8
0
100
AcDbVertex
100
AcDb3dPolylineVertex
 10
1.492533
 20
-1.9685
 30
0.187
 70
    32
  0
VERTEX
  5
621F6
100
AcDbEntity
  8
0
100
AcDbVertex
100
AcDb3dPolylineVertex
 10
1.492533
 20
-2.1035
 30
0.187
 70
    32
  0
VERTEX
  5
621F7
100
AcDbEntity
  8
0
100
AcDbVertex
100
AcDb3dPolylineVertex
 10
1.7032
 20
-2.1035
 30
0.187
 70
    32
  0
VERTEX
  5
621F8
100
AcDbEntity
  8
0
100
AcDbVertex
100
AcDb3dPolylineVertex
 10
1.7032
 20
-1.9685
 30
0.187
 70
    32
  0
SEQEND
  5
621F9
100
AcDbEntity
  8
0
  0
POLYLINE
  5
621FA
100
AcDbEntity
  8
0
100
AcDb3dPolyline
 66
     1
 10
0.0
 20
0.0
 30
0.0
 70
     8
  0
VERTEX
  5
621FB
100
AcDbEntity
  8
0
100
AcDbVertex
100
AcDb3dPolylineVertex
 10
1.219867
 20
-1.9685
 30
0.187
 70
    32
  0
VERTEX
  5
621FC
100
AcDbEntity
  8
0
100
AcDbVertex
100
AcDb3dPolylineVertex
 10
1.219867
 20
-2.1035
 30
0.187
 70
    32
  0
VERTEX
  5
621FD
100
AcDbEntity
  8
0
100
AcDbVertex
100
AcDb3dPolylineVertex
 10
1.430533
 20
-2.1035
 30
0.187
 70
    32
  0
VERTEX
  5
621FE
100
AcDbEntity
  8
0
100
AcDbVertex
100
AcDb3dPolylineVertex
 10
1.430533
 20
-1.9685
 30
0.187
 70
    32
  0
SEQEND
  5
621FF
100
AcDbEntity
  8
0
  0
POLYLINE
  5
62200
100
AcDbEntity
  8
0
100
AcDb3dPolyline
 66
     1
 10
0.0
 20
0.0
 30
0.0
 70
     8
  0
VERTEX
  5
62201
100
AcDbEntity
  8
0
100
AcDbVertex
100
AcDb3dPolylineVertex
 10
0.9472
 20
-1.9685
 30
0.187
 70
    32
  0
VERTEX
  5
62202
100
AcDbEntity
  8
0
100
AcDbVertex
100
AcDb3dPolylineVertex
 10
0.9472
 20
-2.1035
 30
0.187
 70
    32
  0
VERTEX
  5
62203
100
AcDbEntity
  8
0
100
AcDbVertex
100
AcDb3dPolylineVertex
 10
1.157867
 20
-2.1035
 30
0.187
 70
    32
  0
VERTEX
  5
62204
100
AcDbEntity
  8
0
100
AcDbVertex
100
AcDb3dPolylineVertex
 10
1.157867
 20
-1.9685
 30
0.187
 70
    32
  0
SEQEND
  5
62205
100
AcDbEntity
  8
0
  0
CIRCLE
  5
62206
100
AcDbEntity
  8
0
100
AcDbCircle
 10
0.1912
 20
-1.9345
 30
0.316
 40
0.086
  0
INSERT
  5
62207
100
AcDbEntity
  8
0
 62
     1
100
AcDbBlockReference
  2
AVE_RENDER
 10
-6.62751
 20
-2.735105
 30
0.0
1001
AVE_RENDER
1002
{
1070
     2
1000
Pref
1070
    30
1070
    20
1070
     0
1070
     0
1000

1070
    10
1070
     0
1070
    30
1040
1.0
1070
     1
1040
0.3
1040
0.4
1040
0.76
1040
1.538462
1010
-1.0
1020
-1.0
1030
-1.0
1040
0.3
1070
    49
1002
}
  0
INSERT
  5
62208
100
AcDbEntity
  8
0
 62
     3
100
AcDbBlockReference
  2
AVE_RENDER
 10
-6.62751
 20
-2.735105
 30
0.0
1001
AVE_RENDER
1002
{
1070
     0
1000
Full Opt
1070
     0
1070
     1
1070
     1
1070
     1
1070
     0
1070
     0
1070
     0
1070
     1
1070
     1
1040
0.0001
1040
0.0001
1002
}
  0
INSERT
  5
62209
100
AcDbEntity
  8
0
 62
     4
100
AcDbBlockReference
  2
AVE_RENDER
 10
-6.62751
 20
-2.735105
 30
0.0
1001
AVE_RENDER
1002
{
1070
     0
1000
Quick Opt
1070
     0
1070
     1
1070
     1
1070
     1
1070
     0
1070
     0
1070
     1
1002
}
  0
CIRCLE
  5
6220A
100
AcDbEntity
  8
0
100
AcDbCircle
 10
0.1912
 20
-1.9345
 30
0.0
 40
0.086
  0
CIRCLE
  5
6220B
100
AcDbEntity
  8
0
100
AcDbCircle
 10
1.5712
 20
0.4255
 30
0.0
 40
0.086
  0
POLYLINE
  5
6220C
100
AcDbEntity
  8
0
100
AcDb3dPolyline
 66
     1
 10
0.0
 20
0.0
 30
0.0
 70
     8
  0
VERTEX
  5
6220D
100
AcDbEntity
  8
0
100
AcDbVertex
100
AcDb3dPolylineVertex
 10
0.9472
 20
-1.9685
 30
0.0
 70
    32
  0
VERTEX
  5
6220E
100
AcDbEntity
  8
0
100
AcDbVertex
100
AcDb3dPolylineVertex
 10
0.9472
 20
-2.1035
 30
0.0
 70
    32
  0
VERTEX
  5
6220F
100
AcDbEntity
  8
0
100
AcDbVertex
100
AcDb3dPolylineVertex
 10
1.157867
 20
-2.1035
 30
0.0
 70
    32
  0
VERTEX
  5
62210
100
AcDbEntity
  8
0
100
AcDbVertex
100
AcDb3dPolylineVertex
 10
1.157867
 20
-1.9685
 30
0.0
 70
    32
  0
SEQEND
  5
62211
100
AcDbEntity
  8
0
  0
POLYLINE
  5
62212
100
AcDbEntity
  8
0
100
AcDb3dPolyline
 66
     1
 10
0.0
 20
0.0
 30
0.0
 70
     8
  0
VERTEX
  5
62213
100
AcDbEntity
  8
0
100
AcDbVertex
100
AcDb3dPolylineVertex
 10
1.219867
 20
-1.9685
 30
0.0
 70
    32
  0
VERTEX
  5
62214
100
AcDbEntity
  8
0
100
AcDbVertex
100
AcDb3dPolylineVertex
 10
1.219867
 20
-2.1035
 30
0.0
 70
    32
  0
VERTEX
  5
62215
100
AcDbEntity
  8
0
100
AcDbVertex
100
AcDb3dPolylineVertex
 10
1.430533
 20
-2.1035
 30
0.0
 70
    32
  0
VERTEX
  5
62216
100
AcDbEntity
  8
0
100
AcDbVertex
100
AcDb3dPolylineVertex
 10
1.430533
 20
-1.9685
 30
0.0
 70
    32
  0
SEQEND
  5
62217
100
AcDbEntity
  8
0
  0
POLYLINE
  5
62218
100
AcDbEntity
  8
0
100
AcDb3dPolyline
 66
     1
 10
0.0
 20
0.0
 30
0.0
 70
     8
  0
VERTEX
  5
62219
100
AcDbEntity
  8
0
100
AcDbVertex
100
AcDb3dPolylineVertex
 10
1.492533
 20
-1.9685
 30
0.0
 70
    32
  0
VERTEX
  5
6221A
100
AcDbEntity
  8
0
100
AcDbVertex
100
AcDb3dPolylineVertex
 10
1.492533
 20
-2.1035
 30
0.0
 70
    32
  0
VERTEX
  5
6221B
100
AcDbEntity
  8
0
100
AcDbVertex
100
AcDb3dPolylineVertex
 10
1.7032
 20
-2.1035
 30
0.0
 70
    32
  0
VERTEX
  5
6221C
100
AcDbEntity
  8
0
100
AcDbVertex
100
AcDb3dPolylineVertex
 10
1.7032
 20
-1.9685
 30
0.0
 70
    32
  0
SEQEND
  5
6221D
100
AcDbEntity
  8
0
  0
POLYLINE
  5
6221E
100
AcDbEntity
  8
0
100
AcDb3dPolyline
 66
     1
 10
0.0
 20
0.0
 30
0.0
 70
     8
  0
VERTEX
  5
6221F
100
AcDbEntity
  8
0
100
AcDbVertex
100
AcDb3dPolylineVertex
 10
0.8232
 20
0.5215
 30
0.0
 70
    32
  0
VERTEX
  5
62220
100
AcDbEntity
  8
0
100
AcDbVertex
100
AcDb3dPolylineVertex
 10
0.8232
 20
0.6565
 30
0.0
 70
    32
  0
VERTEX
  5
62221
100
AcDbEntity
  8
0
100
AcDbVertex
100
AcDb3dPolylineVertex
 10
0.612533
 20
0.6565
 30
0.0
 70
    32
  0
VERTEX
  5
62222
100
AcDbEntity
  8
0
100
AcDbVertex
100
AcDb3dPolylineVertex
 10
0.612533
 20
0.5215
 30
0.0
 70
    32
  0
SEQEND
  5
62223
100
AcDbEntity
  8
0
  0
POLYLINE
  5
62224
100
AcDbEntity
  8
0
100
AcDb3dPolyline
 66
     1
 10
0.0
 20
0.0
 30
0.0
 70
     8
  0
VERTEX
  5
62225
100
AcDbEntity
  8
0
100
AcDbVertex
100
AcDb3dPolylineVertex
 10
0.550533
 20
0.5215
 30
0.0
 70
    32
  0
VERTEX
  5
62226
100
AcDbEntity
  8
0
100
AcDbVertex
100
AcDb3dPolylineVertex
 10
0.550533
 20
0.6565
 30
0.0
 70
    32
  0
VERTEX
  5
62227
100
AcDbEntity
  8
0
100
AcDbVertex
100
AcDb3dPolylineVertex
 10
0.339867
 20
0.6565
 30
0.0
 70
    32
  0
VERTEX
  5
62228
100
AcDbEntity
  8
0
100
AcDbVertex
100
AcDb3dPolylineVertex
 10
0.339867
 20
0.5215
 30
0.0
 70
    32
  0
SEQEND
  5
62229
100
AcDbEntity
  8
0
  0
POLYLINE
  5
6222A
100
AcDbEntity
  8
0
100
AcDb3dPolyline
 66
     1
 10
0.0
 20
0.0
 30
0.0
 70
     8
  0
VERTEX
  5
6222B
100
AcDbEntity
  8
0
100
AcDbVertex
100
AcDb3dPolylineVertex
 10
0.277867
 20
0.5215
 30
0.0
 70
    32
  0
VERTEX
  5
6222C
100
AcDbEntity
  8
0
100
AcDbVertex
100
AcDb3dPolylineVertex
 10
0.277867
 20
0.6565
 30
0.0
 70
    32
  0
VERTEX
  5
6222D
100
AcDbEntity
  8
0
100
AcDbVertex
100
AcDb3dPolylineVertex
 10
0.0672
 20
0.6565
 30
0.0
 70
    32
  0
VERTEX
  5
6222E
100
AcDbEntity
  8
0
100
AcDbVertex
100
AcDb3dPolylineVertex
 10
0.0672
 20
0.5215
 30
0.0
 70
    32
  0
SEQEND
  5
6222F
100
AcDbEntity
  8
0
  0
LINE
  5
62230
100
AcDbEntity
  8
0
100
AcDbLine
 10
1.7032
 20
-1.9685
 30
0.0
 11
1.492533
 21
-1.9685
 31
0.0
  0
LINE
  5
62231
100
AcDbEntity
  8
0
100
AcDbLine
 10
1.430533
 20
-1.9685
 30
0.0
 11
1.219867
 21
-1.9685
 31
0.0
  0
LINE
  5
62232
100
AcDbEntity
  8
0
100
AcDbLine
 10
1.157867
 20
-1.9685
 30
0.0
 11
0.9472
 21
-1.9685
 31
0.0
  0
LINE
  5
62233
100
AcDbEntity
  8
0
100
AcDbLine
 10
0.8232
 20
0.5215
 30
0.0
 11
0.612533
 21
0.5215
 31
0.0
  0
LINE
  5
62234
100
AcDbEntity
  8
0
100
AcDbLine
 10
0.550533
 20
0.5215
 30
0.0
 11
0.339867
 21
0.5215
 31
0.0
  0
LINE
  5
62235
100
AcDbEntity
  8
0
100
AcDbLine
 10
0.277867
 20
0.5215
 30
0.0
 11
0.0672
 21
0.5215
 31
0.0
  0
POLYLINE
  5
62236
100
AcDbEntity
  8
0
100
AcDbPolygonMesh
 66
     1
 10
0.0
 20
0.0
 30
0.0
 70
    16
 71
     6
 72
     3
  0
VERTEX
  5
62237
100
AcDbEntity
  8
0
100
AcDbVertex
100
AcDbPolygonMeshVertex
 10
0.9057
 20
-1.9855
 30
2.929
 70
    64
  0
VERTEX
  5
62238
100
AcDbEntity
  8
0
100
AcDbVertex
100
AcDbPolygonMeshVertex
 10
0.9057
 20
-1.9855
 30
2.319
 70
    64
  0
VERTEX
  5
62239
100
AcDbEntity
  8
0
100
AcDbVertex
100
AcDbPolygonMeshVertex
 10
0.9057
 20
-1.9855
 30
2.319
 70
    64
  0
VERTEX
  5
6223A
100
AcDbEntity
  8
0
100
AcDbVertex
100
AcDbPolygonMeshVertex
 10
0.8597
 20
-1.9855
 30
2.929
 70
    64
  0
VERTEX
  5
6223B
100
AcDbEntity
  8
0
100
AcDbVertex
100
AcDbPolygonMeshVertex
 10
0.8597
 20
-1.9855
 30
2.319
 70
    64
  0
VERTEX
  5
6223C
100
AcDbEntity
  8
0
100
AcDbVertex
100
AcDbPolygonMeshVertex
 10
0.8597
 20
-1.9855
 30
2.319
 70
    64
  0
VERTEX
  5
6223D
100
AcDbEntity
  8
0
100
AcDbVertex
100
AcDbPolygonMeshVertex
 10
0.8597
 20
-1.8455
 30
2.929
 70
    64
  0
VERTEX
  5
6223E
100
AcDbEntity
  8
0
100
AcDbVertex
100
AcDbPolygonMeshVertex
 10
0.8597
 20
-1.8455
 30
2.319
 70
    64
  0
VERTEX
  5
6223F
100
AcDbEntity
  8
0
100
AcDbVertex
100
AcDbPolygonMeshVertex
 10
0.8597
 20
-1.9855
 30
2.319
 70
    64
  0
VERTEX
  5
62240
100
AcDbEntity
  8
0
100
AcDbVertex
100
AcDbPolygonMeshVertex
 10
0.9057
 20
-1.8455
 30
2.929
 70
    64
  0
VERTEX
  5
62241
100
AcDbEntity
  8
0
100
AcDbVertex
100
AcDbPolygonMeshVertex
 10
0.9057
 20
-1.8455
 30
2.319
 70
    64
  0
VERTEX
  5
62242
100
AcDbEntity
  8
0
100
AcDbVertex
100
AcDbPolygonMeshVertex
 10
0.9057
 20
-1.9855
 30
2.319
 70
    64
  0
VERTEX
  5
62243
100
AcDbEntity
  8
0
100
AcDbVertex
100
AcDbPolygonMeshVertex
 10
0.9057
 20
-1.8455
 30
2.929
 70
    64
  0
VERTEX
  5
62244
100
AcDbEntity
  8
0
100
AcDbVertex
100
AcDbPolygonMeshVertex
 10
0.9057
 20
-1.8455
 30
2.929
 70
    64
  0
VERTEX
  5
62245
100
AcDbEntity
  8
0
100
AcDbVertex
100
AcDbPolygonMeshVertex
 10
0.9057
 20
-1.9855
 30
2.929
 70
    64
  0
VERTEX
  5
62246
100
AcDbEntity
  8
0
100
AcDbVertex
100
AcDbPolygonMeshVertex
 10
0.8597
 20
-1.8455
 30
2.929
 70
    64
  0
VERTEX
  5
62247
100
AcDbEntity
  8
0
100
AcDbVertex
100
AcDbPolygonMeshVertex
 10
0.8597
 20
-1.8455
 30
2.929
 70
    64
  0
VERTEX
  5
62248
100
AcDbEntity
  8
0
100
AcDbVertex
100
AcDbPolygonMeshVertex
 10
0.8597
 20
-1.9855
 30
2.929
 70
    64
  0
SEQEND
  5
62249
100
AcDbEntity
  8
0
  0
POLYLINE
  5
6224A
100
AcDbEntity
  8
0
100
AcDbPolygonMesh
 66
     1
 10
0.0
 20
0.0
 30
0.0
 70
    16
 71
     6
 72
     3
  0
VERTEX
  5
6224B
100
AcDbEntity
  8
0
100
AcDbVertex
100
AcDbPolygonMeshVertex
 10
1.33545
 20
-1.9855
 30
2.929
 70
    64
  0
VERTEX
  5
6224C
100
AcDbEntity
  8
0
100
AcDbVertex
100
AcDbPolygonMeshVertex
 10
1.33545
 20
-1.9855
 30
2.319
 70
    64
  0
VERTEX
  5
6224D
100
AcDbEntity
  8
0
100
AcDbVertex
100
AcDbPolygonMeshVertex
 10
1.33545
 20
-1.9855
 30
2.319
 70
    64
  0
VERTEX
  5
6224E
100
AcDbEntity
  8
0
100
AcDbVertex
100
AcDbPolygonMeshVertex
 10
1.28945
 20
-1.9855
 30
2.929
 70
    64
  0
VERTEX
  5
6224F
100
AcDbEntity
  8
0
100
AcDbVertex
100
AcDbPolygonMeshVertex
 10
1.28945
 20
-1.9855
 30
2.319
 70
    64
  0
VERTEX
  5
62250
100
AcDbEntity
  8
0
100
AcDbVertex
100
AcDbPolygonMeshVertex
 10
1.28945
 20
-1.9855
 30
2.319
 70
    64
  0
VERTEX
  5
62251
100
AcDbEntity
  8
0
100
AcDbVertex
100
AcDbPolygonMeshVertex
 10
1.28945
 20
-1.8455
 30
2.929
 70
    64
  0
VERTEX
  5
62252
100
AcDbEntity
  8
0
100
AcDbVertex
100
AcDbPolygonMeshVertex
 10
1.28945
 20
-1.8455
 30
2.319
 70
    64
  0
VERTEX
  5
62253
100
AcDbEntity
  8
0
100
AcDbVertex
100
AcDbPolygonMeshVertex
 10
1.28945
 20
-1.9855
 30
2.319
 70
    64
  0
VERTEX
  5
62254
100
AcDbEntity
  8
0
100
AcDbVertex
100
AcDbPolygonMeshVertex
 10
1.33545
 20
-1.8455
 30
2.929
 70
    64
  0
VERTEX
  5
62255
100
AcDbEntity
  8
0
100
AcDbVertex
100
AcDbPolygonMeshVertex
 10
1.33545
 20
-1.8455
 30
2.319
 70
    64
  0
VERTEX
  5
62256
100
AcDbEntity
  8
0
100
AcDbVertex
100
AcDbPolygonMeshVertex
 10
1.33545
 20
-1.9855
 30
2.319
 70
    64
  0
VERTEX
  5
62257
100
AcDbEntity
  8
0
100
AcDbVertex
100
AcDbPolygonMeshVertex
 10
1.33545
 20
-1.8455
 30
2.929
 70
    64
  0
VERTEX
  5
62258
100
AcDbEntity
  8
0
100
AcDbVertex
100
AcDbPolygonMeshVertex
 10
1.33545
 20
-1.8455
 30
2.929
 70
    64
  0
VERTEX
  5
62259
100
AcDbEntity
  8
0
100
AcDbVertex
100
AcDbPolygonMeshVertex
 10
1.33545
 20
-1.9855
 30
2.929
 70
    64
  0
VERTEX
  5
6225A
100
AcDbEntity
  8
0
100
AcDbVertex
100
AcDbPolygonMeshVertex
 10
1.28945
 20
-1.8455
 30
2.929
 70
    64
  0
VERTEX
  5
6225B
100
AcDbEntity
  8
0
100
AcDbVertex
100
AcDbPolygonMeshVertex
 10
1.28945
 20
-1.8455
 30
2.929
 70
    64
  0
VERTEX
  5
6225C
100
AcDbEntity
  8
0
100
AcDbVertex
100
AcDbPolygonMeshVertex
 10
1.28945
 20
-1.9855
 30
2.929
 70
    64
  0
SEQEND
  5
6225D
100
AcDbEntity
  8
0
  0
POLYLINE
  5
6225E
100
AcDbEntity
  8
0
100
AcDbPolygonMesh
 66
     1
 10
0.0
 20
0.0
 30
0.0
 70
    16
 71
     6
 72
     3
  0
VERTEX
  5
6225F
100
AcDbEntity
  8
0
100
AcDbVertex
100
AcDbPolygonMeshVertex
 10
1.7192
 20
-2.0575
 30
2.319
 70
    64
  0
VERTEX
  5
62260
100
AcDbEntity
  8
0
100
AcDbVertex
100
AcDbPolygonMeshVertex
 10
1.7192
 20
-2.0575
 30
2.06
 70
    64
  0
VERTEX
  5
62261
100
AcDbEntity
  8
0
100
AcDbVertex
100
AcDbPolygonMeshVertex
 10
1.7192
 20
-2.0575
 30
2.06
 70
    64
  0
VERTEX
  5
62262
100
AcDbEntity
  8
0
100
AcDbVertex
100
AcDbPolygonMeshVertex
 10
0.0462
 20
-2.0575
 30
2.319
 70
    64
  0
VERTEX
  5
62263
100
AcDbEntity
  8
0
100
AcDbVertex
100
AcDbPolygonMeshVertex
 10
0.0462
 20
-2.0575
 30
2.06
 70
    64
  0
VERTEX
  5
62264
100
AcDbEntity
  8
0
100
AcDbVertex
100
AcDbPolygonMeshVertex
 10
0.0462
 20
-2.0575
 30
2.06
 70
    64
  0
VERTEX
  5
62265
100
AcDbEntity
  8
0
100
AcDbVertex
100
AcDbPolygonMeshVertex
 10
0.0462
 20
-1.8455
 30
2.319
 70
    64
  0
VERTEX
  5
62266
100
AcDbEntity
  8
0
100
AcDbVertex
100
AcDbPolygonMeshVertex
 10
0.0462
 20
-1.8455
 30
2.06
 70
    64
  0
VERTEX
  5
62267
100
AcDbEntity
  8
0
100
AcDbVertex
100
AcDbPolygonMeshVertex
 10
0.0462
 20
-2.0575
 30
2.06
 70
    64
  0
VERTEX
  5
62268
100
AcDbEntity
  8
0
100
AcDbVertex
100
AcDbPolygonMeshVertex
 10
1.7192
 20
-1.8455
 30
2.319
 70
    64
  0
VERTEX
  5
62269
100
AcDbEntity
  8
0
100
AcDbVertex
100
AcDbPolygonMeshVertex
 10
1.7192
 20
-1.8455
 30
2.06
 70
    64
  0
VERTEX
  5
6226A
100
AcDbEntity
  8
0
100
AcDbVertex
100
AcDbPolygonMeshVertex
 10
1.7192
 20
-2.0575
 30
2.06
 70
    64
  0
VERTEX
  5
6226B
100
AcDbEntity
  8
0
100
AcDbVertex
100
AcDbPolygonMeshVertex
 10
1.7192
 20
-1.8455
 30
2.319
 70
    64
  0
VERTEX
  5
6226C
100
AcDbEntity
  8
0
100
AcDbVertex
100
AcDbPolygonMeshVertex
 10
1.7192
 20
-1.8455
 30
2.319
 70
    64
  0
VERTEX
  5
6226D
100
AcDbEntity
  8
0
100
AcDbVertex
100
AcDbPolygonMeshVertex
 10
1.7192
 20
-2.0575
 30
2.319
 70
    64
  0
VERTEX
  5
6226E
100
AcDbEntity
  8
0
100
AcDbVertex
100
AcDbPolygonMeshVertex
 10
0.0462
 20
-1.8455
 30
2.319
 70
    64
  0
VERTEX
  5
6226F
100
AcDbEntity
  8
0
100
AcDbVertex
100
AcDbPolygonMeshVertex
 10
0.0462
 20
-1.8455
 30
2.319
 70
    64
  0
VERTEX
  5
62270
100
AcDbEntity
  8
0
100
AcDbVertex
100
AcDbPolygonMeshVertex
 10
0.0462
 20
-2.0575
 30
2.319
 70
    64
  0
SEQEND
  5
62271
100
AcDbEntity
  8
0
  0
POLYLINE
  5
62272
100
AcDbEntity
  8
0
100
AcDbPolygonMesh
 66
     1
 10
0.0
 20
0.0
 30
0.0
 70
    16
 71
     6
 72
     3
  0
VERTEX
  5
62273
100
AcDbEntity
  8
0
100
AcDbVertex
100
AcDbPolygonMeshVertex
 10
1.7652
 20
-1.9685
 30
2.06
 70
    64
  0
VERTEX
  5
62274
100
AcDbEntity
  8
0
100
AcDbVertex
100
AcDbPolygonMeshVertex
 10
1.7652
 20
-1.9685
 30
1.318
 70
    64
  0
VERTEX
  5
62275
100
AcDbEntity
  8
0
100
AcDbVertex
100
AcDbPolygonMeshVertex
 10
1.7652
 20
-1.9685
 30
1.318
 70
    64
  0
VERTEX
  5
62276
100
AcDbEntity
  8
0
100
AcDbVertex
100
AcDbPolygonMeshVertex
 10
0.0002
 20
-1.9685
 30
2.06
 70
    64
  0
VERTEX
  5
62277
100
AcDbEntity
  8
0
100
AcDbVertex
100
AcDbPolygonMeshVertex
 10
0.0002
 20
-1.9685
 30
1.318
 70
    64
  0
VERTEX
  5
62278
100
AcDbEntity
  8
0
100
AcDbVertex
100
AcDbPolygonMeshVertex
 10
0.0002
 20
-1.9685
 30
1.318
 70
    64
  0
VERTEX
  5
62279
100
AcDbEntity
  8
0
100
AcDbVertex
100
AcDbPolygonMeshVertex
 10
0.0002
 20
0.5215
 30
2.06
 70
    64
  0
VERTEX
  5
6227A
100
AcDbEntity
  8
0
100
AcDbVertex
100
AcDbPolygonMeshVertex
 10
0.0002
 20
0.5215
 30
1.318
 70
    64
  0
VERTEX
  5
6227B
100
AcDbEntity
  8
0
100
AcDbVertex
100
AcDbPolygonMeshVertex
 10
0.0002
 20
-1.9685
 30
1.318
 70
    64
  0
VERTEX
  5
6227C
100
AcDbEntity
  8
0
100
AcDbVertex
100
AcDbPolygonMeshVertex
 10
1.7652
 20
0.5215
 30
2.06
 70
    64
  0
VERTEX
  5
6227D
100
AcDbEntity
  8
0
100
AcDbVertex
100
AcDbPolygonMeshVertex
 10
1.7652
 20
0.5215
 30
1.318
 70
    64
  0
VERTEX
  5
6227E
100
AcDbEntity
  8
0
100
AcDbVertex
100
AcDbPolygonMeshVertex
 10
1.7652
 20
-1.9685
 30
1.318
 70
    64
  0
VERTEX
  5
6227F
100
AcDbEntity
  8
0
100
AcDbVertex
100
AcDbPolygonMeshVertex
 10
1.7652
 20
0.5215
 30
2.06
 70
    64
  0
VERTEX
  5
62280
100
AcDbEntity
  8
0
100
AcDbVertex
100
AcDbPolygonMeshVertex
 10
1.7652
 20
0.5215
 30
2.06
 70
    64
  0
VERTEX
  5
62281
100
AcDbEntity
  8
0
100
AcDbVertex
100
AcDbPolygonMeshVertex
 10
1.7652
 20
-1.9685
 30
2.06
 70
    64
  0
VERTEX
  5
62282
100
AcDbEntity
  8
0
100
AcDbVertex
100
AcDbPolygonMeshVertex
 10
0.0002
 20
0.5215
 30
2.06
 70
    64
  0
VERTEX
  5
62283
100
AcDbEntity
  8
0
100
AcDbVertex
100
AcDbPolygonMeshVertex
 10
0.0002
 20
0.5215
 30
2.06
 70
    64
  0
VERTEX
  5
62284
100
AcDbEntity
  8
0
100
AcDbVertex
100
AcDbPolygonMeshVertex
 10
0.0002
 20
-1.9685
 30
2.06
 70
    64
  0
SEQEND
  5
62285
100
AcDbEntity
  8
0
  0
POLYLINE
  5
62286
100
AcDbEntity
  8
0
100
AcDbPolygonMesh
 66
     1
 10
0.0
 20
0.0
 30
0.0
 70
    16
 71
     6
 72
     3
  0
VERTEX
  5
62287
100
AcDbEntity
  8
0
100
AcDbVertex
100
AcDbPolygonMeshVertex
 10
0.42995
 20
-1.9855
 30
2.929
 70
    64
  0
VERTEX
  5
62288
100
AcDbEntity
  8
0
100
AcDbVertex
100
AcDbPolygonMeshVertex
 10
0.42995
 20
-1.9855
 30
2.319
 70
    64
  0
VERTEX
  5
62289
100
AcDbEntity
  8
0
100
AcDbVertex
100
AcDbPolygonMeshVertex
 10
0.42995
 20
-1.9855
 30
2.319
 70
    64
  0
VERTEX
  5
6228A
100
AcDbEntity
  8
0
100
AcDbVertex
100
AcDbPolygonMeshVertex
 10
0.47595
 20
-1.9855
 30
2.929
 70
    64
  0
VERTEX
  5
6228B
100
AcDbEntity
  8
0
100
AcDbVertex
100
AcDbPolygonMeshVertex
 10
0.47595
 20
-1.9855
 30
2.319
 70
    64
  0
VERTEX
  5
6228C
100
AcDbEntity
  8
0
100
AcDbVertex
100
AcDbPolygonMeshVertex
 10
0.47595
 20
-1.9855
 30
2.319
 70
    64
  0
VERTEX
  5
6228D
100
AcDbEntity
  8
0
100
AcDbVertex
100
AcDbPolygonMeshVertex
 10
0.47595
 20
-1.8455
 30
2.929
 70
    64
  0
VERTEX
  5
6228E
100
AcDbEntity
  8
0
100
AcDbVertex
100
AcDbPolygonMeshVertex
 10
0.47595
 20
-1.8455
 30
2.319
 70
    64
  0
VERTEX
  5
6228F
100
AcDbEntity
  8
0
100
AcDbVertex
100
AcDbPolygonMeshVertex
 10
0.47595
 20
-1.9855
 30
2.319
 70
    64
  0
VERTEX
  5
62290
100
AcDbEntity
  8
0
100
AcDbVertex
100
AcDbPolygonMeshVertex
 10
0.42995
 20
-1.8455
 30
2.929
 70
    64
  0
VERTEX
  5
62291
100
AcDbEntity
  8
0
100
AcDbVertex
100
AcDbPolygonMeshVertex
 10
0.42995
 20
-1.8455
 30
2.319
 70
    64
  0
VERTEX
  5
62292
100
AcDbEntity
  8
0
100
AcDbVertex
100
AcDbPolygonMeshVertex
 10
0.42995
 20
-1.9855
 30
2.319
 70
    64
  0
VERTEX
  5
62293
100
AcDbEntity
  8
0
100
AcDbVertex
100
AcDbPolygonMeshVertex
 10
0.42995
 20
-1.8455
 30
2.929
 70
    64
  0
VERTEX
  5
62294
100
AcDbEntity
  8
0
100
AcDbVertex
100
AcDbPolygonMeshVertex
 10
0.42995
 20
-1.8455
 30
2.929
 70
    64
  0
VERTEX
  5
62295
100
AcDbEntity
  8
0
100
AcDbVertex
100
AcDbPolygonMeshVertex
 10
0.42995
 20
-1.9855
 30
2.929
 70
    64
  0
VERTEX
  5
62296
100
AcDbEntity
  8
0
100
AcDbVertex
100
AcDbPolygonMeshVertex
 10
0.47595
 20
-1.8455
 30
2.929
 70
    64
  0
VERTEX
  5
62297
100
AcDbEntity
  8
0
100
AcDbVertex
100
AcDbPolygonMeshVertex
 10
0.47595
 20
-1.8455
 30
2.929
 70
    64
  0
VERTEX
  5
62298
100
AcDbEntity
  8
0
100
AcDbVertex
100
AcDbPolygonMeshVertex
 10
0.47595
 20
-1.9855
 30
2.929
 70
    64
  0
SEQEND
  5
62299
100
AcDbEntity
  8
0
  0
LINE
  5
6229A
100
AcDbEntity
  8
0
100
AcDbLine
 10
0.9057
 20
-1.8455
 30
2.646
 11
1.28945
 21
-1.8455
 31
2.646
  0
LINE
  5
6229B
100
AcDbEntity
  8
0
100
AcDbLine
 10
1.33545
 20
-1.8455
 30
2.646
 11
1.7192
 21
-1.8455
 31
2.646
  0
LINE
  5
6229C
100
AcDbEntity
  8
0
100
AcDbLine
 10
0.47595
 20
-1.8455
 30
2.646
 11
0.8597
 21
-1.8455
 31
2.646
  0
LINE
  5
6229D
100
AcDbEntity
  8
0
100
AcDbLine
 10
0.0462
 20
-1.8455
 30
2.646
 11
0.42995
 21
-1.8455
 31
2.646
  0
POLYLINE
  5
6229E
100
AcDbEntity
  8
0
100
AcDbPolygonMesh
 66
     1
 10
0.0
 20
0.0
 30
0.0
 70
    16
 71
     6
 72
     3
  0
VERTEX
  5
6229F
100
AcDbEntity
  8
0
100
AcDbVertex
100
AcDbPolygonMeshVertex
 10
0.0462
 20
-1.9855
 30
2.929
 70
    64
  0
VERTEX
  5
622A0
100
AcDbEntity
  8
0
100
AcDbVertex
100
AcDbPolygonMeshVertex
 10
0.0462
 20
-1.9855
 30
2.06
 70
    64
  0
VERTEX
  5
622A1
100
AcDbEntity
  8
0
100
AcDbVertex
100
AcDbPolygonMeshVertex
 10
0.0462
 20
-1.9855
 30
2.06
 70
    64
  0
VERTEX
  5
622A2
100
AcDbEntity
  8
0
100
AcDbVertex
100
AcDbPolygonMeshVertex
 10
0.0002
 20
-1.9855
 30
2.929
 70
    64
  0
VERTEX
  5
622A3
100
AcDbEntity
  8
0
100
AcDbVertex
100
AcDbPolygonMeshVertex
 10
0.0002
 20
-1.9855
 30
2.06
 70
    64
  0
VERTEX
  5
622A4
100
AcDbEntity
  8
0
100
AcDbVertex
100
AcDbPolygonMeshVertex
 10
0.0002
 20
-1.9855
 30
2.06
 70
    64
  0
VERTEX
  5
622A5
100
AcDbEntity
  8
0
100
AcDbVertex
100
AcDbPolygonMeshVertex
 10
0.0002
 20
-1.8455
 30
2.929
 70
    64
  0
VERTEX
  5
622A6
100
AcDbEntity
  8
0
100
AcDbVertex
100
AcDbPolygonMeshVertex
 10
0.0002
 20
-1.8455
 30
2.06
 70
    64
  0
VERTEX
  5
622A7
100
AcDbEntity
  8
0
100
AcDbVertex
100
AcDbPolygonMeshVertex
 10
0.0002
 20
-1.9855
 30
2.06
 70
    64
  0
VERTEX
  5
622A8
100
AcDbEntity
  8
0
100
AcDbVertex
100
AcDbPolygonMeshVertex
 10
0.0462
 20
-1.8455
 30
2.929
 70
    64
  0
VERTEX
  5
622A9
100
AcDbEntity
  8
0
100
AcDbVertex
100
AcDbPolygonMeshVertex
 10
0.0462
 20
-1.8455
 30
2.06
 70
    64
  0
VERTEX
  5
622AA
100
AcDbEntity
  8
0
100
AcDbVertex
100
AcDbPolygonMeshVertex
 10
0.0462
 20
-1.9855
 30
2.06
 70
    64
  0
VERTEX
  5
622AB
100
AcDbEntity
  8
0
100
AcDbVertex
100
AcDbPolygonMeshVertex
 10
0.0462
 20
-1.8455
 30
2.929
 70
    64
  0
VERTEX
  5
622AC
100
AcDbEntity
  8
0
100
AcDbVertex
100
AcDbPolygonMeshVertex
 10
0.0462
 20
-1.8455
 30
2.929
 70
    64
  0
VERTEX
  5
622AD
100
AcDbEntity
  8
0
100
AcDbVertex
100
AcDbPolygonMeshVertex
 10
0.0462
 20
-1.9855
 30
2.929
 70
    64
  0
VERTEX
  5
622AE
100
AcDbEntity
  8
0
100
AcDbVertex
100
AcDbPolygonMeshVertex
 10
0.0002
 20
-1.8455
 30
2.929
 70
    64
  0
VERTEX
  5
622AF
100
AcDbEntity
  8
0
100
AcDbVertex
100
AcDbPolygonMeshVertex
 10
0.0002
 20
-1.8455
 30
2.929
 70
    64
  0
VERTEX
  5
622B0
100
AcDbEntity
  8
0
100
AcDbVertex
100
AcDbPolygonMeshVertex
 10
0.0002
 20
-1.9855
 30
2.929
 70
    64
  0
SEQEND
  5
622B1
100
AcDbEntity
  8
0
  0
POLYLINE
  5
622B2
100
AcDbEntity
  8
0
100
AcDbPolygonMesh
 66
     1
 10
0.0
 20
0.0
 30
0.0
 70
    16
 71
     6
 72
     3
  0
VERTEX
  5
622B3
100
AcDbEntity
  8
0
100
AcDbVertex
100
AcDbPolygonMeshVertex
 10
1.7652
 20
-1.9855
 30
2.929
 70
    64
  0
VERTEX
  5
622B4
100
AcDbEntity
  8
0
100
AcDbVertex
100
AcDbPolygonMeshVertex
 10
1.7652
 20
-1.9855
 30
2.06
 70
    64
  0
VERTEX
  5
622B5
100
AcDbEntity
  8
0
100
AcDbVertex
100
AcDbPolygonMeshVertex
 10
1.7652
 20
-1.9855
 30
2.06
 70
    64
  0
VERTEX
  5
622B6
100
AcDbEntity
  8
0
100
AcDbVertex
100
AcDbPolygonMeshVertex
 10
1.7192
 20
-1.9855
 30
2.929
 70
    64
  0
VERTEX
  5
622B7
100
AcDbEntity
  8
0
100
AcDbVertex
100
AcDbPolygonMeshVertex
 10
1.7192
 20
-1.9855
 30
2.06
 70
    64
  0
VERTEX
  5
622B8
100
AcDbEntity
  8
0
100
AcDbVertex
100
AcDbPolygonMeshVertex
 10
1.7192
 20
-1.9855
 30
2.06
 70
    64
  0
VERTEX
  5
622B9
100
AcDbEntity
  8
0
100
AcDbVertex
100
AcDbPolygonMeshVertex
 10
1.7192
 20
-1.8455
 30
2.929
 70
    64
  0
VERTEX
  5
622BA
100
AcDbEntity
  8
0
100
AcDbVertex
100
AcDbPolygonMeshVertex
 10
1.7192
 20
-1.8455
 30
2.06
 70
    64
  0
VERTEX
  5
622BB
100
AcDbEntity
  8
0
100
AcDbVertex
100
AcDbPolygonMeshVertex
 10
1.7192
 20
-1.9855
 30
2.06
 70
    64
  0
VERTEX
  5
622BC
100
AcDbEntity
  8
0
100
AcDbVertex
100
AcDbPolygonMeshVertex
 10
1.7652
 20
-1.8455
 30
2.929
 70
    64
  0
VERTEX
  5
622BD
100
AcDbEntity
  8
0
100
AcDbVertex
100
AcDbPolygonMeshVertex
 10
1.7652
 20
-1.8455
 30
2.06
 70
    64
  0
VERTEX
  5
622BE
100
AcDbEntity
  8
0
100
AcDbVertex
100
AcDbPolygonMeshVertex
 10
1.7652
 20
-1.9855
 30
2.06
 70
    64
  0
VERTEX
  5
622BF
100
AcDbEntity
  8
0
100
AcDbVertex
100
AcDbPolygonMeshVertex
 10
1.7652
 20
-1.8455
 30
2.929
 70
    64
  0
VERTEX
  5
622C0
100
AcDbEntity
  8
0
100
AcDbVertex
100
AcDbPolygonMeshVertex
 10
1.7652
 20
-1.8455
 30
2.929
 70
    64
  0
VERTEX
  5
622C1
100
AcDbEntity
  8
0
100
AcDbVertex
100
AcDbPolygonMeshVertex
 10
1.7652
 20
-1.9855
 30
2.929
 70
    64
  0
VERTEX
  5
622C2
100
AcDbEntity
  8
0
100
AcDbVertex
100
AcDbPolygonMeshVertex
 10
1.7192
 20
-1.8455
 30
2.929
 70
    64
  0
VERTEX
  5
622C3
100
AcDbEntity
  8
0
100
AcDbVertex
100
AcDbPolygonMeshVertex
 10
1.7192
 20
-1.8455
 30
2.929
 70
    64
  0
VERTEX
  5
622C4
100
AcDbEntity
  8
0
100
AcDbVertex
100
AcDbPolygonMeshVertex
 10
1.7192
 20
-1.9855
 30
2.929
 70
    64
  0
SEQEND
  5
622C5
100
AcDbEntity
  8
0
  0
POLYLINE
  5
622C6
100
AcDbEntity
  8
0
100
AcDbPolygonMesh
 66
     1
 10
0.0
 20
0.0
 30
0.0
 70
    16
 71
     6
 72
     3
  0
VERTEX
  5
622C7
100
AcDbEntity
  8
0
100
AcDbVertex
100
AcDbPolygonMeshVertex
 10
1.7652
 20
0.5385
 30
2.929
 70
    64
  0
VERTEX
  5
622C8
100
AcDbEntity
  8
0
100
AcDbVertex
100
AcDbPolygonMeshVertex
 10
1.7652
 20
0.5385
 30
2.06
 70
    64
  0
VERTEX
  5
622C9
100
AcDbEntity
  8
0
100
AcDbVertex
100
AcDbPolygonMeshVertex
 10
1.7652
 20
0.5385
 30
2.06
 70
    64
  0
VERTEX
  5
622CA
100
AcDbEntity
  8
0
100
AcDbVertex
100
AcDbPolygonMeshVertex
 10
1.7192
 20
0.5385
 30
2.929
 70
    64
  0
VERTEX
  5
622CB
100
AcDbEntity
  8
0
100
AcDbVertex
100
AcDbPolygonMeshVertex
 10
1.7192
 20
0.5385
 30
2.06
 70
    64
  0
VERTEX
  5
622CC
100
AcDbEntity
  8
0
100
AcDbVertex
100
AcDbPolygonMeshVertex
 10
1.7192
 20
0.5385
 30
2.06
 70
    64
  0
VERTEX
  5
622CD
100
AcDbEntity
  8
0
100
AcDbVertex
100
AcDbPolygonMeshVertex
 10
1.7192
 20
0.3985
 30
2.929
 70
    64
  0
VERTEX
  5
622CE
100
AcDbEntity
  8
0
100
AcDbVertex
100
AcDbPolygonMeshVertex
 10
1.7192
 20
0.3985
 30
2.06
 70
    64
  0
VERTEX
  5
622CF
100
AcDbEntity
  8
0
100
AcDbVertex
100
AcDbPolygonMeshVertex
 10
1.7192
 20
0.5385
 30
2.06
 70
    64
  0
VERTEX
  5
622D0
100
AcDbEntity
  8
0
100
AcDbVertex
100
AcDbPolygonMeshVertex
 10
1.7652
 20
0.3985
 30
2.929
 70
    64
  0
VERTEX
  5
622D1
100
AcDbEntity
  8
0
100
AcDbVertex
100
AcDbPolygonMeshVertex
 10
1.7652
 20
0.3985
 30
2.06
 70
    64
  0
VERTEX
  5
622D2
100
AcDbEntity
  8
0
100
AcDbVertex
100
AcDbPolygonMeshVertex
 10
1.7652
 20
0.5385
 30
2.06
 70
    64
  0
VERTEX
  5
622D3
100
AcDbEntity
  8
0
100
AcDbVertex
100
AcDbPolygonMeshVertex
 10
1.7652
 20
0.3985
 30
2.929
 70
    64
  0
VERTEX
  5
622D4
100
AcDbEntity
  8
0
100
AcDbVertex
100
AcDbPolygonMeshVertex
 10
1.7652
 20
0.3985
 30
2.929
 70
    64
  0
VERTEX
  5
622D5
100
AcDbEntity
  8
0
100
AcDbVertex
100
AcDbPolygonMeshVertex
 10
1.7652
 20
0.5385
 30
2.929
 70
    64
  0
VERTEX
  5
622D6
100
AcDbEntity
  8
0
100
AcDbVertex
100
AcDbPolygonMeshVertex
 10
1.7192
 20
0.3985
 30
2.929
 70
    64
  0
VERTEX
  5
622D7
100
AcDbEntity
  8
0
100
AcDbVertex
100
AcDbPolygonMeshVertex
 10
1.7192
 20
0.3985
 30
2.929
 70
    64
  0
VERTEX
  5
622D8
100
AcDbEntity
  8
0
100
AcDbVertex
100
AcDbPolygonMeshVertex
 10
1.7192
 20
0.5385
 30
2.929
 70
    64
  0
SEQEND
  5
622D9
100
AcDbEntity
  8
0
  0
LINE
  5
622DA
100
AcDbEntity
  8
0
100
AcDbLine
 10
1.33545
 20
0.3985
 30
2.646
 11
1.7192
 21
0.3985
 31
2.646
  0
POLYLINE
  5
622DB
100
AcDbEntity
  8
0
100
AcDbPolygonMesh
 66
     1
 10
0.0
 20
0.0
 30
0.0
 70
    16
 71
     6
 72
     3
  0
VERTEX
  5
622DC
100
AcDbEntity
  8
0
100
AcDbVertex
100
AcDbPolygonMeshVertex
 10
1.33545
 20
0.5385
 30
2.929
 70
    64
  0
VERTEX
  5
622DD
100
AcDbEntity
  8
0
100
AcDbVertex
100
AcDbPolygonMeshVertex
 10
1.33545
 20
0.5385
 30
2.319
 70
    64
  0
VERTEX
  5
622DE
100
AcDbEntity
  8
0
100
AcDbVertex
100
AcDbPolygonMeshVertex
 10
1.33545
 20
0.5385
 30
2.319
 70
    64
  0
VERTEX
  5
622DF
100
AcDbEntity
  8
0
100
AcDbVertex
100
AcDbPolygonMeshVertex
 10
1.28945
 20
0.5385
 30
2.929
 70
    64
  0
VERTEX
  5
622E0
100
AcDbEntity
  8
0
100
AcDbVertex
100
AcDbPolygonMeshVertex
 10
1.28945
 20
0.5385
 30
2.319
 70
    64
  0
VERTEX
  5
622E1
100
AcDbEntity
  8
0
100
AcDbVertex
100
AcDbPolygonMeshVertex
 10
1.28945
 20
0.5385
 30
2.319
 70
    64
  0
VERTEX
  5
622E2
100
AcDbEntity
  8
0
100
AcDbVertex
100
AcDbPolygonMeshVertex
 10
1.28945
 20
0.3985
 30
2.929
 70
    64
  0
VERTEX
  5
622E3
100
AcDbEntity
  8
0
100
AcDbVertex
100
AcDbPolygonMeshVertex
 10
1.28945
 20
0.3985
 30
2.319
 70
    64
  0
VERTEX
  5
622E4
100
AcDbEntity
  8
0
100
AcDbVertex
100
AcDbPolygonMeshVertex
 10
1.28945
 20
0.5385
 30
2.319
 70
    64
  0
VERTEX
  5
622E5
100
AcDbEntity
  8
0
100
AcDbVertex
100
AcDbPolygonMeshVertex
 10
1.33545
 20
0.3985
 30
2.929
 70
    64
  0
VERTEX
  5
622E6
100
AcDbEntity
  8
0
100
AcDbVertex
100
AcDbPolygonMeshVertex
 10
1.33545
 20
0.3985
 30
2.319
 70
    64
  0
VERTEX
  5
622E7
100
AcDbEntity
  8
0
100
AcDbVertex
100
AcDbPolygonMeshVertex
 10
1.33545
 20
0.5385
 30
2.319
 70
    64
  0
VERTEX
  5
622E8
100
AcDbEntity
  8
0
100
AcDbVertex
100
AcDbPolygonMeshVertex
 10
1.33545
 20
0.3985
 30
2.929
 70
    64
  0
VERTEX
  5
622E9
100
AcDbEntity
  8
0
100
AcDbVertex
100
AcDbPolygonMeshVertex
 10
1.33545
 20
0.3985
 30
2.929
 70
    64
  0
VERTEX
  5
622EA
100
AcDbEntity
  8
0
100
AcDbVertex
100
AcDbPolygonMeshVertex
 10
1.33545
 20
0.5385
 30
2.929
 70
    64
  0
VERTEX
  5
622EB
100
AcDbEntity
  8
0
100
AcDbVertex
100
AcDbPolygonMeshVertex
 10
1.28945
 20
0.3985
 30
2.929
 70
    64
  0
VERTEX
  5
622EC
100
AcDbEntity
  8
0
100
AcDbVertex
100
AcDbPolygonMeshVertex
 10
1.28945
 20
0.3985
 30
2.929
 70
    64
  0
VERTEX
  5
622ED
100
AcDbEntity
  8
0
100
AcDbVertex
100
AcDbPolygonMeshVertex
 10
1.28945
 20
0.5385
 30
2.929
 70
    64
  0
SEQEND
  5
622EE
100
AcDbEntity
  8
0
  0
LINE
  5
622EF
100
AcDbEntity
  8
0
100
AcDbLine
 10
0.9057
 20
0.3985
 30
2.646
 11
1.28945
 21
0.3985
 31
2.646
  0
POLYLINE
  5
622F0
100
AcDbEntity
  8
0
100
AcDbPolygonMesh
 66
     1
 10
0.0
 20
0.0
 30
0.0
 70
    16
 71
     6
 72
     3
  0
VERTEX
  5
622F1
100
AcDbEntity
  8
0
100
AcDbVertex
100
AcDbPolygonMeshVertex
 10
0.9057
 20
0.5385
 30
2.929
 70
    64
  0
VERTEX
  5
622F2
100
AcDbEntity
  8
0
100
AcDbVertex
100
AcDbPolygonMeshVertex
 10
0.9057
 20
0.5385
 30
2.319
 70
    64
  0
VERTEX
  5
622F3
100
AcDbEntity
  8
0
100
AcDbVertex
100
AcDbPolygonMeshVertex
 10
0.9057
 20
0.5385
 30
2.319
 70
    64
  0
VERTEX
  5
622F4
100
AcDbEntity
  8
0
100
AcDbVertex
100
AcDbPolygonMeshVertex
 10
0.8597
 20
0.5385
 30
2.929
 70
    64
  0
VERTEX
  5
622F5
100
AcDbEntity
  8
0
100
AcDbVertex
100
AcDbPolygonMeshVertex
 10
0.8597
 20
0.5385
 30
2.319
 70
    64
  0
VERTEX
  5
622F6
100
AcDbEntity
  8
0
100
AcDbVertex
100
AcDbPolygonMeshVertex
 10
0.8597
 20
0.5385
 30
2.319
 70
    64
  0
VERTEX
  5
622F7
100
AcDbEntity
  8
0
100
AcDbVertex
100
AcDbPolygonMeshVertex
 10
0.8597
 20
0.3985
 30
2.929
 70
    64
  0
VERTEX
  5
622F8
100
AcDbEntity
  8
0
100
AcDbVertex
100
AcDbPolygonMeshVertex
 10
0.8597
 20
0.3985
 30
2.319
 70
    64
  0
VERTEX
  5
622F9
100
AcDbEntity
  8
0
100
AcDbVertex
100
AcDbPolygonMeshVertex
 10
0.8597
 20
0.5385
 30
2.319
 70
    64
  0
VERTEX
  5
622FA
100
AcDbEntity
  8
0
100
AcDbVertex
100
AcDbPolygonMeshVertex
 10
0.9057
 20
0.3985
 30
2.929
 70
    64
  0
VERTEX
  5
622FB
100
AcDbEntity
  8
0
100
AcDbVertex
100
AcDbPolygonMeshVertex
 10
0.9057
 20
0.3985
 30
2.319
 70
    64
  0
VERTEX
  5
622FC
100
AcDbEntity
  8
0
100
AcDbVertex
100
AcDbPolygonMeshVertex
 10
0.9057
 20
0.5385
 30
2.319
 70
    64
  0
VERTEX
  5
622FD
100
AcDbEntity
  8
0
100
AcDbVertex
100
AcDbPolygonMeshVertex
 10
0.9057
 20
0.3985
 30
2.929
 70
    64
  0
VERTEX
  5
622FE
100
AcDbEntity
  8
0
100
AcDbVertex
100
AcDbPolygonMeshVertex
 10
0.9057
 20
0.3985
 30
2.929
 70
    64
  0
VERTEX
  5
622FF
100
AcDbEntity
  8
0
100
AcDbVertex
100
AcDbPolygonMeshVertex
 10
0.9057
 20
0.5385
 30
2.929
 70
    64
  0
VERTEX
  5
62300
100
AcDbEntity
  8
0
100
AcDbVertex
100
AcDbPolygonMeshVertex
 10
0.8597
 20
0.3985
 30
2.929
 70
    64
  0
VERTEX
  5
62301
100
AcDbEntity
  8
0
100
AcDbVertex
100
AcDbPolygonMeshVertex
 10
0.8597
 20
0.3985
 30
2.929
 70
    64
  0
VERTEX
  5
62302
100
AcDbEntity
  8
0
100
AcDbVertex
100
AcDbPolygonMeshVertex
 10
0.8597
 20
0.5385
 30
2.929
 70
    64
  0
SEQEND
  5
62303
100
AcDbEntity
  8
0
  0
POLYLINE
  5
62304
100
AcDbEntity
  8
0
100
AcDbPolygonMesh
 66
     1
 10
0.0
 20
0.0
 30
0.0
 70
    16
 71
     6
 72
     3
  0
VERTEX
  5
62305
100
AcDbEntity
  8
0
100
AcDbVertex
100
AcDbPolygonMeshVertex
 10
0.42995
 20
0.5385
 30
2.929
 70
    64
  0
VERTEX
  5
62306
100
AcDbEntity
  8
0
100
AcDbVertex
100
AcDbPolygonMeshVertex
 10
0.42995
 20
0.5385
 30
2.319
 70
    64
  0
VERTEX
  5
62307
100
AcDbEntity
  8
0
100
AcDbVertex
100
AcDbPolygonMeshVertex
 10
0.42995
 20
0.5385
 30
2.319
 70
    64
  0
VERTEX
  5
62308
100
AcDbEntity
  8
0
100
AcDbVertex
100
AcDbPolygonMeshVertex
 10
0.47595
 20
0.5385
 30
2.929
 70
    64
  0
VERTEX
  5
62309
100
AcDbEntity
  8
0
100
AcDbVertex
100
AcDbPolygonMeshVertex
 10
0.47595
 20
0.5385
 30
2.319
 70
    64
  0
VERTEX
  5
6230A
100
AcDbEntity
  8
0
100
AcDbVertex
100
AcDbPolygonMeshVertex
 10
0.47595
 20
0.5385
 30
2.319
 70
    64
  0
VERTEX
  5
6230B
100
AcDbEntity
  8
0
100
AcDbVertex
100
AcDbPolygonMeshVertex
 10
0.47595
 20
0.3985
 30
2.929
 70
    64
  0
VERTEX
  5
6230C
100
AcDbEntity
  8
0
100
AcDbVertex
100
AcDbPolygonMeshVertex
 10
0.47595
 20
0.3985
 30
2.319
 70
    64
  0
VERTEX
  5
6230D
100
AcDbEntity
  8
0
100
AcDbVertex
100
AcDbPolygonMeshVertex
 10
0.47595
 20
0.5385
 30
2.319
 70
    64
  0
VERTEX
  5
6230E
100
AcDbEntity
  8
0
100
AcDbVertex
100
AcDbPolygonMeshVertex
 10
0.42995
 20
0.3985
 30
2.929
 70
    64
  0
VERTEX
  5
6230F
100
AcDbEntity
  8
0
100
AcDbVertex
100
AcDbPolygonMeshVertex
 10
0.42995
 20
0.3985
 30
2.319
 70
    64
  0
VERTEX
  5
62310
100
AcDbEntity
  8
0
100
AcDbVertex
100
AcDbPolygonMeshVertex
 10
0.42995
 20
0.5385
 30
2.319
 70
    64
  0
VERTEX
  5
62311
100
AcDbEntity
  8
0
100
AcDbVertex
100
AcDbPolygonMeshVertex
 10
0.42995
 20
0.3985
 30
2.929
 70
    64
  0
VERTEX
  5
62312
100
AcDbEntity
  8
0
100
AcDbVertex
100
AcDbPolygonMeshVertex
 10
0.42995
 20
0.3985
 30
2.929
 70
    64
  0
VERTEX
  5
62313
100
AcDbEntity
  8
0
100
AcDbVertex
100
AcDbPolygonMeshVertex
 10
0.42995
 20
0.5385
 30
2.929
 70
    64
  0
VERTEX
  5
62314
100
AcDbEntity
  8
0
100
AcDbVertex
100
AcDbPolygonMeshVertex
 10
0.47595
 20
0.3985
 30
2.929
 70
    64
  0
VERTEX
  5
62315
100
AcDbEntity
  8
0
100
AcDbVertex
100
AcDbPolygonMeshVertex
 10
0.47595
 20
0.3985
 30
2.929
 70
    64
  0
VERTEX
  5
62316
100
AcDbEntity
  8
0
100
AcDbVertex
100
AcDbPolygonMeshVertex
 10
0.47595
 20
0.5385
 30
2.929
 70
    64
  0
SEQEND
  5
62317
100
AcDbEntity
  8
0
  0
LINE
  5
62318
100
AcDbEntity
  8
0
100
AcDbLine
 10
0.0462
 20
0.3985
 30
2.646
 11
0.42995
 21
0.3985
 31
2.646
  0
LINE
  5
62319
100
AcDbEntity
  8
0
100
AcDbLine
 10
0.47595
 20
0.3985
 30
2.646
 11
0.8597
 21
0.3985
 31
2.646
  0
POLYLINE
  5
6231A
100
AcDbEntity
  8
0
100
AcDbPolygonMesh
 66
     1
 10
0.0
 20
0.0
 30
0.0
 70
    16
 71
     6
 72
     3
  0
VERTEX
  5
6231B
100
AcDbEntity
  8
0
100
AcDbVertex
100
AcDbPolygonMeshVertex
 10
0.0462
 20
0.5385
 30
2.929
 70
    64
  0
VERTEX
  5
6231C
100
AcDbEntity
  8
0
100
AcDbVertex
100
AcDbPolygonMeshVertex
 10
0.0462
 20
0.5385
 30
2.06
 70
    64
  0
VERTEX
  5
6231D
100
AcDbEntity
  8
0
100
AcDbVertex
100
AcDbPolygonMeshVertex
 10
0.0462
 20
0.5385
 30
2.06
 70
    64
  0
VERTEX
  5
6231E
100
AcDbEntity
  8
0
100
AcDbVertex
100
AcDbPolygonMeshVertex
 10
0.0002
 20
0.5385
 30
2.929
 70
    64
  0
VERTEX
  5
6231F
100
AcDbEntity
  8
0
100
AcDbVertex
100
AcDbPolygonMeshVertex
 10
0.0002
 20
0.5385
 30
2.06
 70
    64
  0
VERTEX
  5
62320
100
AcDbEntity
  8
0
100
AcDbVertex
100
AcDbPolygonMeshVertex
 10
0.0002
 20
0.5385
 30
2.06
 70
    64
  0
VERTEX
  5
62321
100
AcDbEntity
  8
0
100
AcDbVertex
100
AcDbPolygonMeshVertex
 10
0.0002
 20
0.3985
 30
2.929
 70
    64
  0
VERTEX
  5
62322
100
AcDbEntity
  8
0
100
AcDbVertex
100
AcDbPolygonMeshVertex
 10
0.0002
 20
0.3985
 30
2.06
 70
    64
  0
VERTEX
  5
62323
100
AcDbEntity
  8
0
100
AcDbVertex
100
AcDbPolygonMeshVertex
 10
0.0002
 20
0.5385
 30
2.06
 70
    64
  0
VERTEX
  5
62324
100
AcDbEntity
  8
0
100
AcDbVertex
100
AcDbPolygonMeshVertex
 10
0.0462
 20
0.3985
 30
2.929
 70
    64
  0
VERTEX
  5
62325
100
AcDbEntity
  8
0
100
AcDbVertex
100
AcDbPolygonMeshVertex
 10
0.0462
 20
0.3985
 30
2.06
 70
    64
  0
VERTEX
  5
62326
100
AcDbEntity
  8
0
100
AcDbVertex
100
AcDbPolygonMeshVertex
 10
0.0462
 20
0.5385
 30
2.06
 70
    64
  0
VERTEX
  5
62327
100
AcDbEntity
  8
0
100
AcDbVertex
100
AcDbPolygonMeshVertex
 10
0.0462
 20
0.3985
 30
2.929
 70
    64
  0
VERTEX
  5
62328
100
AcDbEntity
  8
0
100
AcDbVertex
100
AcDbPolygonMeshVertex
 10
0.0462
 20
0.3985
 30
2.929
 70
    64
  0
VERTEX
  5
62329
100
AcDbEntity
  8
0
100
AcDbVertex
100
AcDbPolygonMeshVertex
 10
0.0462
 20
0.5385
 30
2.929
 70
    64
  0
VERTEX
  5
6232A
100
AcDbEntity
  8
0
100
AcDbVertex
100
AcDbPolygonMeshVertex
 10
0.0002
 20
0.3985
 30
2.929
 70
    64
  0
VERTEX
  5
6232B
100
AcDbEntity
  8
0
100
AcDbVertex
100
AcDbPolygonMeshVertex
 10
0.0002
 20
0.3985
 30
2.929
 70
    64
  0
VERTEX
  5
6232C
100
AcDbEntity
  8
0
100
AcDbVertex
100
AcDbPolygonMeshVertex
 10
0.0002
 20
0.5385
 30
2.929
 70
    64
  0
SEQEND
  5
6232D
100
AcDbEntity
  8
0
  0
POLYLINE
  5
6232E
100
AcDbEntity
  8
0
100
AcDbPolygonMesh
 66
     1
 10
0.0
 20
0.0
 30
0.0
 70
    16
 71
     6
 72
     3
  0
VERTEX
  5
6232F
100
AcDbEntity
  8
0
100
AcDbVertex
100
AcDbPolygonMeshVertex
 10
1.7192
 20
0.6105
 30
2.319
 70
    64
  0
VERTEX
  5
62330
100
AcDbEntity
  8
0
100
AcDbVertex
100
AcDbPolygonMeshVertex
 10
1.7192
 20
0.6105
 30
2.06
 70
    64
  0
VERTEX
  5
62331
100
AcDbEntity
  8
0
100
AcDbVertex
100
AcDbPolygonMeshVertex
 10
1.7192
 20
0.6105
 30
2.06
 70
    64
  0
VERTEX
  5
62332
100
AcDbEntity
  8
0
100
AcDbVertex
100
AcDbPolygonMeshVertex
 10
0.0462
 20
0.6105
 30
2.319
 70
    64
  0
VERTEX
  5
62333
100
AcDbEntity
  8
0
100
AcDbVertex
100
AcDbPolygonMeshVertex
 10
0.0462
 20
0.6105
 30
2.06
 70
    64
  0
VERTEX
  5
62334
100
AcDbEntity
  8
0
100
AcDbVertex
100
AcDbPolygonMeshVertex
 10
0.0462
 20
0.6105
 30
2.06
 70
    64
  0
VERTEX
  5
62335
100
AcDbEntity
  8
0
100
AcDbVertex
100
AcDbPolygonMeshVertex
 10
0.0462
 20
0.3985
 30
2.319
 70
    64
  0
VERTEX
  5
62336
100
AcDbEntity
  8
0
100
AcDbVertex
100
AcDbPolygonMeshVertex
 10
0.0462
 20
0.3985
 30
2.06
 70
    64
  0
VERTEX
  5
62337
100
AcDbEntity
  8
0
100
AcDbVertex
100
AcDbPolygonMeshVertex
 10
0.0462
 20
0.6105
 30
2.06
 70
    64
  0
VERTEX
  5
62338
100
AcDbEntity
  8
0
100
AcDbVertex
100
AcDbPolygonMeshVertex
 10
1.7192
 20
0.3985
 30
2.319
 70
    64
  0
VERTEX
  5
62339
100
AcDbEntity
  8
0
100
AcDbVertex
100
AcDbPolygonMeshVertex
 10
1.7192
 20
0.3985
 30
2.06
 70
    64
  0
VERTEX
  5
6233A
100
AcDbEntity
  8
0
100
AcDbVertex
100
AcDbPolygonMeshVertex
 10
1.7192
 20
0.6105
 30
2.06
 70
    64
  0
VERTEX
  5
6233B
100
AcDbEntity
  8
0
100
AcDbVertex
100
AcDbPolygonMeshVertex
 10
1.7192
 20
0.3985
 30
2.319
 70
    64
  0
VERTEX
  5
6233C
100
AcDbEntity
  8
0
100
AcDbVertex
100
AcDbPolygonMeshVertex
 10
1.7192
 20
0.3985
 30
2.319
 70
    64
  0
VERTEX
  5
6233D
100
AcDbEntity
  8
0
100
AcDbVertex
100
AcDbPolygonMeshVertex
 10
1.7192
 20
0.6105
 30
2.319
 70
    64
  0
VERTEX
  5
6233E
100
AcDbEntity
  8
0
100
AcDbVertex
100
AcDbPolygonMeshVertex
 10
0.0462
 20
0.3985
 30
2.319
 70
    64
  0
VERTEX
  5
6233F
100
AcDbEntity
  8
0
100
AcDbVertex
100
AcDbPolygonMeshVertex
 10
0.0462
 20
0.3985
 30
2.319
 70
    64
  0
VERTEX
  5
62340
100
AcDbEntity
  8
0
100
AcDbVertex
100
AcDbPolygonMeshVertex
 10
0.0462
 20
0.6105
 30
2.319
 70
    64
  0
SEQEND
  5
62341
100
AcDbEntity
  8
0
  0
TEXT
  5
62342
100
AcDbEntity
  8
0
100
AcDbText
 39
0.0
 10
0.364837
 20
-2.301582
 30
2.06
 40
0.083465
  1
A1
 50
180.0
 71
     2
100
AcDbText
  0
TEXT
  5
62343
100
AcDbEntity
  8
0
100
AcDbText
 39
0.0
 10
1.285817
 20
-2.300741
 30
2.06
 40
0.083465
  1
A2
 50
180.0
 71
     2
100
AcDbText
  0
LINE
  5
62344
100
AcDbEntity
  8
0
100
AcDbLine
 10
0.652923
 20
-1.9685
 30
0.0
 11
0.86359
 21
-1.9685
 31
0.0
  0
POLYLINE
  5
62345
100
AcDbEntity
  8
0
100
AcDb3dPolyline
 66
     1
 10
0.0
 20
0.0
 30
0.0
 70
     8
  0
VERTEX
  5
62346
100
AcDbEntity
  8
0
100
AcDbVertex
100
AcDb3dPolylineVertex
 10
0.652923
 20
-1.9685
 30
0.0
 70
    32
  0
VERTEX
  5
62347
100
AcDbEntity
  8
0
100
AcDbVertex
100
AcDb3dPolylineVertex
 10
0.652923
 20
-2.1035
 30
0.0
 70
    32
  0
VERTEX
  5
62348
100
AcDbEntity
  8
0
100
AcDbVertex
100
AcDb3dPolylineVertex
 10
0.86359
 20
-2.1035
 30
0.0
 70
    32
  0
VERTEX
  5
62349
100
AcDbEntity
  8
0
100
AcDbVertex
100
AcDb3dPolylineVertex
 10
0.86359
 20
-1.9685
 30
0.0
 70
    32
  0
SEQEND
  5
6234A
100
AcDbEntity
  8
0
  0
POLYLINE
  5
6234B
100
AcDbEntity
  8
0
100
AcDb3dPolyline
 66
     1
 10
0.0
 20
0.0
 30
0.0
 70
     8
  0
VERTEX
  5
6234C
100
AcDbEntity
  8
0
100
AcDbVertex
100
AcDb3dPolylineVertex
 10
0.581133
 20
-1.9685
 30
0.187
 70
    32
  0
VERTEX
  5
6234D
100
AcDbEntity
  8
0
100
AcDbVertex
100
AcDb3dPolylineVertex
 10
0.581133
 20
-2.1035
 30
0.187
 70
    32
  0
VERTEX
  5
6234E
100
AcDbEntity
  8
0
100
AcDbVertex
100
AcDb3dPolylineVertex
 10
0.791799
 20
-2.1035
 30
0.187
 70
    32
  0
VERTEX
  5
6234F
100
AcDbEntity
  8
0
100
AcDbVertex
100
AcDb3dPolylineVertex
 10
0.791799
 20
-1.9685
 30
0.187
 70
    32
  0
SEQEND
  5
62350
100
AcDbEntity
  8
0
  0
POLYLINE
  5
62351
100
AcDbEntity
  8
0
100
AcDbPolygonMesh
 66
     1
 10
0.0
 20
0.0
 30
0.0
 70
    16
 71
     6
 72
     3
  0
VERTEX
  5
62352
100
AcDbEntity
  8
0
100
AcDbVertex
100
AcDbPolygonMeshVertex
 10
0.853799
 20
-2.1655
 30
0.187
 70
    64
  0
VERTEX
  5
62353
100
AcDbEntity
  8
0
100
AcDbVertex
100
AcDbPolygonMeshVertex
 10
0.853799
 20
-2.1655
 30
0.0
 70
    64
  0
VERTEX
  5
62354
100
AcDbEntity
  8
0
100
AcDbVertex
100
AcDbPolygonMeshVertex
 10
0.853799
 20
-2.1655
 30
0.0
 70
    64
  0
VERTEX
  5
62355
100
AcDbEntity
  8
0
100
AcDbVertex
100
AcDbPolygonMeshVertex
 10
0.246466
 20
-2.1655
 30
0.187
 70
    64
  0
VERTEX
  5
62356
100
AcDbEntity
  8
0
100
AcDbVertex
100
AcDbPolygonMeshVertex
 10
0.246466
 20
-2.1655
 30
0.0
 70
    64
  0
VERTEX
  5
62357
100
AcDbEntity
  8
0
100
AcDbVertex
100
AcDbPolygonMeshVertex
 10
0.246466
 20
-2.1655
 30
0.0
 70
    64
  0
VERTEX
  5
62358
100
AcDbEntity
  8
0
100
AcDbVertex
100
AcDbPolygonMeshVertex
 10
0.246466
 20
-2.1035
 30
0.187
 70
    64
  0
VERTEX
  5
62359
100
AcDbEntity
  8
0
100
AcDbVertex
100
AcDbPolygonMeshVertex
 10
0.246466
 20
-2.1035
 30
0.0
 70
    64
  0
VERTEX
  5
6235A
100
AcDbEntity
  8
0
100
AcDbVertex
100
AcDbPolygonMeshVertex
 10
0.246466
 20
-2.1655
 30
0.0
 70
    64
  0
VERTEX
  5
6235B
100
AcDbEntity
  8
0
100
AcDbVertex
100
AcDbPolygonMeshVertex
 10
0.853799
 20
-2.1035
 30
0.187
 70
    64
  0
VERTEX
  5
6235C
100
AcDbEntity
  8
0
100
AcDbVertex
100
AcDbPolygonMeshVertex
 10
0.853799
 20
-2.1035
 30
0.0
 70
    64
  0
VERTEX
  5
6235D
100
AcDbEntity
  8
0
100
AcDbVertex
100
AcDbPolygonMeshVertex
 10
0.853799
 20
-2.1655
 30
0.0
 70
    64
  0
VERTEX
  5
6235E
100
AcDbEntity
  8
0
100
AcDbVertex
100
AcDbPolygonMeshVertex
 10
0.853799
 20
-2.1035
 30
0.187
 70
    64
  0
VERTEX
  5
6235F
100
AcDbEntity
  8
0
100
AcDbVertex
100
AcDbPolygonMeshVertex
 10
0.853799
 20
-2.1035
 30
0.187
 70
    64
  0
VERTEX
  5
62360
100
AcDbEntity
  8
0
100
AcDbVertex
100
AcDbPolygonMeshVertex
 10
0.853799
 20
-2.1655
 30
0.187
 70
    64
  0
VERTEX
  5
62361
100
AcDbEntity
  8
0
100
AcDbVertex
100
AcDbPolygonMeshVertex
 10
0.246466
 20
-2.1035
 30
0.187
 70
    64
  0
VERTEX
  5
62362
100
AcDbEntity
  8
0
100
AcDbVertex
100
AcDbPolygonMeshVertex
 10
0.246466
 20
-2.1035
 30
0.187
 70
    64
  0
VERTEX
  5
62363
100
AcDbEntity
  8
0
100
AcDbVertex
100
AcDbPolygonMeshVertex
 10
0.246466
 20
-2.1655
 30
0.187
 70
    64
  0
SEQEND
  5
62364
100
AcDbEntity
  8
0
  0
POLYLINE
  5
62365
100
AcDbEntity
  8
0
100
AcDbPolygonMesh
 66
     1
 10
0.0
 20
0.0
 30
0.0
 70
    16
 71
     6
 72
     3
  0
VERTEX
  5
62366
100
AcDbEntity
  8
0
100
AcDbVertex
100
AcDbPolygonMeshVertex
 10
0.853799
 20
-2.1035
 30
0.187
 70
    64
  0
VERTEX
  5
62367
100
AcDbEntity
  8
0
100
AcDbVertex
100
AcDbPolygonMeshVertex
 10
0.853799
 20
-2.1035
 30
0.0
 70
    64
  0
VERTEX
  5
62368
100
AcDbEntity
  8
0
100
AcDbVertex
100
AcDbPolygonMeshVertex
 10
0.853799
 20
-2.1035
 30
0.0
 70
    64
  0
VERTEX
  5
62369
100
AcDbEntity
  8
0
100
AcDbVertex
100
AcDbPolygonMeshVertex
 10
0.519133
 20
-2.1035
 30
0.187
 70
    64
  0
VERTEX
  5
6236A
100
AcDbEntity
  8
0
100
AcDbVertex
100
AcDbPolygonMeshVertex
 10
0.519133
 20
-2.1035
 30
0.0
 70
    64
  0
VERTEX
  5
6236B
100
AcDbEntity
  8
0
100
AcDbVertex
100
AcDbPolygonMeshVertex
 10
0.519133
 20
-2.1035
 30
0.0
 70
    64
  0
VERTEX
  5
6236C
100
AcDbEntity
  8
0
100
AcDbVertex
100
AcDbPolygonMeshVertex
 10
0.519133
 20
-1.9065
 30
0.187
 70
    64
  0
VERTEX
  5
6236D
100
AcDbEntity
  8
0
100
AcDbVertex
100
AcDbPolygonMeshVertex
 10
0.519133
 20
-1.9065
 30
0.0
 70
    64
  0
VERTEX
  5
6236E
100
AcDbEntity
  8
0
100
AcDbVertex
100
AcDbPolygonMeshVertex
 10
0.519133
 20
-2.1035
 30
0.0
 70
    64
  0
VERTEX
  5
6236F
100
AcDbEntity
  8
0
100
AcDbVertex
100
AcDbPolygonMeshVertex
 10
0.853799
 20
-1.9065
 30
0.187
 70
    64
  0
VERTEX
  5
62370
100
AcDbEntity
  8
0
100
AcDbVertex
100
AcDbPolygonMeshVertex
 10
0.853799
 20
-1.9065
 30
0.0
 70
    64
  0
VERTEX
  5
62371
100
AcDbEntity
  8
0
100
AcDbVertex
100
AcDbPolygonMeshVertex
 10
0.853799
 20
-2.1035
 30
0.0
 70
    64
  0
VERTEX
  5
62372
100
AcDbEntity
  8
0
100
AcDbVertex
100
AcDbPolygonMeshVertex
 10
0.853799
 20
-1.9065
 30
0.187
 70
    64
  0
VERTEX
  5
62373
100
AcDbEntity
  8
0
100
AcDbVertex
100
AcDbPolygonMeshVertex
 10
0.853799
 20
-1.9065
 30
0.187
 70
    64
  0
VERTEX
  5
62374
100
AcDbEntity
  8
0
100
AcDbVertex
100
AcDbPolygonMeshVertex
 10
0.853799
 20
-2.1035
 30
0.187
 70
    64
  0
VERTEX
  5
62375
100
AcDbEntity
  8
0
100
AcDbVertex
100
AcDbPolygonMeshVertex
 10
0.519133
 20
-1.9065
 30
0.187
 70
    64
  0
VERTEX
  5
62376
100
AcDbEntity
  8
0
100
AcDbVertex
100
AcDbPolygonMeshVertex
 10
0.519133
 20
-1.9065
 30
0.187
 70
    64
  0
VERTEX
  5
62377
100
AcDbEntity
  8
0
100
AcDbVertex
100
AcDbPolygonMeshVertex
 10
0.519133
 20
-2.1035
 30
0.187
 70
    64
  0
SEQEND
  5
62378
100
AcDbEntity
  8
0
  0
LINE
  5
62379
100
AcDbEntity
  8
0
100
AcDbLine
 10
0.652923
 20
-1.9685
 30
0.187
 11
0.86359
 21
-1.9685
 31
0.187
  0
POLYLINE
  5
6237A
100
AcDbEntity
  8
0
100
AcDbPolygonMesh
 66
     1
 10
0.0
 20
0.0
 30
0.0
 70
    16
 71
     6
 72
     3
  0
VERTEX
  5
6237B
100
AcDbEntity
  8
0
100
AcDbVertex
100
AcDbPolygonMeshVertex
 10
1.7652
 20
-1.6855
 30
0.187
 70
    64
  0
VERTEX
  5
6237C
100
AcDbEntity
  8
0
100
AcDbVertex
100
AcDbPolygonMeshVertex
 10
1.7652
 20
-1.6855
 30
0.0
 70
    64
  0
VERTEX
  5
6237D
100
AcDbEntity
  8
0
100
AcDbVertex
100
AcDbPolygonMeshVertex
 10
1.7652
 20
-1.6855
 30
0.0
 70
    64
  0
VERTEX
  5
6237E
100
AcDbEntity
  8
0
100
AcDbVertex
100
AcDbPolygonMeshVertex
 10
0.0052
 20
-1.6855
 30
0.187
 70
    64
  0
VERTEX
  5
6237F
100
AcDbEntity
  8
0
100
AcDbVertex
100
AcDbPolygonMeshVertex
 10
0.0052
 20
-1.6855
 30
0.0
 70
    64
  0
VERTEX
  5
62380
100
AcDbEntity
  8
0
100
AcDbVertex
100
AcDbPolygonMeshVertex
 10
0.0052
 20
-1.6855
 30
0.0
 70
    64
  0
VERTEX
  5
62381
100
AcDbEntity
  8
0
100
AcDbVertex
100
AcDbPolygonMeshVertex
 10
0.0052
 20
-1.481
 30
0.187
 70
    64
  0
VERTEX
  5
62382
100
AcDbEntity
  8
0
100
AcDbVertex
100
AcDbPolygonMeshVertex
 10
0.0052
 20
-1.481
 30
0.0
 70
    64
  0
VERTEX
  5
62383
100
AcDbEntity
  8
0
100
AcDbVertex
100
AcDbPolygonMeshVertex
 10
0.0052
 20
-1.6855
 30
0.0
 70
    64
  0
VERTEX
  5
62384
100
AcDbEntity
  8
0
100
AcDbVertex
100
AcDbPolygonMeshVertex
 10
1.7652
 20
-1.481
 30
0.187
 70
    64
  0
VERTEX
  5
62385
100
AcDbEntity
  8
0
100
AcDbVertex
100
AcDbPolygonMeshVertex
 10
1.7652
 20
-1.481
 30
0.0
 70
    64
  0
VERTEX
  5
62386
100
AcDbEntity
  8
0
100
AcDbVertex
100
AcDbPolygonMeshVertex
 10
1.7652
 20
-1.6855
 30
0.0
 70
    64
  0
VERTEX
  5
62387
100
AcDbEntity
  8
0
100
AcDbVertex
100
AcDbPolygonMeshVertex
 10
1.7652
 20
-1.481
 30
0.187
 70
    64
  0
VERTEX
  5
62388
100
AcDbEntity
  8
0
100
AcDbVertex
100
AcDbPolygonMeshVertex
 10
1.7652
 20
-1.481
 30
0.187
 70
    64
  0
VERTEX
  5
62389
100
AcDbEntity
  8
0
100
AcDbVertex
100
AcDbPolygonMeshVertex
 10
1.7652
 20
-1.6855
 30
0.187
 70
    64
  0
VERTEX
  5
6238A
100
AcDbEntity
  8
0
100
AcDbVertex
100
AcDbPolygonMeshVertex
 10
0.0052
 20
-1.481
 30
0.187
 70
    64
  0
VERTEX
  5
6238B
100
AcDbEntity
  8
0
100
AcDbVertex
100
AcDbPolygonMeshVertex
 10
0.0052
 20
-1.481
 30
0.187
 70
    64
  0
VERTEX
  5
6238C
100
AcDbEntity
  8
0
100
AcDbVertex
100
AcDbPolygonMeshVertex
 10
0.0052
 20
-1.6855
 30
0.187
 70
    64
  0
SEQEND
  5
6238D
100
AcDbEntity
  8
0
  0
POLYLINE
  5
6238E
100
AcDbEntity
  8
0
100
AcDbPolygonMesh
 66
     1
 10
0.0
 20
0.0
 30
0.0
 70
    16
 71
     6
 72
     3
  0
VERTEX
  5
6238F
100
AcDbEntity
  8
0
100
AcDbVertex
100
AcDbPolygonMeshVertex
 10
1.7652
 20
0.2045
 30
0.187
 70
    64
  0
VERTEX
  5
62390
100
AcDbEntity
  8
0
100
AcDbVertex
100
AcDbPolygonMeshVertex
 10
1.7652
 20
0.2045
 30
0.0
 70
    64
  0
VERTEX
  5
62391
100
AcDbEntity
  8
0
100
AcDbVertex
100
AcDbPolygonMeshVertex
 10
1.7652
 20
0.2045
 30
0.0
 70
    64
  0
VERTEX
  5
62392
100
AcDbEntity
  8
0
100
AcDbVertex
100
AcDbPolygonMeshVertex
 10
0.0052
 20
0.2045
 30
0.187
 70
    64
  0
VERTEX
  5
62393
100
AcDbEntity
  8
0
100
AcDbVertex
100
AcDbPolygonMeshVertex
 10
0.0052
 20
0.2045
 30
0.0
 70
    64
  0
VERTEX
  5
62394
100
AcDbEntity
  8
0
100
AcDbVertex
100
AcDbPolygonMeshVertex
 10
0.0052
 20
0.2045
 30
0.0
 70
    64
  0
VERTEX
  5
62395
100
AcDbEntity
  8
0
100
AcDbVertex
100
AcDbPolygonMeshVertex
 10
0.0052
 20
0.0
 30
0.187
 70
    64
  0
VERTEX
  5
62396
100
AcDbEntity
  8
0
100
AcDbVertex
100
AcDbPolygonMeshVertex
 10
0.0052
 20
0.0
 30
0.0
 70
    64
  0
VERTEX
  5
62397
100
AcDbEntity
  8
0
100
AcDbVertex
100
AcDbPolygonMeshVertex
 10
0.0052
 20
0.2045
 30
0.0
 70
    64
  0
VERTEX
  5
62398
100
AcDbEntity
  8
0
100
AcDbVertex
100
AcDbPolygonMeshVertex
 10
1.7652
 20
0.0
 30
0.187
 70
    64
  0
VERTEX
  5
62399
100
AcDbEntity
  8
0
100
AcDbVertex
100
AcDbPolygonMeshVertex
 10
1.7652
 20
0.0
 30
0.0
 70
    64
  0
VERTEX
  5
6239A
100
AcDbEntity
  8
0
100
AcDbVertex
100
AcDbPolygonMeshVertex
 10
1.7652
 20
0.2045
 30
0.0
 70
    64
  0
VERTEX
  5
6239B
100
AcDbEntity
  8
0
100
AcDbVertex
100
AcDbPolygonMeshVertex
 10
1.7652
 20
0.0
 30
0.187
 70
    64
  0
VERTEX
  5
6239C
100
AcDbEntity
  8
0
100
AcDbVertex
100
AcDbPolygonMeshVertex
 10
1.7652
 20
0.0
 30
0.187
 70
    64
  0
VERTEX
  5
6239D
100
AcDbEntity
  8
0
100
AcDbVertex
100
AcDbPolygonMeshVertex
 10
1.7652
 20
0.2045
 30
0.187
 70
    64
  0
VERTEX
  5
6239E
100
AcDbEntity
  8
0
100
AcDbVertex
100
AcDbPolygonMeshVertex
 10
0.0052
 20
0.0
 30
0.187
 70
    64
  0
VERTEX
  5
6239F
100
AcDbEntity
  8
0
100
AcDbVertex
100
AcDbPolygonMeshVertex
 10
0.0052
 20
0.0
 30
0.187
 70
    64
  0
VERTEX
  5
623A0
100
AcDbEntity
  8
0
100
AcDbVertex
100
AcDbPolygonMeshVertex
 10
0.0052
 20
0.2045
 30
0.187
 70
    64
  0
SEQEND
  5
623A1
100
AcDbEntity
  8
0
  0
POLYLINE
  5
623A2
100
AcDbEntity
  8
0
100
AcDbPolygonMesh
 66
     1
 10
0.0
 20
0.0
 30
0.0
 70
    16
 71
     6
 72
     3
  0
VERTEX
  5
623A3
100
AcDbEntity
  8
0
100
AcDbVertex
100
AcDbPolygonMeshVertex
 10
0.3962
 20
-2.0815
 30
0.316
 70
    64
  0
VERTEX
  5
623A4
100
AcDbEntity
  8
0
100
AcDbVertex
100
AcDbPolygonMeshVertex
 10
0.3962
 20
-2.0815
 30
0.0
 70
    64
  0
VERTEX
  5
623A5
100
AcDbEntity
  8
0
100
AcDbVertex
100
AcDbPolygonMeshVertex
 10
0.3962
 20
-2.0815
 30
0.0
 70
    64
  0
VERTEX
  5
623A6
100
AcDbEntity
  8
0
100
AcDbVertex
100
AcDbPolygonMeshVertex
 10
0.0052
 20
-2.0815
 30
0.316
 70
    64
  0
VERTEX
  5
623A7
100
AcDbEntity
  8
0
100
AcDbVertex
100
AcDbPolygonMeshVertex
 10
0.0052
 20
-2.0815
 30
0.0
 70
    64
  0
VERTEX
  5
623A8
100
AcDbEntity
  8
0
100
AcDbVertex
100
AcDbPolygonMeshVertex
 10
0.0052
 20
-2.0815
 30
0.0
 70
    64
  0
VERTEX
  5
623A9
100
AcDbEntity
  8
0
100
AcDbVertex
100
AcDbPolygonMeshVertex
 10
0.0052
 20
-1.6855
 30
0.316
 70
    64
  0
VERTEX
  5
623AA
100
AcDbEntity
  8
0
100
AcDbVertex
100
AcDbPolygonMeshVertex
 10
0.0052
 20
-1.6855
 30
0.0
 70
    64
  0
VERTEX
  5
623AB
100
AcDbEntity
  8
0
100
AcDbVertex
100
AcDbPolygonMeshVertex
 10
0.0052
 20
-2.0815
 30
0.0
 70
    64
  0
VERTEX
  5
623AC
100
AcDbEntity
  8
0
100
AcDbVertex
100
AcDbPolygonMeshVertex
 10
0.3962
 20
-1.6855
 30
0.316
 70
    64
  0
VERTEX
  5
623AD
100
AcDbEntity
  8
0
100
AcDbVertex
100
AcDbPolygonMeshVertex
 10
0.3962
 20
-1.6855
 30
0.0
 70
    64
  0
VERTEX
  5
623AE
100
AcDbEntity
  8
0
100
AcDbVertex
100
AcDbPolygonMeshVertex
 10
0.3962
 20
-2.0815
 30
0.0
 70
    64
  0
VERTEX
  5
623AF
100
AcDbEntity
  8
0
100
AcDbVertex
100
AcDbPolygonMeshVertex
 10
0.3962
 20
-1.6855
 30
0.316
 70
    64
  0
VERTEX
  5
623B0
100
AcDbEntity
  8
0
100
AcDbVertex
100
AcDbPolygonMeshVertex
 10
0.3962
 20
-1.6855
 30
0.316
 70
    64
  0
VERTEX
  5
623B1
100
AcDbEntity
  8
0
100
AcDbVertex
100
AcDbPolygonMeshVertex
 10
0.3962
 20
-2.0815
 30
0.316
 70
    64
  0
VERTEX
  5
623B2
100
AcDbEntity
  8
0
100
AcDbVertex
100
AcDbPolygonMeshVertex
 10
0.0052
 20
-1.6855
 30
0.316
 70
    64
  0
VERTEX
  5
623B3
100
AcDbEntity
  8
0
100
AcDbVertex
100
AcDbPolygonMeshVertex
 10
0.0052
 20
-1.6855
 30
0.316
 70
    64
  0
VERTEX
  5
623B4
100
AcDbEntity
  8
0
100
AcDbVertex
100
AcDbPolygonMeshVertex
 10
0.0052
 20
-2.0815
 30
0.316
 70
    64
  0
SEQEND
  5
623B5
100
AcDbEntity
  8
0
  0
POINT
  5
623B6
100
AcDbEntity
  8
SNAP_POINTS
100
AcDbPoint
 10
0.0
 20
0.0
 30
0.0
  0
3DFACE
  5
623B7
100
AcDbEntity
  8
0
100
AcDbFace
 10
1.7652
 20
-1.8455
 30
2.06
 11
1.7652
 21
-1.8455
 31
2.06
 12
0.0002
 22
-1.8455
 32
2.06
 13
0.0002
 23
-1.8455
 33
2.06
  0
3DFACE
  5
623B8
100
AcDbEntity
  8
0
100
AcDbFace
 10
0.0002
 20
-1.8455
 30
2.06
 11
0.0002
 21
-1.8455
 31
2.06
 12
0.0002
 22
-1.8455
 32
2.06
 13
0.0002
 23
0.3985
 33
2.06
  0
3DFACE
  5
623B9
100
AcDbEntity
  8
0
100
AcDbFace
 10
0.0002
 20
0.3985
 30
2.06
 11
0.0002
 21
-1.8455
 31
2.06
 12
1.7652
 22
-1.8455
 32
2.06
 13
1.7652
 23
0.3985
 33
2.06
  0
POLYLINE
  5
623BA
100
AcDbEntity
  8
0
  6
CONTINUOUS
100
AcDb3dPolyline
 66
     1
 10
0.0
 20
0.0
 30
0.0
 70
     8
  0
VERTEX
  5
623BB
100
AcDbEntity
  8
0
  6
CONTINUOUS
100
AcDbVertex
100
AcDb3dPolylineVertex
 10
1.7652
 20
0.3985
 30
2.06
 70
    32
1001
ACAD
1000
R13OBJECT
1002
{
1005
623BA
1002
}
  0
VERTEX
  5
623BC
100
AcDbEntity
  8
0
  6
CONTINUOUS
100
AcDbVertex
100
AcDb3dPolylineVertex
 10
1.7652
 20
-1.8455
 30
2.06
 70
    32
1001
ACAD
1000
R13OBJECT
1002
{
1005
623BA
1002
}
  0
SEQEND
  5
623BD
100
AcDbEntity
  8
0
  6
CONTINUOUS
1001
ACAD
1000
R13OBJECT
1002
{
1005
623BA
1002
}
  0
POLYLINE
  5
623BE
100
AcDbEntity
  8
0
  6
CONTINUOUS
100
AcDb3dPolyline
 66
     1
 10
0.0
 20
0.0
 30
0.0
 70
     8
1001
ACAD
1000
R13OBJECT
1002
{
1005
623BA
1002
}
  0
VERTEX
  5
623BF
100
AcDbEntity
  8
0
  6
CONTINUOUS
100
AcDbVertex
100
AcDb3dPolylineVertex
 10
1.7652
 20
-1.8455
 30
2.06
 70
    32
1001
ACAD
1000
R13OBJECT
1002
{
1005
623BA
1002
}
  0
VERTEX
  5
623C0
100
AcDbEntity
  8
0
  6
CONTINUOUS
100
AcDbVertex
100
AcDb3dPolylineVertex
 10
0.0002
 20
-1.8455
 30
2.06
 70
    32
1001
ACAD
1000
R13OBJECT
1002
{
1005
623BA
1002
}
  0
SEQEND
  5
623C1
100
AcDbEntity
  8
0
  6
CONTINUOUS
1001
ACAD
1000
R13OBJECT
1002
{
1005
623BA
1002
}
  0
POLYLINE
  5
623C2
100
AcDbEntity
  8
0
  6
CONTINUOUS
100
AcDb3dPolyline
 66
     1
 10
0.0
 20
0.0
 30
0.0
 70
     8
1001
ACAD
1000
R13OBJECT
1002
{
1005
623BA
1002
}
  0
VERTEX
  5
623C3
100
AcDbEntity
  8
0
  6
CONTINUOUS
100
AcDbVertex
100
AcDb3dPolylineVertex
 10
0.0002
 20
-1.8455
 30
2.06
 70
    32
1001
ACAD
1000
R13OBJECT
1002
{
1005
623BA
1002
}
  0
VERTEX
  5
623C4
100
AcDbEntity
  8
0
  6
CONTINUOUS
100
AcDbVertex
100
AcDb3dPolylineVertex
 10
0.0002
 20
0.3985
 30
2.06
 70
    32
1001
ACAD
1000
R13OBJECT
1002
{
1005
623BA
1002
}
  0
SEQEND
  5
623C5
100
AcDbEntity
  8
0
  6
CONTINUOUS
1001
ACAD
1000
R13OBJECT
1002
{
1005
623BA
1002
}
  0
POLYLINE
  5
623C6
100
AcDbEntity
  8
0
  6
CONTINUOUS
100
AcDb3dPolyline
 66
     1
 10
0.0
 20
0.0
 30
0.0
 70
     8
1001
ACAD
1000
R13OBJECT
1002
{
1005
623BA
1002
}
  0
VERTEX
  5
623C7
100
AcDbEntity
  8
0
  6
CONTINUOUS
100
AcDbVertex
100
AcDb3dPolylineVertex
 10
0.0002
 20
0.3985
 30
2.06
 70
    32
1001
ACAD
1000
R13OBJECT
1002
{
1005
623BA
1002
}
  0
VERTEX
  5
623C8
100
AcDbEntity
  8
0
  6
CONTINUOUS
100
AcDbVertex
100
AcDb3dPolylineVertex
 10
1.7652
 20
0.3985
 30
2.06
 70
    32
1001
ACAD
1000
R13OBJECT
1002
{
1005
623BA
1002
}
  0
SEQEND
  5
623C9
100
AcDbEntity
  8
0
  6
CONTINUOUS
1001
ACAD
1000
R13OBJECT
1002
{
1005
623BA
1002
}
  0
POLYLINE
  5
623CA
100
AcDbEntity
  8
0
  6
CONTINUOUS
100
AcDb3dPolyline
 66
     1
 10
0.0
 20
0.0
 30
0.0
 70
     8
  0
VERTEX
  5
623CB
100
AcDbEntity
  8
0
  6
CONTINUOUS
100
AcDbVertex
100
AcDb3dPolylineVertex
 10
0.0002
 20
-1.8455
 30
3.082
 70
    32
1001
ACAD
1000
R13OBJECT
1002
{
1005
623CA
1002
}
  0
VERTEX
  5
623CC
100
AcDbEntity
  8
0
  6
CONTINUOUS
100
AcDbVertex
100
AcDb3dPolylineVertex
 10
0.0002
 20
-1.8455
 30
2.06
 70
    32
1001
ACAD
1000
R13OBJECT
1002
{
1005
623CA
1002
}
  0
SEQEND
  5
623CD
100
AcDbEntity
  8
0
  6
CONTINUOUS
1001
ACAD
1000
R13OBJECT
1002
{
1005
623CA
1002
}
  0
POLYLINE
  5
623CE
100
AcDbEntity
  8
0
  6
CONTINUOUS
100
AcDb3dPolyline
 66
     1
 10
0.0
 20
0.0
 30
0.0
 70
     8
1001
ACAD
1000
R13OBJECT
1002
{
1005
623CA
1002
}
  0
VERTEX
  5
623CF
100
AcDbEntity
  8
0
  6
CONTINUOUS
100
AcDbVertex
100
AcDb3dPolylineVertex
 10
1.7652
 20
-1.8455
 30
2.06
 70
    32
1001
ACAD
1000
R13OBJECT
1002
{
1005
623CA
1002
}
  0
VERTEX
  5
623D0
100
AcDbEntity
  8
0
  6
CONTINUOUS
100
AcDbVertex
100
AcDb3dPolylineVertex
 10
0.0002
 20
-1.8455
 30
2.06
 70
    32
1001
ACAD
1000
R13OBJECT
1002
{
1005
623CA
1002
}
  0
SEQEND
  5
623D1
100
AcDbEntity
  8
0
  6
CONTINUOUS
1001
ACAD
1000
R13OBJECT
1002
{
1005
623CA
1002
}
  0
POLYLINE
  5
623D2
100
AcDbEntity
  8
0
  6
CONTINUOUS
100
AcDb3dPolyline
 66
     1
 10
0.0
 20
0.0
 30
0.0
 70
     8
1001
ACAD
1000
R13OBJECT
1002
{
1005
623CA
1002
}
  0
VERTEX
  5
623D3
100
AcDbEntity
  8
0
  6
CONTINUOUS
100
AcDbVertex
100
AcDb3dPolylineVertex
 10
1.7652
 20
-1.8455
 30
3.082
 70
    32
1001
ACAD
1000
R13OBJECT
1002
{
1005
623CA
1002
}
  0
VERTEX
  5
623D4
100
AcDbEntity
  8
0
  6
CONTINUOUS
100
AcDbVertex
100
AcDb3dPolylineVertex
 10
1.7652
 20
-1.8455
 30
2.06
 70
    32
1001
ACAD
1000
R13OBJECT
1002
{
1005
623CA
1002
}
  0
SEQEND
  5
623D5
100
AcDbEntity
  8
0
  6
CONTINUOUS
1001
ACAD
1000
R13OBJECT
1002
{
1005
623CA
1002
}
  0
POLYLINE
  5
623D6
100
AcDbEntity
  8
0
  6
CONTINUOUS
100
AcDb3dPolyline
 66
     1
 10
0.0
 20
0.0
 30
0.0
 70
     8
1001
ACAD
1000
R13OBJECT
1002
{
1005
623CA
1002
}
  0
VERTEX
  5
623D7
100
AcDbEntity
  8
0
  6
CONTINUOUS
100
AcDbVertex
100
AcDb3dPolylineVertex
 10
0.0002
 20
-1.8455
 30
3.082
 70
    32
1001
ACAD
1000
R13OBJECT
1002
{
1005
623CA
1002
}
  0
VERTEX
  5
623D8
100
AcDbEntity
  8
0
  6
CONTINUOUS
100
AcDbVertex
100
AcDb3dPolylineVertex
 10
1.7652
 20
-1.8455
 30
3.082
 70
    32
1001
ACAD
1000
R13OBJECT
1002
{
1005
623CA
1002
}
  0
SEQEND
  5
623D9
100
AcDbEntity
  8
0
  6
CONTINUOUS
1001
ACAD
1000
R13OBJECT
1002
{
1005
623CA
1002
}
  0
POLYLINE
  5
623DA
100
AcDbEntity
  8
0
  6
CONTINUOUS
100
AcDb3dPolyline
 66
     1
 10
0.0
 20
0.0
 30
0.0
 70
     8
  0
VERTEX
  5
623DB
100
AcDbEntity
  8
0
  6
CONTINUOUS
100
AcDbVertex
100
AcDb3dPolylineVertex
 10
1.7652
 20
0.3985
 30
3.082
 70
    32
1001
ACAD
1000
R13OBJECT
1002
{
1005
623DA
1002
}
  0
VERTEX
  5
623DC
100
AcDbEntity
  8
0
  6
CONTINUOUS
100
AcDbVertex
100
AcDb3dPolylineVertex
 10
1.7652
 20
0.3985
 30
2.06
 70
    32
1001
ACAD
1000
R13OBJECT
1002
{
1005
623DA
1002
}
  0
SEQEND
  5
623DD
100
AcDbEntity
  8
0
  6
CONTINUOUS
1001
ACAD
1000
R13OBJECT
1002
{
1005
623DA
1002
}
  0
POLYLINE
  5
623DE
100
AcDbEntity
  8
0
  6
CONTINUOUS
100
AcDb3dPolyline
 66
     1
 10
0.0
 20
0.0
 30
0.0
 70
     8
1001
ACAD
1000
R13OBJECT
1002
{
1005
623DA
1002
}
  0
VERTEX
  5
623DF
100
AcDbEntity
  8
0
  6
CONTINUOUS
100
AcDbVertex
100
AcDb3dPolylineVertex
 10
0.0002
 20
0.3985
 30
2.06
 70
    32
1001
ACAD
1000
R13OBJECT
1002
{
1005
623DA
1002
}
  0
VERTEX
  5
623E0
100
AcDbEntity
  8
0
  6
CONTINUOUS
100
AcDbVertex
100
AcDb3dPolylineVertex
 10
1.7652
 20
0.3985
 30
2.06
 70
    32
1001
ACAD
1000
R13OBJECT
1002
{
1005
623DA
1002
}
  0
SEQEND
  5
623E1
100
AcDbEntity
  8
0
  6
CONTINUOUS
1001
ACAD
1000
R13OBJECT
1002
{
1005
623DA
1002
}
  0
POLYLINE
  5
623E2
100
AcDbEntity
  8
0
  6
CONTINUOUS
100
AcDb3dPolyline
 66
     1
 10
0.0
 20
0.0
 30
0.0
 70
     8
1001
ACAD
1000
R13OBJECT
1002
{
1005
623DA
1002
}
  0
VERTEX
  5
623E3
100
AcDbEntity
  8
0
  6
CONTINUOUS
100
AcDbVertex
100
AcDb3dPolylineVertex
 10
0.0002
 20
0.3985
 30
3.082
 70
    32
1001
ACAD
1000
R13OBJECT
1002
{
1005
623DA
1002
}
  0
VERTEX
  5
623E4
100
AcDbEntity
  8
0
  6
CONTINUOUS
100
AcDbVertex
100
AcDb3dPolylineVertex
 10
0.0002
 20
0.3985
 30
2.06
 70
    32
1001
ACAD
1000
R13OBJECT
1002
{
1005
623DA
1002
}
  0
SEQEND
  5
623E5
100
AcDbEntity
  8
0
  6
CONTINUOUS
1001
ACAD
1000
R13OBJECT
1002
{
1005
623DA
1002
}
  0
POLYLINE
  5
623E6
100
AcDbEntity
  8
0
  6
CONTINUOUS
100
AcDb3dPolyline
 66
     1
 10
0.0
 20
0.0
 30
0.0
 70
     8
1001
ACAD
1000
R13OBJECT
1002
{
1005
623DA
1002
}
  0
VERTEX
  5
623E7
100
AcDbEntity
  8
0
  6
CONTINUOUS
100
AcDbVertex
100
AcDb3dPolylineVertex
 10
1.7652
 20
0.3985
 30
3.082
 70
    32
1001
ACAD
1000
R13OBJECT
1002
{
1005
623DA
1002
}
  0
VERTEX
  5
623E8
100
AcDbEntity
  8
0
  6
CONTINUOUS
100
AcDbVertex
100
AcDb3dPolylineVertex
 10
0.0002
 20
0.3985
 30
3.082
 70
    32
1001
ACAD
1000
R13OBJECT
1002
{
1005
623DA
1002
}
  0
SEQEND
  5
623E9
100
AcDbEntity
  8
0
  6
CONTINUOUS
1001
ACAD
1000
R13OBJECT
1002
{
1005
623DA
1002
}
  0
POLYLINE
  5
623EA
100
AcDbEntity
  8
0
  6
CONTINUOUS
100
AcDb3dPolyline
 66
     1
 10
0.0
 20
0.0
 30
0.0
 70
     8
  0
VERTEX
  5
623EB
100
AcDbEntity
  8
0
  6
CONTINUOUS
100
AcDbVertex
100
AcDb3dPolylineVertex
 10
1.7652
 20
-1.8455
 30
3.082
 70
    32
1001
ACAD
1000
R13OBJECT
1002
{
1005
623EA
1002
}
  0
VERTEX
  5
623EC
100
AcDbEntity
  8
0
  6
CONTINUOUS
100
AcDbVertex
100
AcDb3dPolylineVertex
 10
1.7652
 20
-1.8455
 30
2.06
 70
    32
1001
ACAD
1000
R13OBJECT
1002
{
1005
623EA
1002
}
  0
SEQEND
  5
623ED
100
AcDbEntity
  8
0
  6
CONTINUOUS
1001
ACAD
1000
R13OBJECT
1002
{
1005
623EA
1002
}
  0
POLYLINE
  5
623EE
100
AcDbEntity
  8
0
  6
CONTINUOUS
100
AcDb3dPolyline
 66
     1
 10
0.0
 20
0.0
 30
0.0
 70
     8
1001
ACAD
1000
R13OBJECT
1002
{
1005
623EA
1002
}
  0
VERTEX
  5
623EF
100
AcDbEntity
  8
0
  6
CONTINUOUS
100
AcDbVertex
100
AcDb3dPolylineVertex
 10
1.7652
 20
0.3985
 30
2.06
 70
    32
1001
ACAD
1000
R13OBJECT
1002
{
1005
623EA
1002
}
  0
VERTEX
  5
623F0
100
AcDbEntity
  8
0
  6
CONTINUOUS
100
AcDbVertex
100
AcDb3dPolylineVertex
 10
1.7652
 20
-1.8455
 30
2.06
 70
    32
1001
ACAD
1000
R13OBJECT
1002
{
1005
623EA
1002
}
  0
SEQEND
  5
623F1
100
AcDbEntity
  8
0
  6
CONTINUOUS
1001
ACAD
1000
R13OBJECT
1002
{
1005
623EA
1002
}
  0
POLYLINE
  5
623F2
100
AcDbEntity
  8
0
  6
CONTINUOUS
100
AcDb3dPolyline
 66
     1
 10
0.0
 20
0.0
 30
0.0
 70
     8
1001
ACAD
1000
R13OBJECT
1002
{
1005
623EA
1002
}
  0
VERTEX
  5
623F3
100
AcDbEntity
  8
0
  6
CONTINUOUS
100
AcDbVertex
100
AcDb3dPolylineVertex
 10
1.7652
 20
0.3985
 30
3.082
 70
    32
1001
ACAD
1000
R13OBJECT
1002
{
1005
623EA
1002
}
  0
VERTEX
  5
623F4
100
AcDbEntity
  8
0
  6
CONTINUOUS
100
AcDbVertex
100
AcDb3dPolylineVertex
 10
1.7652
 20
0.3985
 30
2.06
 70
    32
1001
ACAD
1000
R13OBJECT
1002
{
1005
623EA
1002
}
  0
SEQEND
  5
623F5
100
AcDbEntity
  8
0
  6
CONTINUOUS
1001
ACAD
1000
R13OBJECT
1002
{
1005
623EA
1002
}
  0
POLYLINE
  5
623F6
100
AcDbEntity
  8
0
  6
CONTINUOUS
100
AcDb3dPolyline
 66
     1
 10
0.0
 20
0.0
 30
0.0
 70
     8
1001
ACAD
1000
R13OBJECT
1002
{
1005
623EA
1002
}
  0
VERTEX
  5
623F7
100
AcDbEntity
  8
0
  6
CONTINUOUS
100
AcDbVertex
100
AcDb3dPolylineVertex
 10
1.7652
 20
-1.8455
 30
3.082
 70
    32
1001
ACAD
1000
R13OBJECT
1002
{
1005
623EA
1002
}
  0
VERTEX
  5
623F8
100
AcDbEntity
  8
0
  6
CONTINUOUS
100
AcDbVertex
100
AcDb3dPolylineVertex
 10
1.7652
 20
0.3985
 30
3.082
 70
    32
1001
ACAD
1000
R13OBJECT
1002
{
1005
623EA
1002
}
  0
SEQEND
  5
623F9
100
AcDbEntity
  8
0
  6
CONTINUOUS
1001
ACAD
1000
R13OBJECT
1002
{
1005
623EA
1002
}
  0
LINE
  5
623FA
100
AcDbEntity
  8
0
100
AcDbLine
 10
0.0002
 20
0.3985
 30
3.082
 11
0.0002
 21
0.3985
 31
2.06
210
-1.0
220
0.0
230
0.0
  0
LINE
  5
623FB
100
AcDbEntity
  8
0
100
AcDbLine
 10
0.0002
 20
0.3985
 30
3.082
 11
0.0002
 21
-1.8455
 31
3.082
210
-1.0
220
0.0
230
0.0
  0
LINE
  5
623FC
100
AcDbEntity
  8
0
100
AcDbLine
 10
0.0002
 20
-1.8455
 30
3.082
 11
0.0002
 21
-1.8455
 31
2.06
210
-1.0
220
0.0
230
0.0
  0
3DFACE
  5
623FD
100
AcDbEntity
  8
0
100
AcDbFace
 10
1.7652
 20
0.3985
 30
3.082
 11
1.7652
 21
-1.8455
 31
3.082
 12
0.0002
 22
-1.8455
 32
3.082
 13
0.0002
 23
0.3985
 33
3.082
  0
POLYLINE
  5
623FE
100
AcDbEntity
  8
0
100
AcDbPolygonMesh
 66
     1
 10
0.0
 20
0.0
 30
0.0
 70
    16
 71
     6
 72
     3
  0
VERTEX
  5
623FF
100
AcDbEntity
  8
0
100
AcDbVertex
100
AcDbPolygonMeshVertex
 10
1.2507
 20
-0.439486
 30
3.293
 70
    64
  0
VERTEX
  5
62400
100
AcDbEntity
  8
0
100
AcDbVertex
100
AcDbPolygonMeshVertex
 10
1.2507
 20
-0.439486
 30
3.116
 70
    64
  0
VERTEX
  5
62401
100
AcDbEntity
  8
0
100
AcDbVertex
100
AcDbPolygonMeshVertex
 10
1.2507
 20
-0.439486
 30
3.116
 70
    64
  0
VERTEX
  5
62402
100
AcDbEntity
  8
0
100
AcDbVertex
100
AcDbPolygonMeshVertex
 10
1.0812
 20
-0.439486
 30
3.293
 70
    64
  0
VERTEX
  5
62403
100
AcDbEntity
  8
0
100
AcDbVertex
100
AcDbPolygonMeshVertex
 10
1.0812
 20
-0.439486
 30
3.116
 70
    64
  0
VERTEX
  5
62404
100
AcDbEntity
  8
0
100
AcDbVertex
100
AcDbPolygonMeshVertex
 10
1.0812
 20
-0.439486
 30
3.116
 70
    64
  0
VERTEX
  5
62405
100
AcDbEntity
  8
0
100
AcDbVertex
100
AcDbPolygonMeshVertex
 10
1.0812
 20
-0.086486
 30
3.293
 70
    64
  0
VERTEX
  5
62406
100
AcDbEntity
  8
0
100
AcDbVertex
100
AcDbPolygonMeshVertex
 10
1.0812
 20
-0.086486
 30
3.116
 70
    64
  0
VERTEX
  5
62407
100
AcDbEntity
  8
0
100
AcDbVertex
100
AcDbPolygonMeshVertex
 10
1.0812
 20
-0.439486
 30
3.116
 70
    64
  0
VERTEX
  5
62408
100
AcDbEntity
  8
0
100
AcDbVertex
100
AcDbPolygonMeshVertex
 10
1.2507
 20
-0.086486
 30
3.293
 70
    64
  0
VERTEX
  5
62409
100
AcDbEntity
  8
0
100
AcDbVertex
100
AcDbPolygonMeshVertex
 10
1.2507
 20
-0.086486
 30
3.116
 70
    64
  0
VERTEX
  5
6240A
100
AcDbEntity
  8
0
100
AcDbVertex
100
AcDbPolygonMeshVertex
 10
1.2507
 20
-0.439486
 30
3.116
 70
    64
  0
VERTEX
  5
6240B
100
AcDbEntity
  8
0
100
AcDbVertex
100
AcDbPolygonMeshVertex
 10
1.2507
 20
-0.086486
 30
3.293
 70
    64
  0
VERTEX
  5
6240C
100
AcDbEntity
  8
0
100
AcDbVertex
100
AcDbPolygonMeshVertex
 10
1.2507
 20
-0.086486
 30
3.293
 70
    64
  0
VERTEX
  5
6240D
100
AcDbEntity
  8
0
100
AcDbVertex
100
AcDbPolygonMeshVertex
 10
1.2507
 20
-0.439486
 30
3.293
 70
    64
  0
VERTEX
  5
6240E
100
AcDbEntity
  8
0
100
AcDbVertex
100
AcDbPolygonMeshVertex
 10
1.0812
 20
-0.086486
 30
3.293
 70
    64
  0
VERTEX
  5
6240F
100
AcDbEntity
  8
0
100
AcDbVertex
100
AcDbPolygonMeshVertex
 10
1.0812
 20
-0.086486
 30
3.293
 70
    64
  0
VERTEX
  5
62410
100
AcDbEntity
  8
0
100
AcDbVertex
100
AcDbPolygonMeshVertex
 10
1.0812
 20
-0.439486
 30
3.293
 70
    64
  0
SEQEND
  5
62411
100
AcDbEntity
  8
0
  0
POLYLINE
  5
62412
100
AcDbEntity
  8
0
100
AcDbPolygonMesh
 66
     1
 10
0.0
 20
0.0
 30
0.0
 70
    16
 71
     6
 72
     3
  0
VERTEX
  5
62413
100
AcDbEntity
  8
0
100
AcDbVertex
100
AcDbPolygonMeshVertex
 10
1.1227
 20
-0.894486
 30
3.332
 70
    64
  0
VERTEX
  5
62414
100
AcDbEntity
  8
0
100
AcDbVertex
100
AcDbPolygonMeshVertex
 10
1.1227
 20
-0.894486
 30
3.116
 70
    64
  0
VERTEX
  5
62415
100
AcDbEntity
  8
0
100
AcDbVertex
100
AcDbPolygonMeshVertex
 10
1.1227
 20
-0.894486
 30
3.116
 70
    64
  0
VERTEX
  5
62416
100
AcDbEntity
  8
0
100
AcDbVertex
100
AcDbPolygonMeshVertex
 10
0.9877
 20
-0.894486
 30
3.332
 70
    64
  0
VERTEX
  5
62417
100
AcDbEntity
  8
0
100
AcDbVertex
100
AcDbPolygonMeshVertex
 10
0.9877
 20
-0.894486
 30
3.116
 70
    64
  0
VERTEX
  5
62418
100
AcDbEntity
  8
0
100
AcDbVertex
100
AcDbPolygonMeshVertex
 10
0.9877
 20
-0.894486
 30
3.116
 70
    64
  0
VERTEX
  5
62419
100
AcDbEntity
  8
0
100
AcDbVertex
100
AcDbPolygonMeshVertex
 10
0.9877
 20
-0.549486
 30
3.332
 70
    64
  0
VERTEX
  5
6241A
100
AcDbEntity
  8
0
100
AcDbVertex
100
AcDbPolygonMeshVertex
 10
0.9877
 20
-0.549486
 30
3.116
 70
    64
  0
VERTEX
  5
6241B
100
AcDbEntity
  8
0
100
AcDbVertex
100
AcDbPolygonMeshVertex
 10
0.9877
 20
-0.894486
 30
3.116
 70
    64
  0
VERTEX
  5
6241C
100
AcDbEntity
  8
0
100
AcDbVertex
100
AcDbPolygonMeshVertex
 10
1.1227
 20
-0.549486
 30
3.332
 70
    64
  0
VERTEX
  5
6241D
100
AcDbEntity
  8
0
100
AcDbVertex
100
AcDbPolygonMeshVertex
 10
1.1227
 20
-0.549486
 30
3.116
 70
    64
  0
VERTEX
  5
6241E
100
AcDbEntity
  8
0
100
AcDbVertex
100
AcDbPolygonMeshVertex
 10
1.1227
 20
-0.894486
 30
3.116
 70
    64
  0
VERTEX
  5
6241F
100
AcDbEntity
  8
0
100
AcDbVertex
100
AcDbPolygonMeshVertex
 10
1.1227
 20
-0.549486
 30
3.332
 70
    64
  0
VERTEX
  5
62420
100
AcDbEntity
  8
0
100
AcDbVertex
100
AcDbPolygonMeshVertex
 10
1.1227
 20
-0.549486
 30
3.332
 70
    64
  0
VERTEX
  5
62421
100
AcDbEntity
  8
0
100
AcDbVertex
100
AcDbPolygonMeshVertex
 10
1.1227
 20
-0.894486
 30
3.332
 70
    64
  0
VERTEX
  5
62422
100
AcDbEntity
  8
0
100
AcDbVertex
100
AcDbPolygonMeshVertex
 10
0.9877
 20
-0.549486
 30
3.332
 70
    64
  0
VERTEX
  5
62423
100
AcDbEntity
  8
0
100
AcDbVertex
100
AcDbPolygonMeshVertex
 10
0.9877
 20
-0.549486
 30
3.332
 70
    64
  0
VERTEX
  5
62424
100
AcDbEntity
  8
0
100
AcDbVertex
100
AcDbPolygonMeshVertex
 10
0.9877
 20
-0.894486
 30
3.332
 70
    64
  0
SEQEND
  5
62425
100
AcDbEntity
  8
0
  0
3DFACE
  5
62426
100
AcDbEntity
  8
0
100
AcDbFace
 10
1.7652
 20
0.3985
 30
3.082
 11
1.7652
 21
0.3985
 31
3.082
 12
0.0002
 22
0.3985
 32
3.082
 13
0.0002
 23
0.3985
 33
3.082
  0
CIRCLE
  5
62427
100
AcDbEntity
  8
0
100
AcDbCircle
 10
0.238075
 20
0.154908
 30
3.082
 40
0.138
  0
TEXT
  5
62428
100
AcDbEntity
  8
0
100
AcDbText
 10
0.072617
 20
0.301596
 30
3.082
 40
0.083465
  1
1
100
AcDbText
  0
TEXT
  5
62429
100
AcDbEntity
  8
0
100
AcDbText
 10
1.169566
 20
0.304736
 30
3.082
 40
0.083465
  1
L3
100
AcDbText
  0
CIRCLE
  5
6242A
100
AcDbEntity
  8
0
100
AcDbCircle
 10
0.667825
 20
0.154908
 30
3.082
 40
0.138
  0
TEXT
  5
6242B
100
AcDbEntity
  8
0
100
AcDbText
 10
0.763019
 20
0.301324
 30
3.082
 40
0.083465
  1
L2
100
AcDbText
  0
TEXT
  5
6242C
100
AcDbEntity
  8
0
100
AcDbText
 10
0.336395
 20
0.300754
 30
3.082
 40
0.083465
  1
L1
100
AcDbText
  0
TEXT
  5
6242D
100
AcDbEntity
  8
0
100
AcDbText
 10
0.523368
 20
0.299912
 30
3.082
 40
0.083465
  1
3
100
AcDbText
  0
TEXT
  5
6242E
100
AcDbEntity
  8
0
100
AcDbText
 10
0.964902
 20
0.302735
 30
3.082
 40
0.083465
  1
5
100
AcDbText
  0
CIRCLE
  5
6242F
100
AcDbEntity
  8
0
100
AcDbCircle
 10
1.097575
 20
0.154908
 30
3.082
 40
0.138
  0
TEXT
  5
62430
100
AcDbEntity
  8
0
100
AcDbText
 10
1.599316
 20
0.304736
 30
3.082
 40
0.083465
  1
NO
100
AcDbText
  0
TEXT
  5
62431
100
AcDbEntity
  8
0
100
AcDbText
 10
1.370108
 20
0.302735
 30
3.082
 40
0.083465
  1
13
100
AcDbText
  0
CIRCLE
  5
62432
100
AcDbEntity
  8
0
100
AcDbCircle
 10
1.527325
 20
0.154908
 30
3.082
 40
0.138
  0
POLYLINE
  5
62433
100
AcDbEntity
  8
0
100
AcDbPolygonMesh
 66
     1
 10
0.0
 20
0.0
 30
0.0
 70
    16
 71
     6
 72
     3
  0
VERTEX
  5
62434
100
AcDbEntity
  8
0
100
AcDbVertex
100
AcDbPolygonMeshVertex
 10
1.2707
 20
-1.376486
 30
3.282
 70
    64
  0
VERTEX
  5
62435
100
AcDbEntity
  8
0
100
AcDbVertex
100
AcDbPolygonMeshVertex
 10
1.2707
 20
-1.376486
 30
3.082
 70
    64
  0
VERTEX
  5
62436
100
AcDbEntity
  8
0
100
AcDbVertex
100
AcDbPolygonMeshVertex
 10
1.2707
 20
-1.376486
 30
3.082
 70
    64
  0
VERTEX
  5
62437
100
AcDbEntity
  8
0
100
AcDbVertex
100
AcDbPolygonMeshVertex
 10
0.4997
 20
-1.376486
 30
3.282
 70
    64
  0
VERTEX
  5
62438
100
AcDbEntity
  8
0
100
AcDbVertex
100
AcDbPolygonMeshVertex
 10
0.4997
 20
-1.376486
 30
3.082
 70
    64
  0
VERTEX
  5
62439
100
AcDbEntity
  8
0
100
AcDbVertex
100
AcDbPolygonMeshVertex
 10
0.4997
 20
-1.376486
 30
3.082
 70
    64
  0
VERTEX
  5
6243A
100
AcDbEntity
  8
0
100
AcDbVertex
100
AcDbPolygonMeshVertex
 10
0.4997
 20
-1.094486
 30
3.282
 70
    64
  0
VERTEX
  5
6243B
100
AcDbEntity
  8
0
100
AcDbVertex
100
AcDbPolygonMeshVertex
 10
0.4997
 20
-1.094486
 30
3.082
 70
    64
  0
VERTEX
  5
6243C
100
AcDbEntity
  8
0
100
AcDbVertex
100
AcDbPolygonMeshVertex
 10
0.4997
 20
-1.376486
 30
3.082
 70
    64
  0
VERTEX
  5
6243D
100
AcDbEntity
  8
0
100
AcDbVertex
100
AcDbPolygonMeshVertex
 10
1.2707
 20
-1.094486
 30
3.282
 70
    64
  0
VERTEX
  5
6243E
100
AcDbEntity
  8
0
100
AcDbVertex
100
AcDbPolygonMeshVertex
 10
1.2707
 20
-1.094486
 30
3.082
 70
    64
  0
VERTEX
  5
6243F
100
AcDbEntity
  8
0
100
AcDbVertex
100
AcDbPolygonMeshVertex
 10
1.2707
 20
-1.376486
 30
3.082
 70
    64
  0
VERTEX
  5
62440
100
AcDbEntity
  8
0
100
AcDbVertex
100
AcDbPolygonMeshVertex
 10
1.2707
 20
-1.094486
 30
3.282
 70
    64
  0
VERTEX
  5
62441
100
AcDbEntity
  8
0
100
AcDbVertex
100
AcDbPolygonMeshVertex
 10
1.2707
 20
-1.094486
 30
3.282
 70
    64
  0
VERTEX
  5
62442
100
AcDbEntity
  8
0
100
AcDbVertex
100
AcDbPolygonMeshVertex
 10
1.2707
 20
-1.376486
 30
3.282
 70
    64
  0
VERTEX
  5
62443
100
AcDbEntity
  8
0
100
AcDbVertex
100
AcDbPolygonMeshVertex
 10
0.4997
 20
-1.094486
 30
3.282
 70
    64
  0
VERTEX
  5
62444
100
AcDbEntity
  8
0
100
AcDbVertex
100
AcDbPolygonMeshVertex
 10
0.4997
 20
-1.094486
 30
3.282
 70
    64
  0
VERTEX
  5
62445
100
AcDbEntity
  8
0
100
AcDbVertex
100
AcDbPolygonMeshVertex
 10
0.4997
 20
-1.376486
 30
3.282
 70
    64
  0
SEQEND
  5
62446
100
AcDbEntity
  8
0
  0
POLYLINE
  5
62447
100
AcDbEntity
  8
0
100
AcDbPolygonMesh
 66
     1
 10
0.0
 20
0.0
 30
0.0
 70
    16
 71
     6
 72
     3
  0
VERTEX
  5
62448
100
AcDbEntity
  8
0
100
AcDbVertex
100
AcDbPolygonMeshVertex
 10
1.2507
 20
-0.439486
 30
3.116
 70
    64
  0
VERTEX
  5
62449
100
AcDbEntity
  8
0
100
AcDbVertex
100
AcDbPolygonMeshVertex
 10
1.2507
 20
-0.439486
 30
3.082
 70
    64
  0
VERTEX
  5
6244A
100
AcDbEntity
  8
0
100
AcDbVertex
100
AcDbPolygonMeshVertex
 10
1.2507
 20
-0.439486
 30
3.082
 70
    64
  0
VERTEX
  5
6244B
100
AcDbEntity
  8
0
100
AcDbVertex
100
AcDbPolygonMeshVertex
 10
0.5197
 20
-0.439486
 30
3.116
 70
    64
  0
VERTEX
  5
6244C
100
AcDbEntity
  8
0
100
AcDbVertex
100
AcDbPolygonMeshVertex
 10
0.5197
 20
-0.439486
 30
3.082
 70
    64
  0
VERTEX
  5
6244D
100
AcDbEntity
  8
0
100
AcDbVertex
100
AcDbPolygonMeshVertex
 10
0.5197
 20
-0.439486
 30
3.082
 70
    64
  0
VERTEX
  5
6244E
100
AcDbEntity
  8
0
100
AcDbVertex
100
AcDbPolygonMeshVertex
 10
0.5197
 20
-0.086486
 30
3.116
 70
    64
  0
VERTEX
  5
6244F
100
AcDbEntity
  8
0
100
AcDbVertex
100
AcDbPolygonMeshVertex
 10
0.5197
 20
-0.086486
 30
3.082
 70
    64
  0
VERTEX
  5
62450
100
AcDbEntity
  8
0
100
AcDbVertex
100
AcDbPolygonMeshVertex
 10
0.5197
 20
-0.439486
 30
3.082
 70
    64
  0
VERTEX
  5
62451
100
AcDbEntity
  8
0
100
AcDbVertex
100
AcDbPolygonMeshVertex
 10
1.2507
 20
-0.086486
 30
3.116
 70
    64
  0
VERTEX
  5
62452
100
AcDbEntity
  8
0
100
AcDbVertex
100
AcDbPolygonMeshVertex
 10
1.2507
 20
-0.086486
 30
3.082
 70
    64
  0
VERTEX
  5
62453
100
AcDbEntity
  8
0
100
AcDbVertex
100
AcDbPolygonMeshVertex
 10
1.2507
 20
-0.439486
 30
3.082
 70
    64
  0
VERTEX
  5
62454
100
AcDbEntity
  8
0
100
AcDbVertex
100
AcDbPolygonMeshVertex
 10
1.2507
 20
-0.086486
 30
3.116
 70
    64
  0
VERTEX
  5
62455
100
AcDbEntity
  8
0
100
AcDbVertex
100
AcDbPolygonMeshVertex
 10
1.2507
 20
-0.086486
 30
3.116
 70
    64
  0
VERTEX
  5
62456
100
AcDbEntity
  8
0
100
AcDbVertex
100
AcDbPolygonMeshVertex
 10
1.2507
 20
-0.439486
 30
3.116
 70
    64
  0
VERTEX
  5
62457
100
AcDbEntity
  8
0
100
AcDbVertex
100
AcDbPolygonMeshVertex
 10
0.5197
 20
-0.086486
 30
3.116
 70
    64
  0
VERTEX
  5
62458
100
AcDbEntity
  8
0
100
AcDbVertex
100
AcDbPolygonMeshVertex
 10
0.5197
 20
-0.086486
 30
3.116
 70
    64
  0
VERTEX
  5
62459
100
AcDbEntity
  8
0
100
AcDbVertex
100
AcDbPolygonMeshVertex
 10
0.5197
 20
-0.439486
 30
3.116
 70
    64
  0
SEQEND
  5
6245A
100
AcDbEntity
  8
0
  0
POLYLINE
  5
6245B
100
AcDbEntity
  8
0
100
AcDbPolygonMesh
 66
     1
 10
0.0
 20
0.0
 30
0.0
 70
    16
 71
     6
 72
     3
  0
VERTEX
  5
6245C
100
AcDbEntity
  8
0
100
AcDbVertex
100
AcDbPolygonMeshVertex
 10
0.6892
 20
-0.439486
 30
3.293
 70
    64
  0
VERTEX
  5
6245D
100
AcDbEntity
  8
0
100
AcDbVertex
100
AcDbPolygonMeshVertex
 10
0.6892
 20
-0.439486
 30
3.116
 70
    64
  0
VERTEX
  5
6245E
100
AcDbEntity
  8
0
100
AcDbVertex
100
AcDbPolygonMeshVertex
 10
0.6892
 20
-0.439486
 30
3.116
 70
    64
  0
VERTEX
  5
6245F
100
AcDbEntity
  8
0
100
AcDbVertex
100
AcDbPolygonMeshVertex
 10
0.5197
 20
-0.439486
 30
3.293
 70
    64
  0
VERTEX
  5
62460
100
AcDbEntity
  8
0
100
AcDbVertex
100
AcDbPolygonMeshVertex
 10
0.5197
 20
-0.439486
 30
3.116
 70
    64
  0
VERTEX
  5
62461
100
AcDbEntity
  8
0
100
AcDbVertex
100
AcDbPolygonMeshVertex
 10
0.5197
 20
-0.439486
 30
3.116
 70
    64
  0
VERTEX
  5
62462
100
AcDbEntity
  8
0
100
AcDbVertex
100
AcDbPolygonMeshVertex
 10
0.5197
 20
-0.086486
 30
3.293
 70
    64
  0
VERTEX
  5
62463
100
AcDbEntity
  8
0
100
AcDbVertex
100
AcDbPolygonMeshVertex
 10
0.5197
 20
-0.086486
 30
3.116
 70
    64
  0
VERTEX
  5
62464
100
AcDbEntity
  8
0
100
AcDbVertex
100
AcDbPolygonMeshVertex
 10
0.5197
 20
-0.439486
 30
3.116
 70
    64
  0
VERTEX
  5
62465
100
AcDbEntity
  8
0
100
AcDbVertex
100
AcDbPolygonMeshVertex
 10
0.6892
 20
-0.086486
 30
3.293
 70
    64
  0
VERTEX
  5
62466
100
AcDbEntity
  8
0
100
AcDbVertex
100
AcDbPolygonMeshVertex
 10
0.6892
 20
-0.086486
 30
3.116
 70
    64
  0
VERTEX
  5
62467
100
AcDbEntity
  8
0
100
AcDbVertex
100
AcDbPolygonMeshVertex
 10
0.6892
 20
-0.439486
 30
3.116
 70
    64
  0
VERTEX
  5
62468
100
AcDbEntity
  8
0
100
AcDbVertex
100
AcDbPolygonMeshVertex
 10
0.6892
 20
-0.086486
 30
3.293
 70
    64
  0
VERTEX
  5
62469
100
AcDbEntity
  8
0
100
AcDbVertex
100
AcDbPolygonMeshVertex
 10
0.6892
 20
-0.086486
 30
3.293
 70
    64
  0
VERTEX
  5
6246A
100
AcDbEntity
  8
0
100
AcDbVertex
100
AcDbPolygonMeshVertex
 10
0.6892
 20
-0.439486
 30
3.293
 70
    64
  0
VERTEX
  5
6246B
100
AcDbEntity
  8
0
100
AcDbVertex
100
AcDbPolygonMeshVertex
 10
0.5197
 20
-0.086486
 30
3.293
 70
    64
  0
VERTEX
  5
6246C
100
AcDbEntity
  8
0
100
AcDbVertex
100
AcDbPolygonMeshVertex
 10
0.5197
 20
-0.086486
 30
3.293
 70
    64
  0
VERTEX
  5
6246D
100
AcDbEntity
  8
0
100
AcDbVertex
100
AcDbPolygonMeshVertex
 10
0.5197
 20
-0.439486
 30
3.293
 70
    64
  0
SEQEND
  5
6246E
100
AcDbEntity
  8
0
  0
POLYLINE
  5
6246F
100
AcDbEntity
  8
0
100
AcDbPolygonMesh
 66
     1
 10
0.0
 20
0.0
 30
0.0
 70
    16
 71
     6
 72
     3
  0
VERTEX
  5
62470
100
AcDbEntity
  8
0
100
AcDbVertex
100
AcDbPolygonMeshVertex
 10
0.7827
 20
-0.894486
 30
3.332
 70
    64
  0
VERTEX
  5
62471
100
AcDbEntity
  8
0
100
AcDbVertex
100
AcDbPolygonMeshVertex
 10
0.7827
 20
-0.894486
 30
3.116
 70
    64
  0
VERTEX
  5
62472
100
AcDbEntity
  8
0
100
AcDbVertex
100
AcDbPolygonMeshVertex
 10
0.7827
 20
-0.894486
 30
3.116
 70
    64
  0
VERTEX
  5
62473
100
AcDbEntity
  8
0
100
AcDbVertex
100
AcDbPolygonMeshVertex
 10
0.6477
 20
-0.894486
 30
3.332
 70
    64
  0
VERTEX
  5
62474
100
AcDbEntity
  8
0
100
AcDbVertex
100
AcDbPolygonMeshVertex
 10
0.6477
 20
-0.894486
 30
3.116
 70
    64
  0
VERTEX
  5
62475
100
AcDbEntity
  8
0
100
AcDbVertex
100
AcDbPolygonMeshVertex
 10
0.6477
 20
-0.894486
 30
3.116
 70
    64
  0
VERTEX
  5
62476
100
AcDbEntity
  8
0
100
AcDbVertex
100
AcDbPolygonMeshVertex
 10
0.6477
 20
-0.549486
 30
3.332
 70
    64
  0
VERTEX
  5
62477
100
AcDbEntity
  8
0
100
AcDbVertex
100
AcDbPolygonMeshVertex
 10
0.6477
 20
-0.549486
 30
3.116
 70
    64
  0
VERTEX
  5
62478
100
AcDbEntity
  8
0
100
AcDbVertex
100
AcDbPolygonMeshVertex
 10
0.6477
 20
-0.894486
 30
3.116
 70
    64
  0
VERTEX
  5
62479
100
AcDbEntity
  8
0
100
AcDbVertex
100
AcDbPolygonMeshVertex
 10
0.7827
 20
-0.549486
 30
3.332
 70
    64
  0
VERTEX
  5
6247A
100
AcDbEntity
  8
0
100
AcDbVertex
100
AcDbPolygonMeshVertex
 10
0.7827
 20
-0.549486
 30
3.116
 70
    64
  0
VERTEX
  5
6247B
100
AcDbEntity
  8
0
100
AcDbVertex
100
AcDbPolygonMeshVertex
 10
0.7827
 20
-0.894486
 30
3.116
 70
    64
  0
VERTEX
  5
6247C
100
AcDbEntity
  8
0
100
AcDbVertex
100
AcDbPolygonMeshVertex
 10
0.7827
 20
-0.549486
 30
3.332
 70
    64
  0
VERTEX
  5
6247D
100
AcDbEntity
  8
0
100
AcDbVertex
100
AcDbPolygonMeshVertex
 10
0.7827
 20
-0.549486
 30
3.332
 70
    64
  0
VERTEX
  5
6247E
100
AcDbEntity
  8
0
100
AcDbVertex
100
AcDbPolygonMeshVertex
 10
0.7827
 20
-0.894486
 30
3.332
 70
    64
  0
VERTEX
  5
6247F
100
AcDbEntity
  8
0
100
AcDbVertex
100
AcDbPolygonMeshVertex
 10
0.6477
 20
-0.549486
 30
3.332
 70
    64
  0
VERTEX
  5
62480
100
AcDbEntity
  8
0
100
AcDbVertex
100
AcDbPolygonMeshVertex
 10
0.6477
 20
-0.549486
 30
3.332
 70
    64
  0
VERTEX
  5
62481
100
AcDbEntity
  8
0
100
AcDbVertex
100
AcDbPolygonMeshVertex
 10
0.6477
 20
-0.894486
 30
3.332
 70
    64
  0
SEQEND
  5
62482
100
AcDbEntity
  8
0
  0
TEXT
  5
62483
100
AcDbEntity
  8
0
100
AcDbText
 10
0.749721
 20
-1.819571
 30
3.082
 40
0.083465
  1
T2
100
AcDbText
  0
TEXT
  5
62484
100
AcDbEntity
  8
0
100
AcDbText
 10
0.968772
 20
-1.820413
 30
3.082
 40
0.083465
  1
6
100
AcDbText
  0
POLYLINE
  5
62485
100
AcDbEntity
  8
0
100
AcDbPolygonMesh
 66
     1
 10
0.0
 20
0.0
 30
0.0
 70
    16
 71
     6
 72
     3
  0
VERTEX
  5
62486
100
AcDbEntity
  8
0
100
AcDbVertex
100
AcDbPolygonMeshVertex
 10
1.1227
 20
-0.894486
 30
3.116
 70
    64
  0
VERTEX
  5
62487
100
AcDbEntity
  8
0
100
AcDbVertex
100
AcDbPolygonMeshVertex
 10
1.1227
 20
-0.894486
 30
3.082
 70
    64
  0
VERTEX
  5
62488
100
AcDbEntity
  8
0
100
AcDbVertex
100
AcDbPolygonMeshVertex
 10
1.1227
 20
-0.894486
 30
3.082
 70
    64
  0
VERTEX
  5
62489
100
AcDbEntity
  8
0
100
AcDbVertex
100
AcDbPolygonMeshVertex
 10
0.6477
 20
-0.894486
 30
3.116
 70
    64
  0
VERTEX
  5
6248A
100
AcDbEntity
  8
0
100
AcDbVertex
100
AcDbPolygonMeshVertex
 10
0.6477
 20
-0.894486
 30
3.082
 70
    64
  0
VERTEX
  5
6248B
100
AcDbEntity
  8
0
100
AcDbVertex
100
AcDbPolygonMeshVertex
 10
0.6477
 20
-0.894486
 30
3.082
 70
    64
  0
VERTEX
  5
6248C
100
AcDbEntity
  8
0
100
AcDbVertex
100
AcDbPolygonMeshVertex
 10
0.6477
 20
-0.549486
 30
3.116
 70
    64
  0
VERTEX
  5
6248D
100
AcDbEntity
  8
0
100
AcDbVertex
100
AcDbPolygonMeshVertex
 10
0.6477
 20
-0.549486
 30
3.082
 70
    64
  0
VERTEX
  5
6248E
100
AcDbEntity
  8
0
100
AcDbVertex
100
AcDbPolygonMeshVertex
 10
0.6477
 20
-0.894486
 30
3.082
 70
    64
  0
VERTEX
  5
6248F
100
AcDbEntity
  8
0
100
AcDbVertex
100
AcDbPolygonMeshVertex
 10
1.1227
 20
-0.549486
 30
3.116
 70
    64
  0
VERTEX
  5
62490
100
AcDbEntity
  8
0
100
AcDbVertex
100
AcDbPolygonMeshVertex
 10
1.1227
 20
-0.549486
 30
3.082
 70
    64
  0
VERTEX
  5
62491
100
AcDbEntity
  8
0
100
AcDbVertex
100
AcDbPolygonMeshVertex
 10
1.1227
 20
-0.894486
 30
3.082
 70
    64
  0
VERTEX
  5
62492
100
AcDbEntity
  8
0
100
AcDbVertex
100
AcDbPolygonMeshVertex
 10
1.1227
 20
-0.549486
 30
3.116
 70
    64
  0
VERTEX
  5
62493
100
AcDbEntity
  8
0
100
AcDbVertex
100
AcDbPolygonMeshVertex
 10
1.1227
 20
-0.549486
 30
3.116
 70
    64
  0
VERTEX
  5
62494
100
AcDbEntity
  8
0
100
AcDbVertex
100
AcDbPolygonMeshVertex
 10
1.1227
 20
-0.894486
 30
3.116
 70
    64
  0
VERTEX
  5
62495
100
AcDbEntity
  8
0
100
AcDbVertex
100
AcDbPolygonMeshVertex
 10
0.6477
 20
-0.549486
 30
3.116
 70
    64
  0
VERTEX
  5
62496
100
AcDbEntity
  8
0
100
AcDbVertex
100
AcDbPolygonMeshVertex
 10
0.6477
 20
-0.549486
 30
3.116
 70
    64
  0
VERTEX
  5
62497
100
AcDbEntity
  8
0
100
AcDbVertex
100
AcDbPolygonMeshVertex
 10
0.6477
 20
-0.894486
 30
3.116
 70
    64
  0
SEQEND
  5
62498
100
AcDbEntity
  8
0
  0
TEXT
  5
62499
100
AcDbEntity
  8
0
100
AcDbText
 10
1.168744
 20
-1.819002
 30
3.082
 40
0.083465
  1
T3
100
AcDbText
  0
TEXT
  5
6249A
100
AcDbEntity
  8
0
100
AcDbText
 10
0.325012
 20
-1.817525
 30
3.082
 40
0.083465
  1
T1
100
AcDbText
  0
CIRCLE
  5
6249B
100
AcDbEntity
  8
0
100
AcDbCircle
 10
0.238075
 20
-1.58788
 30
3.082
 40
0.138
  0
TEXT
  5
6249C
100
AcDbEntity
  8
0
100
AcDbText
 10
0.080559
 20
-1.821552
 30
3.082
 40
0.083465
  1
2
100
AcDbText
  0
TEXT
  5
6249D
100
AcDbEntity
  8
0
100
AcDbText
 10
1.598494
 20
-1.819002
 30
3.082
 40
0.083465
  1
NO
100
AcDbText
  0
TEXT
  5
6249E
100
AcDbEntity
  8
0
100
AcDbText
 10
1.398522
 20
-1.820413
 30
3.082
 40
0.083465
  1
14
100
AcDbText
  0
LWPOLYLINE
  5
6249F
100
AcDbEntity
  8
0
100
AcDbPolyline
 90
        2
 70
     0
 43
0.0
 38
2.06
 10
0.0002
 20
-1.8455
 10
0.0002
 20
0.3985
  0
POLYLINE
  5
624A0
100
AcDbEntity
  8
0
100
AcDbPolygonMesh
 66
     1
 10
0.0
 20
0.0
 30
0.0
 70
    16
 71
     6
 72
     3
  0
VERTEX
  5
624A1
100
AcDbEntity
  8
0
100
AcDbVertex
100
AcDbPolygonMeshVertex
 10
1.7652
 20
-1.8455
 30
3.082
 70
    64
  0
VERTEX
  5
624A2
100
AcDbEntity
  8
0
100
AcDbVertex
100
AcDbPolygonMeshVertex
 10
1.7652
 20
-1.8455
 30
2.06
 70
    64
  0
VERTEX
  5
624A3
100
AcDbEntity
  8
0
100
AcDbVertex
100
AcDbPolygonMeshVertex
 10
1.7652
 20
-1.8455
 30
2.06
 70
    64
  0
VERTEX
  5
624A4
100
AcDbEntity
  8
0
100
AcDbVertex
100
AcDbPolygonMeshVertex
 10
0.0002
 20
-1.8455
 30
3.082
 70
    64
  0
VERTEX
  5
624A5
100
AcDbEntity
  8
0
100
AcDbVertex
100
AcDbPolygonMeshVertex
 10
0.0002
 20
-1.8455
 30
2.06
 70
    64
  0
VERTEX
  5
624A6
100
AcDbEntity
  8
0
100
AcDbVertex
100
AcDbPolygonMeshVertex
 10
0.0002
 20
-1.8455
 30
2.06
 70
    64
  0
VERTEX
  5
624A7
100
AcDbEntity
  8
0
100
AcDbVertex
100
AcDbPolygonMeshVertex
 10
0.0002
 20
0.398971
 30
3.082
 70
    64
  0
VERTEX
  5
624A8
100
AcDbEntity
  8
0
100
AcDbVertex
100
AcDbPolygonMeshVertex
 10
0.0002
 20
0.398971
 30
2.06
 70
    64
  0
VERTEX
  5
624A9
100
AcDbEntity
  8
0
100
AcDbVertex
100
AcDbPolygonMeshVertex
 10
0.0002
 20
-1.8455
 30
2.06
 70
    64
  0
VERTEX
  5
624AA
100
AcDbEntity
  8
0
100
AcDbVertex
100
AcDbPolygonMeshVertex
 10
1.7652
 20
0.398971
 30
3.082
 70
    64
  0
VERTEX
  5
624AB
100
AcDbEntity
  8
0
100
AcDbVertex
100
AcDbPolygonMeshVertex
 10
1.7652
 20
0.398971
 30
2.06
 70
    64
  0
VERTEX
  5
624AC
100
AcDbEntity
  8
0
100
AcDbVertex
100
AcDbPolygonMeshVertex
 10
1.7652
 20
-1.8455
 30
2.06
 70
    64
  0
VERTEX
  5
624AD
100
AcDbEntity
  8
0
100
AcDbVertex
100
AcDbPolygonMeshVertex
 10
1.7652
 20
0.398971
 30
3.082
 70
    64
  0
VERTEX
  5
624AE
100
AcDbEntity
  8
0
100
AcDbVertex
100
AcDbPolygonMeshVertex
 10
1.7652
 20
0.398971
 30
3.082
 70
    64
  0
VERTEX
  5
624AF
100
AcDbEntity
  8
0
100
AcDbVertex
100
AcDbPolygonMeshVertex
 10
1.7652
 20
-1.8455
 30
3.082
 70
    64
  0
VERTEX
  5
624B0
100
AcDbEntity
  8
0
100
AcDbVertex
100
AcDbPolygonMeshVertex
 10
0.0002
 20
0.398971
 30
3.082
 70
    64
  0
VERTEX
  5
624B1
100
AcDbEntity
  8
0
100
AcDbVertex
100
AcDbPolygonMeshVertex
 10
0.0002
 20
0.398971
 30
3.082
 70
    64
  0
VERTEX
  5
624B2
100
AcDbEntity
  8
0
100
AcDbVertex
100
AcDbPolygonMeshVertex
 10
0.0002
 20
-1.8455
 30
3.082
 70
    64
  0
SEQEND
  5
624B3
100
AcDbEntity
  8
0
  0
POINT
  5
624B4
100
AcDbEntity
  8
SNAP_POINTS
100
AcDbPoint
 10
-0.00001
 20
-0.7735
 30
2.0685
  0
POLYLINE
  5
624B5
100
AcDbEntity
  8
0
100
AcDb3dPolyline
 66
     1
 10
0.0
 20
0.0
 30
0.0
 70
     8
  0
VERTEX
  5
624B6
100
AcDbEntity
  8
0
100
AcDbVertex
100
AcDb3dPolylineVertex
 10
1.76541
 20
-0.6405
 30
1.592
 70
    32
  0
VERTEX
  5
624B7
100
AcDbEntity
  8
0
100
AcDbVertex
100
AcDb3dPolylineVertex
 10
1.76541
 20
-0.6405
 30
2.165
 70
    32
  0
VERTEX
  5
624B8
100
AcDbEntity
  8
0
100
AcDbVertex
100
AcDb3dPolylineVertex
 10
1.76541
 20
-0.8065
 30
2.165
 70
    32
  0
VERTEX
  5
624B9
100
AcDbEntity
  8
0
100
AcDbVertex
100
AcDb3dPolylineVertex
 10
1.76541
 20
-0.8065
 30
1.592
 70
    32
  0
VERTEX
  5
624BA
100
AcDbEntity
  8
0
100
AcDbVertex
100
AcDb3dPolylineVertex
 10
1.76541
 20
-0.6405
 30
1.592
 70
    32
  0
SEQEND
  5
624BB
100
AcDbEntity
  8
0
  0
LINE
  5
624BC
100
AcDbEntity
  8
0
100
AcDbLine
 10
1.76541
 20
-0.8065
 30
1.8785
 11
1.76541
 21
-0.6405
 31
1.8785
  0
POINT
  5
624BD
100
AcDbEntity
  8
SNAP_POINTS
100
AcDbPoint
 10
1.76541
 20
-0.6735
 30
2.0685
  0
LINE
  5
624BE
100
AcDbEntity
  8
0
100
AcDbLine
 10
1.76541
 20
-0.8065
 30
2.0685
 11
1.76541
 21
-0.6405
 31
2.0685
  0
POINT
  5
624BF
100
AcDbEntity
  8
SNAP_POINTS
100
AcDbPoint
 10
0.8852
 20
-0.721986
 30
3.116
  0
LINE
  5
624C0
100
AcDbEntity
  8
0
100
AcDbLine
 10
1.0657
 20
-2.4055
 30
1.839
 11
1.3827
 21
-2.4055
 31
1.839
  0
LINE
  5
624C1
100
AcDbEntity
  8
0
100
AcDbLine
 10
1.3827
 20
-2.4055
 30
1.839
 11
1.3827
 21
-2.4055
 31
1.639
  0
LINE
  5
624C2
100
AcDbEntity
  8
0
100
AcDbLine
 10
1.0657
 20
-2.4055
 30
1.639
 11
1.3827
 21
-2.4055
 31
1.639
  0
LINE
  5
624C3
100
AcDbEntity
  8
0
100
AcDbLine
 10
1.0657
 20
-2.4055
 30
1.839
 11
1.0657
 21
-2.4055
 31
1.639
  0
POINT
  5
624C4
100
AcDbEntity
  8
SNAP_POINTS
100
AcDbPoint
 10
1.0657
 20
-2.4055
 30
1.639
  0
LINE
  5
624C5
100
AcDbEntity
  8
0
100
AcDbLine
 10
0.7047
 20
-2.4055
 30
1.839
 11
0.7047
 21
-2.4055
 31
1.639
  0
LINE
  5
624C6
100
AcDbEntity
  8
0
100
AcDbLine
 10
0.7047
 20
-2.4055
 30
1.639
 11
0.3877
 21
-2.4055
 31
1.639
  0
LINE
  5
624C7
100
AcDbEntity
  8
0
100
AcDbLine
 10
0.7047
 20
-2.4055
 30
1.839
 11
0.3877
 21
-2.4055
 31
1.839
  0
LINE
  5
624C8
100
AcDbEntity
  8
0
100
AcDbLine
 10
0.3877
 20
-2.4055
 30
1.839
 11
0.3877
 21
-2.4055
 31
1.639
  0
POINT
  5
624C9
100
AcDbEntity
  8
DIMS-MTG-HOLES
100
AcDbPoint
 10
0.1912
 20
-1.9345
 30
0.0
  0
POINT
  5
624CA
100
AcDbEntity
  8
DIMS-MTG-HOLES
100
AcDbPoint
 10
1.5712
 20
0.4255
 30
0.0
  0
LWPOLYLINE
  5
624CB
100
AcDbEntity
  8
0
100
AcDbPolyline
 90
        6
 70
     0
 43
0.0
 38
3.082
 10
1.507325
 20
0.291451
 10
1.507325
 20
0.174908
 10
1.447325
 20
0.174908
 10
1.447325
 20
0.134908
 10
1.507325
 20
0.134908
 10
1.507325
 20
0.018365
  0
LWPOLYLINE
  5
624CC
100
AcDbEntity
  8
0
100
AcDbPolyline
 90
        6
 70
     0
 43
0.0
 38
3.082
 10
1.547325
 20
0.291451
 10
1.547325
 20
0.174908
 10
1.607325
 20
0.174908
 10
1.607325
 20
0.134908
 10
1.547325
 20
0.134908
 10
1.547325
 20
0.018365
  0
LWPOLYLINE
  5
624CD
100
AcDbEntity
  8
0
100
AcDbPolyline
 90
        6
 70
     0
 43
0.0
 38
3.082
 10
1.077575
 20
0.291451
 10
1.077575
 20
0.174908
 10
1.017575
 20
0.174908
 10
1.017575
 20
0.134908
 10
1.077575
 20
0.134908
 10
1.077575
 20
0.018365
  0
LWPOLYLINE
  5
624CE
100
AcDbEntity
  8
0
100
AcDbPolyline
 90
        6
 70
     0
 43
0.0
 38
3.082
 10
1.117575
 20
0.291451
 10
1.117575
 20
0.174908
 10
1.177575
 20
0.174908
 10
1.177575
 20
0.134908
 10
1.117575
 20
0.134908
 10
1.117575
 20
0.018365
  0
LWPOLYLINE
  5
624CF
100
AcDbEntity
  8
0
100
AcDbPolyline
 90
        6
 70
     0
 43
0.0
 38
3.082
 10
0.687825
 20
0.291451
 10
0.687825
 20
0.174908
 10
0.747825
 20
0.174908
 10
0.747825
 20
0.134908
 10
0.687825
 20
0.134908
 10
0.687825
 20
0.018365
  0
LWPOLYLINE
  5
624D0
100
AcDbEntity
  8
0
100
AcDbPolyline
 90
        6
 70
     0
 43
0.0
 38
3.082
 10
0.647825
 20
0.291451
 10
0.647825
 20
0.174908
 10
0.587825
 20
0.174908
 10
0.587825
 20
0.134908
 10
0.647825
 20
0.134908
 10
0.647825
 20
0.018365
  0
LWPOLYLINE
  5
624D1
100
AcDbEntity
  8
0
100
AcDbPolyline
 90
        6
 70
     0
 43
0.0
 38
3.082
 10
0.258075
 20
0.291451
 10
0.258075
 20
0.174908
 10
0.318075
 20
0.174908
 10
0.318075
 20
0.134908
 10
0.258075
 20
0.134908
 10
0.258075
 20
0.018365
  0
LWPOLYLINE
  5
624D2
100
AcDbEntity
  8
0
100
AcDbPolyline
 90
        6
 70
     0
 43
0.0
 38
3.082
 10
0.218075
 20
0.291451
 10
0.218075
 20
0.174908
 10
0.158075
 20
0.174908
 10
0.158075
 20
0.134908
 10
0.218075
 20
0.134908
 10
0.218075
 20
0.018365
  0
CIRCLE
  5
624D3
100
AcDbEntity
  8
0
100
AcDbCircle
 10
0.667825
 20
-1.58788
 30
3.082
 40
0.138
  0
LWPOLYLINE
  5
624D4
100
AcDbEntity
  8
0
100
AcDbPolyline
 90
        6
 70
     0
 43
0.0
 38
3.082
 10
0.647825
 20
-1.451337
 10
0.647825
 20
-1.56788
 10
0.587825
 20
-1.56788
 10
0.587825
 20
-1.60788
 10
0.647825
 20
-1.60788
 10
0.647825
 20
-1.724423
  0
LWPOLYLINE
  5
624D5
100
AcDbEntity
  8
0
100
AcDbPolyline
 90
        6
 70
     0
 43
0.0
 38
3.082
 10
0.687825
 20
-1.451337
 10
0.687825
 20
-1.56788
 10
0.747825
 20
-1.56788
 10
0.747825
 20
-1.60788
 10
0.687825
 20
-1.60788
 10
0.687825
 20
-1.724423
  0
LWPOLYLINE
  5
624D6
100
AcDbEntity
  8
0
100
AcDbPolyline
 90
        6
 70
     0
 43
0.0
 38
3.082
 10
1.117575
 20
-1.451337
 10
1.117575
 20
-1.56788
 10
1.177575
 20
-1.56788
 10
1.177575
 20
-1.60788
 10
1.117575
 20
-1.60788
 10
1.117575
 20
-1.724423
  0
LWPOLYLINE
  5
624D7
100
AcDbEntity
  8
0
100
AcDbPolyline
 90
        6
 70
     0
 43
0.0
 38
3.082
 10
1.077575
 20
-1.451337
 10
1.077575
 20
-1.56788
 10
1.017575
 20
-1.56788
 10
1.017575
 20
-1.60788
 10
1.077575
 20
-1.60788
 10
1.077575
 20
-1.724423
  0
CIRCLE
  5
624D8
100
AcDbEntity
  8
0
100
AcDbCircle
 10
1.097575
 20
-1.58788
 30
3.082
 40
0.138
  0
LWPOLYLINE
  5
624D9
100
AcDbEntity
  8
0
100
AcDbPolyline
 90
        6
 70
     0
 43
0.0
 38
3.082
 10
1.547325
 20
-1.451337
 10
1.547325
 20
-1.56788
 10
1.607325
 20
-1.56788
 10
1.607325
 20
-1.60788
 10
1.547325
 20
-1.60788
 10
1.547325
 20
-1.724423
  0
LWPOLYLINE
  5
624DA
100
AcDbEntity
  8
0
100
AcDbPolyline
 90
        6
 70
     0
 43
0.0
 38
3.082
 10
1.507325
 20
-1.451337
 10
1.507325
 20
-1.56788
 10
1.447325
 20
-1.56788
 10
1.447325
 20
-1.60788
 10
1.507325
 20
-1.60788
 10
1.507325
 20
-1.724423
  0
CIRCLE
  5
624DB
100
AcDbEntity
  8
0
100
AcDbCircle
 10
1.527325
 20
-1.58788
 30
3.082
 40
0.138
  0
LWPOLYLINE
  5
624DC
100
AcDbEntity
  8
0
100
AcDbPolyline
 90
        6
 70
     0
 43
0.0
 38
3.082
 10
0.258075
 20
-1.451337
 10
0.258075
 20
-1.56788
 10
0.318075
 20
-1.56788
 10
0.318075
 20
-1.60788
 10
0.258075
 20
-1.60788
 10
0.258075
 20
-1.724423
  0
LWPOLYLINE
  5
624DD
100
AcDbEntity
  8
0
100
AcDbPolyline
 90
        6
 70
     0
 43
0.0
 38
3.082
 10
0.218075
 20
-1.451337
 10
0.218075
 20
-1.56788
 10
0.158075
 20
-1.56788
 10
0.158075
 20
-1.60788
 10
0.218075
 20
-1.60788
 10
0.218075
 20
-1.724423
  0
LWPOLYLINE
  5
624DE
100
AcDbEntity
  8
0
100
AcDbPolyline
 90
        6
 70
     0
 43
0.0
 38
2.06
 10
0.5262
 20
-2.068678
 10
0.5262
 20
-2.167
 10
0.4662
 20
-2.167
 10
0.4662
 20
-2.207
 10
0.5262
 20
-2.207
 10
0.5262
 20
-2.305322
  0
LWPOLYLINE
  5
624DF
100
AcDbEntity
  8
0
100
AcDbPolyline
 90
        6
 70
     0
 43
0.0
 38
2.06
 10
0.5662
 20
-2.068678
 10
0.5662
 20
-2.167
 10
0.6262
 20
-2.167
 10
0.6262
 20
-2.207
 10
0.5662
 20
-2.207
 10
0.5662
 20
-2.305322
  0
LWPOLYLINE
  5
624E0
100
AcDbEntity
  8
0
100
AcDbPolyline
 90
        6
 70
     0
 43
0.0
 38
2.06
 10
1.2442
 20
-2.068678
 10
1.2442
 20
-2.167
 10
1.3042
 20
-2.167
 10
1.3042
 20
-2.207
 10
1.2442
 20
-2.207
 10
1.2442
 20
-2.305322
  0
LWPOLYLINE
  5
624E1
100
AcDbEntity
  8
0
100
AcDbPolyline
 90
        6
 70
     0
 43
0.0
 38
2.06
 10
1.2042
 20
-2.068678
 10
1.2042
 20
-2.167
 10
1.1442
 20
-2.167
 10
1.1442
 20
-2.207
 10
1.2042
 20
-2.207
 10
1.2042
 20
-2.305322
  0
TEXT
  5
624E2
100
AcDbEntity
  8
0
100
AcDbText
 10
0.502644
 20
-1.820413
 30
3.082
 40
0.083465
  1
4
100
AcDbText
  0
DIMENSION
  5
624E3
100
AcDbEntity
  8
AREA1
100
AcDbDimension
  2
*D1
 10
-0.503678
 20
-2.4055
 30
0.0
 11
-0.503678
 21
-0.788032
 31
0.0
 70
   160
  3
ABECAD_3D
100
AcDbAlignedDimension
 13
0.6997
 23
0.7745
 33
1.386
 14
0.3327
 24
-2.4055
 34
1.386
 50
90.0
100
AcDbRotatedDimension
  0
DIMENSION
  5
624F1
100
AcDbEntity
  8
AREA1
100
AcDbDimension
  2
*D2
 10
1.7652
 20
1.155143
 30
0.0
 11
0.892959
 21
1.546386
 31
0.0
 70
   160
  3
ABECAD_3D
100
AcDbAlignedDimension
 13
0.0052
 23
0.7185
 33
0.0
 14
1.7652
 24
0.5745
 34
0.0
100
AcDbRotatedDimension
  0
LWPOLYLINE
  5
62516
100
AcDbEntity
  8
SCALE
100
AcDbPolyline
 90
        4
 70
     1
 43
0.0
 10
0.2998
 20
-2.533708
 10
1.435429
 20
-2.533708
 10
1.435429
 20
-3.375318
 10
0.2998
 20
-3.375318
  0
LINE
  5
62517
100
AcDbEntity
  8
SCALE
100
AcDbLine
 10
0.357799
 20
-2.913787
 30
0.0
 11
1.357799
 21
-2.913787
 31
0.0
  0
LINE
  5
62518
100
AcDbEntity
  8
SCALE
100
AcDbLine
 10
0.357799
 20
-3.213787
 30
0.0
 11
0.751499
 21
-3.213787
 31
0.0
  0
LINE
  5
62519
100
AcDbEntity
  8
SCALE
100
AcDbLine
 10
0.357799
 20
-3.013787
 30
0.0
 11
0.357799
 21
-2.813787
 31
0.0
  0
TEXT
  5
6251A
100
AcDbEntity
  8
SCALE
100
AcDbText
 10
0.413775
 20
-3.166102
 30
0.0
 40
0.0625
  1
[10mm]
100
AcDbText
  0
LINE
  5
6251B
100
AcDbEntity
  8
SCALE
100
AcDbLine
 10
0.357799
 20
-3.313787
 30
0.0
 11
0.357799
 21
-3.113787
 31
0.0
  0
TEXT
  5
6251C
100
AcDbEntity
  8
SCALE
100
AcDbText
 10
0.359329
 20
-2.63891
 30
0.0
 40
0.0625
  1
SCALE:
100
AcDbText
  0
LINE
  5
6251D
100
AcDbEntity
  8
SCALE
100
AcDbLine
 10
0.751499
 20
-3.313787
 30
0.0
 11
0.751499
 21
-3.113787
 31
0.0
  0
TEXT
  5
6251E
100
AcDbEntity
  8
SCALE
100
AcDbText
 10
0.721082
 20
-2.844738
 30
0.0
 40
0.0625
  1
1 Inch
100
AcDbText
  0
LINE
  5
6251F
100
AcDbEntity
  8
SCALE
100
AcDbLine
 10
1.357799
 20
-2.913787
 30
0.0
 11
1.357799
 21
-3.013787
 31
0.0
  0
LINE
  5
62520
100
AcDbEntity
  8
SCALE
100
AcDbLine
 10
1.357799
 20
-3.013787
 30
0.0
 11
1.357799
 21
-2.813787
 31
0.0
  0
VIEWPORT
  5
5677D
102
{ACAD_XDICTIONARY
360
625B9
102
}
100
AcDbEntity
 67
     1
  8
0
100
AcDbViewport
 10
5.25
 20
4.0
 30
0.0
 40
16.386862
 41
8.993
 68
    -1
 69
     1
1001
ACAD
1000
MVIEW
1002
{
1070
    16
1010
0.0
1020
0.0
1030
0.0
1010
0.0
1020
0.0
1030
1.0
1040
0.0
1040
8.993
1040
5.25
1040
4.0
1040
50.0
1040
0.0
1040
0.0
1070
     0
1070
 20000
1070
     1
1070
     1
1070
     0
1070
     0
1070
     0
1070
     0
1040
0.0
1040
0.0
1040
0.0
1040
0.5
1040
0.5
1040
0.5
1040
0.5
1070
     0
1002
{
1002
}
1002
}
  0
VIEWPORT
  5
5677F
102
{ACAD_XDICTIONARY
360
625BB
102
}
100
AcDbEntity
 67
     1
  8
AREA1
100
AcDbViewport
 10
5.25
 20
4.0
 30
0.0
 40
8.4
 41
6.4
 68
     1
 69
     2
1001
ACAD
1000
MVIEW
1002
{
1070
    16
1010
0.563444
1020
-0.880137
1030
1.686493
1010
0.0
1020
0.0
1030
1.0
1040
0.0
1040
4.582914
1040
-1.017175
1040
0.747813
1040
50.0
1040
0.0
1040
0.0
1070
     0
1070
 20000
1070
     1
1070
     1
1070
     0
1070
     0
1070
     0
1070
     0
1040
0.0
1040
0.0
1040
0.0
1040
0.25
1040
0.25
1040
0.25
1040
0.25
1070
     0
1002
{
1002
}
1002
}
  0
ENDSEC
  0
SECTION
  2
OBJECTS
  0
DICTIONARY
  5
458CB
100
AcDbDictionary
  3
ACAD_GROUP
350
458CC
  3
ACAD_LAYOUT
350
458FB
  3
ACAD_MLINESTYLE
350
458D9
  3
ACAD_PLOTSETTINGS
350
458FC
  3
ACAD_PLOTSTYLENAME
350
458F9
  3
ACDBHEADERROUNDTRIPXREC
350
62590
  3
ACDBVARIABLEDICTIONARY
350
458E1
  3
DWGPROPS
350
45901
  0
DICTIONARY
  5
6258E
100
AcDbDictionary
280
     1
  3
ACAD_XREC_ROUNDTRIP
360
6258F
  0
DICTIONARY
  5
625B7
100
AcDbDictionary
280
     1
  3
ACAD_XREC_ROUNDTRIP
360
625B8
  0
DICTIONARY
  5
6258C
100
AcDbDictionary
280
     1
  3
ACAD_XREC_ROUNDTRIP
360
6258D
  0
DICTIONARY
  5
625B3
100
AcDbDictionary
280
     1
  3
ACAD_XREC_ROUNDTRIP
360
625B4
  0
DICTIONARY
  5
4592C
100
AcDbDictionary
280
     1
  3
ACAD_LAYOUTSELFREF
360
625B2
  0
DICTIONARY
  5
4592A
100
AcDbDictionary
280
     1
  3
ACAD_LAYOUTSELFREF
360
625B1
  0
DICTIONARY
  5
625B9
100
AcDbDictionary
280
     1
  3
ACAD_XREC_ROUNDTRIP
360
625BA
  0
DICTIONARY
  5
625BB
100
AcDbDictionary
280
     1
  3
ACAD_XREC_ROUNDTRIP
360
625BC
  0
DICTIONARY
  5
458CC
102
{ACAD_REACTORS
330
458CB
102
}
100
AcDbDictionary
  0
DICTIONARY
  5
458FB
102
{ACAD_XDICTIONARY
360
625B5
102
}
102
{ACAD_REACTORS
330
458CB
102
}
100
AcDbDictionary
  3
LAYOUT1
350
458FE
  3
MODEL
350
458FD
  0
DICTIONARY
  5
458D9
102
{ACAD_REACTORS
330
458CB
102
}
100
AcDbDictionary
  3
STANDARD
350
458DA
  0
DICTIONARY
  5
458FC
102
{ACAD_REACTORS
330
458CB
102
}
100
AcDbDictionary
  0
ACAD_PROXY_OBJECT
  5
458F9
102
{ACAD_REACTORS
330
458CB
102
}
100
AcDbProxyObject
 90
      499
 91
      501
 93
       86
310
405010041939BDC9B585B1
350
458FA
340
458FA
 94
        0
  0
DICTIONARY
  5
62590
102
{ACAD_REACTORS
330
458CB
102
}
100
AcDbDictionary
  3
CEPSNTYPE
350
6259A
  3
DIMSTYLEDATA
350
6259E
  3
FINGERPRINTGUID
350
6259B
  3
HYPERLINKBASE
350
62593
  3
INSUNITS
350
62599
  3
LAYOUTDICT
350
62595
  3
LWETCUNION
350
62598
  3
PLOTSETDICT
350
62596
  3
PLOTSTYLNAMDICT
350
62597
  3
PSVPSCALE
350
6259D
  3
PUCSBASE
350
625A1
  3
PUCSORGBACK
350
625A7
  3
PUCSORGBOTTOM
350
625A3
  3
PUCSORGFRONT
350
625A6
  3
PUCSORGLEFT
350
625A4
  3
PUCSORGRIGHT
350
625A5
  3
PUCSORGTOP
350
625A2
  3
PUCSORTHOREF
350
6259F
  3
PUCSORTHOVIEW
350
625A0
  3
STYLESHEET
350
62594
  3
TSTACKALIGN
350
62591
  3
TSTACKSIZE
350
62592
  3
UCSBASE
350
625AA
  3
UCSORGBACK
350
625B0
  3
UCSORGBOTTOM
350
625AC
  3
UCSORGFRONT
350
625AF
  3
UCSORGLEFT
350
625AD
  3
UCSORGRIGHT
350
625AE
  3
UCSORGTOP
350
625AB
  3
UCSORTHOREF
350
625A8
  3
UCSORTHOVIEW
350
625A9
  3
VERSIONGUID
350
6259C
  0
DICTIONARY
  5
458E1
102
{ACAD_REACTORS
330
458CB
102
}
100
AcDbDictionary
  3
DIMADEC
350
458E2
  0
XRECORD
  5
45901
102
{ACAD_REACTORS
330
458CB
102
}
100
AcDbXrecord
  1
DWGPROPS COOKIE
  2

  3

  4

  6

  7

  8
colin
  9

300
=
301
=
302
=
303
=
304
=
305
=
306
=
307
=
308
=
309
=
 40
0.000599
 41
2451670.444777
 42
2451670.445376
  1

 90
        0
  0
XRECORD
  5
6258F
102
{ACAD_REACTORS
330
6258E
102
}
100
AcDbXrecord
102
EXTNAMES
  1
*ACTIVE
  2
*Active
102
UCS
 74
     0
 71
     1
 10
0.0
 20
0.0
 30
0.0
 10
1.0
 20
0.0
 30
0.0
 10
0.0
 20
1.0
 30
0.0
146
0.0
 79
     1
102
VIEW
281
     1
  0
XRECORD
  5
625B8
102
{ACAD_REACTORS
330
625B7
102
}
100
AcDbXrecord
102
PLOTBIT
280
     0
  0
XRECORD
  5
6258D
102
{ACAD_REACTORS
330
6258C
102
}
100
AcDbXrecord
102
EXTNAMES
  1
DEFPOINTS
  2
Defpoints
102
PLOTBIT
280
     0
  0
XRECORD
  5
625B4
102
{ACAD_REACTORS
330
625B3
102
}
100
AcDbXrecord
102
ACADR14ROUNDTRIP
1000
DSTYLE
1002
{
1070
   276
 70
     2
1070
   277
 70
     5
1070
   279
 70
     2
1070
   289
 70
     2
1002
}
  0
XRECORD
  5
625B2
102
{ACAD_REACTORS
330
4592C
102
}
100
AcDbXrecord
340
458D6
  0
XRECORD
  5
625B1
102
{ACAD_REACTORS
330
4592A
102
}
100
AcDbXrecord
340
458D3
  0
XRECORD
  5
625BA
102
{ACAD_REACTORS
330
625B9
102
}
100
AcDbXrecord
102
UCS
 74
     0
 71
     1
 10
0.0
 20
0.0
 30
0.0
 10
1.0
 20
0.0
 30
0.0
 10
0.0
 20
1.0
 30
0.0
146
0.0
 79
     0
102
VIEW
281
     0
102
NEWVIEWCONTROL
280
     4
  0
XRECORD
  5
625BC
102
{ACAD_REACTORS
330
625BB
102
}
100
AcDbXrecord
102
UCS
 74
     0
 71
     1
 10
0.0
 20
0.0
 30
0.0
 10
1.0
 20
0.0
 30
0.0
 10
0.0
 20
1.0
 30
0.0
146
0.0
 79
     1
102
VIEW
281
     1
102
NEWVIEWCONTROL
280
     4
  0
DICTIONARY
  5
625B5
100
AcDbDictionary
280
     1
  3
ACAD_XREC_ROUNDTRIP
360
625B6
  0
ACAD_PROXY_OBJECT
  5
458FE
102
{ACAD_REACTORS
330
458FB
102
}
100
AcDbProxyObject
 90
      499
 91
      503
 93
     1700
310
90B6E6F6E655F6465766963652C0080000006066661940000000181999865000000000068661940000000001A1986500000000C0CCFC6A4000000018199D9C5011C4C65747465725F28382E35305F785F31312E30305F496E6368657329A901416AA547D11959985D5B1D08148C4D081C195B88185CDCDA59DB9B595B9D1CC
310
B98DD1891069074C61796F75743140501A840201008040342FEFF7FBFDFFFFF3EFDFAFF7FBFFDFC9501008043E3FDFC8102A6A6A0000003033333C0FC000000809999E93F8FFFFFF5766E622403FFFFFEBF333071020
330
458D3
330
5677D
340
0
340
0
 94
        0
  0
ACAD_PROXY_OBJECT
  5
458FD
102
{ACAD_REACTORS
330
458FB
102
}
100
AcDbProxyObject
 90
      499
 91
      503
 93
      924
310
91D4850204C617365724A65742035303030205365726965732050434C20362C01AAAAAAAAA547D11959985D5B1D08148C4D081C195B88185CDCDA59DB9B595B9D1CCB98DD18A69054D6F64656C901A800000000000000000000000000000000000000000000A1000000000000008902A6A6AAAA2
330
458D6
330
0
340
0
340
0
 94
        0
  0
MLINESTYLE
  5
458DA
102
{ACAD_REACTORS
330
458D9
102
}
100
AcDbMlineStyle
  2
STANDARD
 70
     0
  3

 62
   256
 51
90.0
 52
90.0
 71
     2
 49
0.5
 62
   256
  6
BYLAYER
 49
-0.5
 62
   256
  6
BYLAYER
  0
ACAD_PROXY_OBJECT
  5
458FA
102
{ACAD_REACTORS
330
458F9
102
}
100
AcDbProxyObject
 90
      499
 91
      502
 93
        0
 94
        0
  0
XRECORD
  5
6259A
102
{ACAD_REACTORS
330
62590
102
}
100
AcDbXrecord
 90
        0
  0
XRECORD
  5
6259E
102
{ACAD_REACTORS
330
62590
102
}
100
AcDbXrecord
1000
DSTYLE
1002
{
1070
   276
 70
     2
1070
   277
 70
     5
1070
   279
 70
     2
1070
   289
 70
     2
1002
}
  0
XRECORD
  5
6259B
102
{ACAD_REACTORS
330
62590
102
}
100
AcDbXrecord
  1
{6E0CF4B8-225E-11D4-A150-00A0CC3303EC}
  0
XRECORD
  5
62593
102
{ACAD_REACTORS
330
62590
102
}
100
AcDbXrecord
  1

  0
XRECORD
  5
62599
102
{ACAD_REACTORS
330
62590
102
}
100
AcDbXrecord
 90
        0
  0
XRECORD
  5
62595
102
{ACAD_REACTORS
330
62590
102
}
100
AcDbXrecord
340
458FB
  0
XRECORD
  5
62598
102
{ACAD_REACTORS
330
62590
102
}
100
AcDbXrecord
 90
    14877
  0
XRECORD
  5
62596
102
{ACAD_REACTORS
330
62590
102
}
100
AcDbXrecord
340
458FC
  0
XRECORD
  5
62597
102
{ACAD_REACTORS
330
62590
102
}
100
AcDbXrecord
340
458F9
  0
XRECORD
  5
6259D
102
{ACAD_REACTORS
330
62590
102
}
100
AcDbXrecord
 40
0.0
  0
XRECORD
  5
625A1
102
{ACAD_REACTORS
330
62590
102
}
100
AcDbXrecord
340
0
  0
XRECORD
  5
625A7
102
{ACAD_REACTORS
330
62590
102
}
100
AcDbXrecord
 10
0.0
 20
0.0
 30
0.0
  0
XRECORD
  5
625A3
102
{ACAD_REACTORS
330
62590
102
}
100
AcDbXrecord
 10
0.0
 20
0.0
 30
0.0
  0
XRECORD
  5
625A6
102
{ACAD_REACTORS
330
62590
102
}
100
AcDbXrecord
 10
0.0
 20
0.0
 30
0.0
  0
XRECORD
  5
625A4
102
{ACAD_REACTORS
330
62590
102
}
100
AcDbXrecord
 10
0.0
 20
0.0
 30
0.0
  0
XRECORD
  5
625A5
102
{ACAD_REACTORS
330
62590
102
}
100
AcDbXrecord
 10
0.0
 20
0.0
 30
0.0
  0
XRECORD
  5
625A2
102
{ACAD_REACTORS
330
62590
102
}
100
AcDbXrecord
 10
0.0
 20
0.0
 30
0.0
  0
XRECORD
  5
6259F
102
{ACAD_REACTORS
330
62590
102
}
100
AcDbXrecord
340
0
  0
XRECORD
  5
625A0
102
{ACAD_REACTORS
330
62590
102
}
100
AcDbXrecord
 70
     0
  0
XRECORD
  5
62594
102
{ACAD_REACTORS
330
62590
102
}
100
AcDbXrecord
  1

  0
XRECORD
  5
62591
102
{ACAD_REACTORS
330
62590
102
}
100
AcDbXrecord
 90
        1
  0
XRECORD
  5
62592
102
{ACAD_REACTORS
330
62590
102
}
100
AcDbXrecord
 90
       70
  0
XRECORD
  5
625AA
102
{ACAD_REACTORS
330
62590
102
}
100
AcDbXrecord
340
0
  0
XRECORD
  5
625B0
102
{ACAD_REACTORS
330
62590
102
}
100
AcDbXrecord
 10
0.0
 20
0.0
 30
0.0
  0
XRECORD
  5
625AC
102
{ACAD_REACTORS
330
62590
102
}
100
AcDbXrecord
 10
0.0
 20
0.0
 30
0.0
  0
XRECORD
  5
625AF
102
{ACAD_REACTORS
330
62590
102
}
100
AcDbXrecord
 10
0.0
 20
0.0
 30
0.0
  0
XRECORD
  5
625AD
102
{ACAD_REACTORS
330
62590
102
}
100
AcDbXrecord
 10
0.0
 20
0.0
 30
0.0
  0
XRECORD
  5
625AE
102
{ACAD_REACTORS
330
62590
102
}
100
AcDbXrecord
 10
0.0
 20
0.0
 30
0.0
  0
XRECORD
  5
625AB
102
{ACAD_REACTORS
330
62590
102
}
100
AcDbXrecord
 10
0.0
 20
0.0
 30
0.0
  0
XRECORD
  5
625A8
102
{ACAD_REACTORS
330
62590
102
}
100
AcDbXrecord
340
0
  0
XRECORD
  5
625A9
102
{ACAD_REACTORS
330
62590
102
}
100
AcDbXrecord
 70
     1
  0
XRECORD
  5
6259C
102
{ACAD_REACTORS
330
62590
102
}
100
AcDbXrecord
  1
{8BB8FFCF-1B41-4B28-9BC7-25518D9DD9AC}
  0
DICTIONARYVAR
  5
458E2
102
{ACAD_REACTORS
330
458E1
102
}
100
DictionaryVariables
280
     0
  1
0
  0
XRECORD
  5
625B6
102
{ACAD_REACTORS
330
625B5
102
}
100
AcDbXrecord
102
EXTNAMES
  1
LAYOUT1
  2
Layout1
  1
MODEL
  2
Model
  0
ENDSEC
  0
EOF
