  0
SECTION
  2
HEADER
  9
$ACADVER
  1
AC1014
  9
$ACADMAINTVER
 70
     8
  9
$DWGCODEPAGE
  3
ANSI_1252
  9
$INSBASE
 10
0.0
 20
0.0
 30
0.0
  9
$EXTMIN
 10
-3.751954
 20
-7.138851
 30
0.0
  9
$EXTMAX
 10
5.807967
 20
1.214043
 30
5.71
  9
$LIMMIN
 10
0.0
 20
0.0
  9
$LIMMAX
 10
12.0
 20
9.0
  9
$ORTHOMODE
 70
     0
  9
$REGENMODE
 70
     1
  9
$FILLMODE
 70
     1
  9
$QTEXTMODE
 70
     0
  9
$MIRRTEXT
 70
     1
  9
$DRAGMODE
 70
     2
  9
$LTSCALE
 40
1.0
  9
$OSMODE
 70
    37
  9
$ATTMODE
 70
     0
  9
$TEXTSIZE
 40
0.2
  9
$TRACEWID
 40
0.05
  9
$TEXTSTYLE
  7
STANDARD
  9
$CLAYER
  8
0
  9
$CELTYPE
  6
BYLAYER
  9
$CECOLOR
 62
   256
  9
$CELTSCALE
 40
1.0
  9
$DELOBJ
 70
     1
  9
$DISPSILH
 70
     0
  9
$DIMSCALE
 40
0.0
  9
$DIMASZ
 40
0.179688
  9
$DIMEXO
 40
0.0625
  9
$DIMDLI
 40
0.375
  9
$DIMRND
 40
0.0
  9
$DIMDLE
 40
0.0
  9
$DIMEXE
 40
0.179688
  9
$DIMTP
 40
0.0
  9
$DIMTM
 40
0.0
  9
$DIMTXT
 40
0.125
  9
$DIMCEN
 40
0.089844
  9
$DIMTSZ
 40
0.0
  9
$DIMTOL
 70
     0
  9
$DIMLIM
 70
     0
  9
$DIMTIH
 70
     0
  9
$DIMTOH
 70
     0
  9
$DIMSE1
 70
     0
  9
$DIMSE2
 70
     0
  9
$DIMTAD
 70
     0
  9
$DIMZIN
 70
     4
  9
$DIMBLK
  1

  9
$DIMASO
 70
     1
  9
$DIMSHO
 70
     1
  9
$DIMPOST
  1

  9
$DIMAPOST
  1

  9
$DIMALT
 70
     1
  9
$DIMALTD
 70
     1
  9
$DIMALTF
 40
25.4
  9
$DIMLFAC
 40
1.0
  9
$DIMTOFL
 70
     0
  9
$DIMTVP
 40
0.0
  9
$DIMTIX
 70
     1
  9
$DIMSOXD
 70
     0
  9
$DIMSAH
 70
     0
  9
$DIMBLK1
  1

  9
$DIMBLK2
  1

  9
$DIMSTYLE
  2
ABECAD_3V
  9
$DIMCLRD
 70
     0
  9
$DIMCLRE
 70
     0
  9
$DIMCLRT
 70
     0
  9
$DIMTFAC
 40
1.5
  9
$DIMGAP
 40
0.09375
  9
$DIMJUST
 70
     0
  9
$DIMSD1
 70
     0
  9
$DIMSD2
 70
     0
  9
$DIMTOLJ
 70
     1
  9
$DIMTZIN
 70
     4
  9
$DIMALTZ
 70
     4
  9
$DIMALTTZ
 70
     4
  9
$DIMFIT
 70
     5
  9
$DIMUPT
 70
     0
  9
$DIMUNIT
 70
     7
  9
$DIMDEC
 70
     6
  9
$DIMTDEC
 70
     6
  9
$DIMALTU
 70
     2
  9
$DIMALTTD
 70
     1
  9
$DIMTXSTY
  7
STANDARD
  9
$DIMAUNIT
 70
     0
  9
$LUNITS
 70
     5
  9
$LUPREC
 70
     6
  9
$SKETCHINC
 40
0.1
  9
$FILLETRAD
 40
0.0
  9
$AUNITS
 70
     0
  9
$AUPREC
 70
     0
  9
$MENU
  1
acad
  9
$ELEVATION
 40
0.0
  9
$PELEVATION
 40
0.0
  9
$THICKNESS
 40
0.0
  9
$LIMCHECK
 70
     0
  9
$BLIPMODE
 70
     0
  9
$CHAMFERA
 40
0.0
  9
$CHAMFERB
 40
0.0
  9
$CHAMFERC
 40
0.0
  9
$CHAMFERD
 40
0.0
  9
$SKPOLY
 70
     0
  9
$TDCREATE
 40
2451670.441490278
  9
$TDUPDATE
 40
2452010.721687847
  9
$TDINDWG
 40
0.0145074074
  9
$TDUSRTIMER
 40
0.0145074074
  9
$USRTIMER
 70
     1
  9
$ANGBASE
 50
0.0
  9
$ANGDIR
 70
     0
  9
$PDMODE
 70
     2
  9
$PDSIZE
 40
0.0
  9
$PLINEWID
 40
0.0
  9
$COORDS
 70
     1
  9
$SPLFRAME
 70
     0
  9
$SPLINETYPE
 70
     6
  9
$SPLINESEGS
 70
     8
  9
$ATTDIA
 70
     0
  9
$ATTREQ
 70
     1
  9
$HANDLING
 70
     1
  9
$HANDSEED
  5
F5F
  9
$SURFTAB1
 70
     6
  9
$SURFTAB2
 70
     6
  9
$SURFTYPE
 70
     6
  9
$SURFU
 70
     6
  9
$SURFV
 70
     6
  9
$UCSNAME
  2

  9
$UCSORG
 10
0.0
 20
0.0
 30
0.0
  9
$UCSXDIR
 10
1.0
 20
0.0
 30
0.0
  9
$UCSYDIR
 10
0.0
 20
1.0
 30
0.0
  9
$PUCSNAME
  2

  9
$PUCSORG
 10
0.0
 20
0.0
 30
0.0
  9
$PUCSXDIR
 10
1.0
 20
0.0
 30
0.0
  9
$PUCSYDIR
 10
0.0
 20
1.0
 30
0.0
  9
$USERI1
 70
     0
  9
$USERI2
 70
     0
  9
$USERI3
 70
     0
  9
$USERI4
 70
     0
  9
$USERI5
 70
     0
  9
$USERR1
 40
0.0
  9
$USERR2
 40
0.0
  9
$USERR3
 40
0.0
  9
$USERR4
 40
0.0
  9
$USERR5
 40
0.0
  9
$WORLDVIEW
 70
     1
  9
$SHADEDGE
 70
     3
  9
$SHADEDIF
 70
    70
  9
$TILEMODE
 70
     0
  9
$MAXACTVP
 70
    16
  9
$PINSBASE
 10
0.0
 20
0.0
 30
0.0
  9
$PLIMCHECK
 70
     0
  9
$PEXTMIN
 10
0.0
 20
0.0
 30
0.0
  9
$PEXTMAX
 10
10.0
 20
7.5
 30
0.0
  9
$PLIMMIN
 10
-0.187029
 20
-0.186938
  9
$PLIMMAX
 10
10.187518
 20
7.829757
  9
$UNITMODE
 70
     0
  9
$VISRETAIN
 70
     0
  9
$PLINEGEN
 70
     0
  9
$PSLTSCALE
 70
     1
  9
$TREEDEPTH
 70
  3020
  9
$PICKSTYLE
 70
     1
  9
$CMLSTYLE
  2
STANDARD
  9
$CMLJUST
 70
     0
  9
$CMLSCALE
 40
1.0
  9
$PROXYGRAPHICS
 70
     1
  9
$MEASUREMENT
 70
     0
  0
ENDSEC
  0
SECTION
  2
CLASSES
  0
CLASS
  1
DICTIONARYVAR
  2
AcDbDictionaryVar
  3
"AutoCAD"
 90
        0
280
     0
281
     0
  0
CLASS
  1
ACDBDICTIONARYWDFLT
  2
AcDbDictionaryWithDefault
  3
AutoCAD 2000
 90
        0
280
     0
281
     0
  0
CLASS
  1
ACDBPLACEHOLDER
  2
AcDbPlaceHolder
  3
AutoCAD 2000
 90
        0
280
     0
281
     0
  0
CLASS
  1
LAYOUT
  2
AcDbLayout
  3
AutoCAD 2000
 90
        0
280
     0
281
     0
  0
CLASS
  1
LONG_TRANSACTION
  2
AcDbLongTransaction
  3
AutoCAD 2000
 90
        0
280
     0
281
     0
  0
CLASS
  1
LWPOLYLINE
  2
AcDbPolyline
  3
"AutoCAD"
 90
        0
280
     0
281
     1
  0
CLASS
  1
HATCH
  2
AcDbHatch
  3
"ACAD_SEDONA"
 90
        0
280
     0
281
     1
  0
CLASS
  1
XRECORD
  2
AcDbXrecord
  3
"<Built In>"
 90
        0
280
     0
281
     0
  0
CLASS
  1
LONG_TRANSACTION
  2
AcDbLongTransaction
  3
AutoCAD 2000
 90
        0
280
     0
281
     0
  0
CLASS
  1
LWPOLYLINE
  2
AcDbPolyline
  3
"AutoCAD"
 90
        0
280
     0
281
     1
  0
CLASS
  1
HATCH
  2
AcDbHatch
  3
"ACAD_SEDONA"
 90
        0
280
     0
281
     1
  0
CLASS
  1
XRECORD
  2
AcDbXrecord
  3
"<Built In>"
 90
        0
280
     0
281
     0
  0
CLASS
  1
LONG_TRANSACTION
  2
AcDbLongTransaction
  3
AutoCAD 2000
 90
        0
280
     0
281
     0
  0
CLASS
  1
LWPOLYLINE
  2
AcDbPolyline
  3
"AutoCAD"
 90
        0
280
     0
281
     1
  0
CLASS
  1
HATCH
  2
AcDbHatch
  3
"ACAD_SEDONA"
 90
        0
280
     0
281
     1
  0
CLASS
  1
XRECORD
  2
AcDbXrecord
  3
"<Built In>"
 90
        0
280
     0
281
     0
  0
CLASS
  1
LONG_TRANSACTION
  2
AcDbLongTransaction
  3
AutoCAD 2000
 90
        0
280
     0
281
     0
  0
CLASS
  1
LWPOLYLINE
  2
AcDbPolyline
  3
"AutoCAD"
 90
        0
280
     0
281
     1
  0
CLASS
  1
HATCH
  2
AcDbHatch
  3
"ACAD_SEDONA"
 90
        0
280
     0
281
     1
  0
CLASS
  1
XRECORD
  2
AcDbXrecord
  3
"<Built In>"
 90
        0
280
     0
281
     0
  0
CLASS
  1
LONG_TRANSACTION
  2
AcDbLongTransaction
  3
AutoCAD 2000
 90
        0
280
     0
281
     0
  0
CLASS
  1
LWPOLYLINE
  2
AcDbPolyline
  3
"AutoCAD"
 90
        0
280
     0
281
     1
  0
CLASS
  1
HATCH
  2
AcDbHatch
  3
"ACAD_SEDONA"
 90
        0
280
     0
281
     1
  0
CLASS
  1
XRECORD
  2
AcDbXrecord
  3
"<Built In>"
 90
        0
280
     0
281
     0
  0
CLASS
  1
LONG_TRANSACTION
  2
AcDbLongTransaction
  3
AutoCAD 2000
 90
        0
280
     0
281
     0
  0
CLASS
  1
LWPOLYLINE
  2
AcDbPolyline
  3
"AutoCAD"
 90
        0
280
     0
281
     1
  0
CLASS
  1
HATCH
  2
AcDbHatch
  3
"ACAD_SEDONA"
 90
        0
280
     0
281
     1
  0
CLASS
  1
XRECORD
  2
AcDbXrecord
  3
"<Built In>"
 90
        0
280
     0
281
     0
  0
CLASS
  1
LONG_TRANSACTION
  2
AcDbLongTransaction
  3
AutoCAD 2000
 90
        0
280
     0
281
     0
  0
CLASS
  1
LWPOLYLINE
  2
AcDbPolyline
  3
"AutoCAD"
 90
        0
280
     0
281
     1
  0
CLASS
  1
HATCH
  2
AcDbHatch
  3
"ACAD_SEDONA"
 90
        0
280
     0
281
     1
  0
CLASS
  1
XRECORD
  2
AcDbXrecord
  3
"<Built In>"
 90
        0
280
     0
281
     0
  0
CLASS
  1
LONG_TRANSACTION
  2
AcDbLongTransaction
  3
AutoCAD 2000
 90
        0
280
     0
281
     0
  0
CLASS
  1
LWPOLYLINE
  2
AcDbPolyline
  3
"AutoCAD"
 90
        0
280
     0
281
     1
  0
CLASS
  1
HATCH
  2
AcDbHatch
  3
"ACAD_SEDONA"
 90
        0
280
     0
281
     1
  0
CLASS
  1
XRECORD
  2
AcDbXrecord
  3
"<Built In>"
 90
        0
280
     0
281
     0
  0
CLASS
  1
LONG_TRANSACTION
  2
AcDbLongTransaction
  3
AutoCAD 2000
 90
        0
280
     0
281
     0
  0
CLASS
  1
LWPOLYLINE
  2
AcDbPolyline
  3
"AutoCAD"
 90
        0
280
     0
281
     1
  0
CLASS
  1
HATCH
  2
AcDbHatch
  3
"ACAD_SEDONA"
 90
        0
280
     0
281
     1
  0
CLASS
  1
XRECORD
  2
AcDbXrecord
  3
"<Built In>"
 90
        0
280
     0
281
     0
  0
CLASS
  1
LONG_TRANSACTION
  2
AcDbLongTransaction
  3
AutoCAD 2000
 90
        0
280
     0
281
     0
  0
CLASS
  1
LWPOLYLINE
  2
AcDbPolyline
  3
"AutoCAD"
 90
        0
280
     0
281
     1
  0
CLASS
  1
HATCH
  2
AcDbHatch
  3
"ACAD_SEDONA"
 90
        0
280
     0
281
     1
  0
CLASS
  1
XRECORD
  2
AcDbXrecord
  3
"<Built In>"
 90
        0
280
     0
281
     0
  0
CLASS
  1
LONG_TRANSACTION
  2
AcDbLongTransaction
  3
AutoCAD 2000
 90
        0
280
     0
281
     0
  0
CLASS
  1
LWPOLYLINE
  2
AcDbPolyline
  3
"AutoCAD"
 90
        0
280
     0
281
     1
  0
CLASS
  1
HATCH
  2
AcDbHatch
  3
"ACAD_SEDONA"
 90
        0
280
     0
281
     1
  0
CLASS
  1
XRECORD
  2
AcDbXrecord
  3
"<Built In>"
 90
        0
280
     0
281
     0
  0
ENDSEC
  0
SECTION
  2
TABLES
  0
TABLE
  2
VPORT
  5
469
100
AcDbSymbolTable
 70
     1
  0
VPORT
  5
D7E
102
{ACAD_XDICTIONARY
360
F25
102
}
100
AcDbSymbolTableRecord
100
AcDbViewportTableRecord
  2
*ACTIVE
 70
     0
 10
0.0
 20
0.0
 11
1.0
 21
1.0
 12
1.028007
 22
-1.198919
 13
0.0
 23
0.0
 14
1.0
 24
1.0
 15
0.0
 25
0.0
 16
0.0
 26
0.0
 36
1.0
 17
0.0
 27
0.0
 37
0.0
 40
12.058217
 41
1.819298
 42
50.0
 43
0.0
 44
0.0
 50
0.0
 51
0.0
 71
     0
 72
   100
 73
     1
 74
     1
 75
     0
 76
     0
 77
     0
 78
     0
  0
ENDTAB
  0
TABLE
  2
LTYPE
  5
466
100
AcDbSymbolTable
 70
     1
  0
LTYPE
  5
472
100
AcDbSymbolTableRecord
100
AcDbLinetypeTableRecord
  2
BYBLOCK
 70
     0
  3

 72
    65
 73
     0
 40
0.0
  0
LTYPE
  5
473
100
AcDbSymbolTableRecord
100
AcDbLinetypeTableRecord
  2
BYLAYER
 70
     0
  3

 72
    65
 73
     0
 40
0.0
  0
LTYPE
  5
474
100
AcDbSymbolTableRecord
100
AcDbLinetypeTableRecord
  2
CONTINUOUS
 70
     0
  3
Solid line
 72
    65
 73
     0
 40
0.0
  0
ENDTAB
  0
TABLE
  2
LAYER
  5
463
100
AcDbSymbolTable
 70
     8
  0
LAYER
  5
46F
100
AcDbSymbolTableRecord
100
AcDbLayerTableRecord
  2
0
 70
     0
 62
     7
  6
CONTINUOUS
  0
LAYER
  5
485
100
AcDbSymbolTableRecord
100
AcDbLayerTableRecord
  2
AREA1
 70
     0
 62
     7
  6
CONTINUOUS
  0
LAYER
  5
486
100
AcDbSymbolTableRecord
100
AcDbLayerTableRecord
  2
AREA2
 70
     0
 62
     7
  6
CONTINUOUS
  0
LAYER
  5
494
102
{ACAD_XDICTIONARY
360
F52
102
}
100
AcDbSymbolTableRecord
100
AcDbLayerTableRecord
  2
DEFPOINTS
 70
     0
 62
    -7
  6
CONTINUOUS
  0
LAYER
  5
495
100
AcDbSymbolTableRecord
100
AcDbLayerTableRecord
  2
DIMS-MTG-HOLES
 70
     0
 62
    -1
  6
CONTINUOUS
  0
LAYER
  5
4E9
100
AcDbSymbolTableRecord
100
AcDbLayerTableRecord
  2
SCALE
 70
     0
 62
    -7
  6
CONTINUOUS
  0
LAYER
  5
4EA
100
AcDbSymbolTableRecord
100
AcDbLayerTableRecord
  2
SNAP_POINTS
 70
     0
 62
    -1
  6
CONTINUOUS
  0
LAYER
  5
56D
100
AcDbSymbolTableRecord
100
AcDbLayerTableRecord
  2
ATTRIBUTES
 70
     0
 62
    -7
  6
CONTINUOUS
  0
ENDTAB
  0
TABLE
  2
STYLE
  5
464
100
AcDbSymbolTable
 70
     1
  0
STYLE
  5
470
100
AcDbSymbolTableRecord
100
AcDbTextStyleTableRecord
  2
STANDARD
 70
     0
 40
0.0
 41
1.0
 50
0.0
 71
     0
 42
0.2
  3
txt
  4

  0
ENDTAB
  0
TABLE
  2
VIEW
  5
467
100
AcDbSymbolTable
 70
     0
  0
ENDTAB
  0
TABLE
  2
UCS
  5
468
100
AcDbSymbolTable
 70
     0
  0
ENDTAB
  0
TABLE
  2
APPID
  5
46A
100
AcDbSymbolTable
 70
     2
  0
APPID
  5
471
100
AcDbSymbolTableRecord
100
AcDbRegAppTableRecord
  2
ACAD
 70
     0
  0
APPID
  5
47E
100
AcDbSymbolTableRecord
100
AcDbRegAppTableRecord
  2
AVE_RENDER
 70
     0
  0
ENDTAB
  0
TABLE
  2
DIMSTYLE
  5
46B
100
AcDbSymbolTable
 70
     3
  0
DIMSTYLE
105
496
102
{ACAD_XDICTIONARY
360
F54
102
}
100
AcDbSymbolTableRecord
100
AcDbDimStyleTableRecord
  2
ABECAD
 70
     0
  3

  4

  5

  6

  7

 40
0.0
 41
0.179688
 42
0.0625
 43
0.375
 44
0.179688
 45
0.0
 46
0.0
 47
0.0
 48
0.0
140
0.125
141
0.089844
142
0.0
143
25.4
144
1.0
145
0.0
146
1.5
147
0.09375
 71
     0
 72
     0
 73
     0
 74
     0
 75
     0
 76
     0
 77
     0
 78
     4
170
     1
171
     1
172
     0
173
     0
174
     1
175
     0
176
     0
177
     0
178
     0
270
     7
271
     6
272
     6
273
     2
274
     1
340
470
275
     0
280
     0
281
     0
282
     0
283
     1
284
     4
285
     4
286
     4
287
     5
288
     0
  0
DIMSTYLE
105
49A
102
{ACAD_XDICTIONARY
360
F56
102
}
100
AcDbSymbolTableRecord
100
AcDbDimStyleTableRecord
  2
ABECAD_3V
 70
     0
  3

  4

  5

  6

  7

 40
0.0
 41
0.179688
 42
0.0625
 43
0.375
 44
0.179688
 45
0.0
 46
0.0
 47
0.0
 48
0.0
140
0.125
141
0.089844
142
0.0
143
25.4
144
1.0
145
0.0
146
1.5
147
0.09375
 71
     0
 72
     0
 73
     0
 74
     0
 75
     0
 76
     0
 77
     0
 78
     4
170
     1
171
     1
172
     0
173
     0
174
     1
175
     0
176
     0
177
     0
178
     0
270
     7
271
     6
272
     6
273
     2
274
     1
340
470
275
     0
280
     0
281
     0
282
     0
283
     1
284
     4
285
     4
286
     4
287
     5
288
     0
  0
DIMSTYLE
105
56E
102
{ACAD_XDICTIONARY
360
F5A
102
}
102
{ACAD_REACTORS
330
929
330
92A
330
D4E
330
D4F
102
}
100
AcDbSymbolTableRecord
100
AcDbDimStyleTableRecord
  2
ABECAD_3D
 70
     0
  3

  4

  5

  6

  7

 40
1.0
 41
0.18
 42
0.0625
 43
0.375
 44
0.18
 45
0.0
 46
0.0
 47
0.0
 48
0.0
140
0.18
141
0.09
142
0.0
143
25.4
144
1.0
145
0.0
146
1.5
147
0.09
 71
     0
 72
     0
 73
     0
 74
     1
 75
     0
 76
     0
 77
     0
 78
     4
170
     1
171
     1
172
     0
173
     0
174
     0
175
     0
176
     0
177
     0
178
     0
270
     7
271
     6
272
     6
273
     2
274
     1
340
470
275
     0
280
     0
281
     0
282
     0
283
     1
284
     4
285
     4
286
     4
287
     3
288
     0
  0
ENDTAB
  0
TABLE
  2
BLOCK_RECORD
  5
462
100
AcDbSymbolTable
 70
     6
  0
BLOCK_RECORD
  5
478
102
{ACAD_XDICTIONARY
360
4D2
102
}
100
AcDbSymbolTableRecord
100
AcDbBlockTableRecord
  2
*MODEL_SPACE
  0
BLOCK_RECORD
  5
475
102
{ACAD_XDICTIONARY
360
4D0
102
}
100
AcDbSymbolTableRecord
100
AcDbBlockTableRecord
  2
*PAPER_SPACE
  0
BLOCK_RECORD
  5
545
102
{ACAD_XDICTIONARY
360
F23
102
}
100
AcDbSymbolTableRecord
100
AcDbBlockTableRecord
  2
SCALE
  0
BLOCK_RECORD
  5
553
100
AcDbSymbolTableRecord
100
AcDbBlockTableRecord
  2
*D1
  0
BLOCK_RECORD
  5
560
100
AcDbSymbolTableRecord
100
AcDbBlockTableRecord
  2
*D2
  0
BLOCK_RECORD
  5
56F
100
AcDbSymbolTableRecord
100
AcDbBlockTableRecord
  2
ABCHA110
  0
BLOCK_RECORD
  5
D50
100
AcDbSymbolTableRecord
100
AcDbBlockTableRecord
  2
*D4
  0
BLOCK_RECORD
  5
D5D
100
AcDbSymbolTableRecord
100
AcDbBlockTableRecord
  2
*D5
  0
ENDTAB
  0
ENDSEC
  0
SECTION
  2
BLOCKS
  0
BLOCK
  5
48B
100
AcDbEntity
  8
0
100
AcDbBlockBegin
  2
*MODEL_SPACE
 70
     0
 10
0.0
 20
0.0
 30
0.0
  3
*MODEL_SPACE
  1

  0
ENDBLK
  5
48C
100
AcDbEntity
  8
0
100
AcDbBlockEnd
  0
BLOCK
  5
489
100
AcDbEntity
 67
     1
  8
0
100
AcDbBlockBegin
  2
*PAPER_SPACE
 70
     0
 10
0.0
 20
0.0
 30
0.0
  3
*PAPER_SPACE
  1

  0
ENDBLK
  5
48A
100
AcDbEntity
 67
     1
  8
0
100
AcDbBlockEnd
  0
BLOCK
  5
551
100
AcDbEntity
  8
0
100
AcDbBlockBegin
  2
SCALE
 70
     0
 10
0.0
 20
0.0
 30
0.0
  3
SCALE
  1

  0
LWPOLYLINE
  5
546
100
AcDbEntity
  8
SCALE
100
AcDbPolyline
 90
        4
 70
     1
 43
0.0
 10
0.0
 20
0.0
 10
1.135629
 20
0.0
 10
1.135629
 20
-0.84161
 10
0.0
 20
-0.84161
  0
LINE
  5
547
100
AcDbEntity
  8
SCALE
100
AcDbLine
 10
0.057999
 20
-0.380078
 30
0.0
 11
1.057999
 21
-0.380078
 31
0.0
  0
LINE
  5
548
100
AcDbEntity
  8
SCALE
100
AcDbLine
 10
0.057999
 20
-0.480078
 30
0.0
 11
0.057999
 21
-0.280078
 31
0.0
  0
TEXT
  5
549
100
AcDbEntity
  8
SCALE
100
AcDbText
 10
0.117421
 20
-0.634339
 30
0.0
 40
0.0625
  1
[10mm]
100
AcDbText
  0
LINE
  5
54A
100
AcDbEntity
  8
SCALE
100
AcDbLine
 10
0.057999
 20
-0.680078
 30
0.0
 11
0.451699
 21
-0.680078
 31
0.0
  0
LINE
  5
54B
100
AcDbEntity
  8
SCALE
100
AcDbLine
 10
0.057999
 20
-0.780078
 30
0.0
 11
0.057999
 21
-0.580078
 31
0.0
  0
LINE
  5
54C
100
AcDbEntity
  8
SCALE
100
AcDbLine
 10
0.451699
 20
-0.780078
 30
0.0
 11
0.451699
 21
-0.580078
 31
0.0
  0
TEXT
  5
54D
100
AcDbEntity
  8
SCALE
100
AcDbText
 10
0.059529
 20
-0.105201
 30
0.0
 40
0.0625
  1
SCALE:
100
AcDbText
  0
TEXT
  5
54E
100
AcDbEntity
  8
SCALE
100
AcDbText
 10
0.421282
 20
-0.31103
 30
0.0
 40
0.0625
  1
1 Inch
100
AcDbText
  0
LINE
  5
54F
100
AcDbEntity
  8
SCALE
100
AcDbLine
 10
1.057999
 20
-0.480078
 30
0.0
 11
1.057999
 21
-0.280078
 31
0.0
  0
LINE
  5
550
100
AcDbEntity
  8
SCALE
100
AcDbLine
 10
1.057999
 20
-0.380078
 30
0.0
 11
1.057999
 21
-0.480078
 31
0.0
  0
ENDBLK
  5
552
100
AcDbEntity
  8
0
100
AcDbBlockEnd
  0
BLOCK
  5
55E
100
AcDbEntity
  8
0
100
AcDbBlockBegin
  2
*D1
 70
     1
 10
0.0
 20
0.0
 30
0.0
  3
*D1
  1

  0
LINE
  5
554
100
AcDbEntity
  8
AREA1
 62
     0
100
AcDbLine
 10
3.0395
 20
-6.47
 30
0.0
 11
5.807967
 21
-6.47
 31
0.0
1001
ACAD
1000
RTLwPs
1070
   158
  0
LINE
  5
555
100
AcDbEntity
  8
AREA1
 62
     0
100
AcDbLine
 10
3.0395
 20
0.26
 30
0.0
 11
5.807967
 21
0.26
 31
0.0
1001
ACAD
1000
RTLwPs
1070
   158
  0
LINE
  5
556
100
AcDbEntity
  8
AREA1
 62
     0
100
AcDbLine
 10
5.627967
 20
-6.29
 30
0.0
 11
5.627967
 21
-4.35
 31
0.0
1001
ACAD
1000
RTLwPs
1070
   158
  0
LINE
  5
557
100
AcDbEntity
  8
AREA1
 62
     0
100
AcDbLine
 10
5.627967
 20
0.08
 30
0.0
 11
5.627967
 21
-1.86
 31
0.0
1001
ACAD
1000
RTLwPs
1070
   158
  0
SOLID
  5
558
100
AcDbEntity
  8
AREA1
 62
     0
100
AcDbTrace
 10
5.597967
 20
-6.29
 30
0.0
 11
5.657967
 21
-6.29
 31
0.0
 12
5.627967
 22
-6.47
 32
0.0
 13
5.627967
 23
-6.47
 33
0.0
  0
SOLID
  5
559
100
AcDbEntity
  8
AREA1
 62
     0
100
AcDbTrace
 10
5.597967
 20
0.08
 30
0.0
 11
5.657967
 21
0.08
 31
0.0
 12
5.627967
 22
0.26
 32
0.0
 13
5.627967
 23
0.26
 33
0.0
  0
MTEXT
  5
55A
100
AcDbEntity
  8
AREA1
 62
     0
100
AcDbMText
 10
5.627967
 20
-3.105
 30
0.0
 40
0.18
 41
0.0
 71
     5
 72
     1
  1
\A1;6 47/64 [170.9]
 11
0.0
 21
1.0
 31
0.0
1001
ACAD
1000
MTEXTBEGIN
1070
    73
1070
     1
1070
    44
1040
1.0
1070
    74
1070
     0
1000
MTEXTEND
1000
MTEXTBEGIN
1070
    73
1070
     1
1070
    44
1040
1.0
1070
    74
1070
     0
1000
MTEXTEND
1000
MTEXTBEGIN
1070
    73
1070
     1
1070
    44
1040
1.0
1070
    74
1070
     0
1000
MTEXTEND
1000
MTEXTBEGIN
1070
    73
1070
     1
1070
    44
1040
1.0
1070
    74
1070
     0
1000
MTEXTEND
1000
MTEXTBEGIN
1070
    73
1070
     1
1070
    44
1040
1.0
1070
    74
1070
     0
1000
MTEXTEND
1000
MTEXTBEGIN
1070
    73
1070
     1
1070
    44
1040
1.0
1070
    74
1070
     0
1000
MTEXTEND
1000
MTEXTBEGIN
1070
    73
1070
     1
1070
    44
1040
1.0
1070
    74
1070
     0
1000
MTEXTEND
1000
MTEXTBEGIN
1070
    73
1070
     1
1070
    44
1040
1.0
1070
    74
1070
     0
1000
MTEXTEND
1000
MTEXTBEGIN
1070
    73
1070
     1
1070
    44
1040
1.0
1070
    74
1070
     0
1000
MTEXTEND
1000
MTEXTBEGIN
1070
    73
1070
     1
1070
    44
1040
1.0
1070
    74
1070
     0
1000
MTEXTEND
1000
MTEXTBEGIN
1070
    73
1070
     1
1070
    44
1040
1.0
1070
    74
1070
     0
1000
MTEXTEND
  0
POINT
  5
55B
100
AcDbEntity
  8
DEFPOINTS
 62
     0
100
AcDbPoint
 10
2.977
 20
-6.47
 30
0.0
  0
POINT
  5
55C
100
AcDbEntity
  8
DEFPOINTS
 62
     0
100
AcDbPoint
 10
2.977
 20
0.26
 30
0.0
  0
POINT
  5
55D
100
AcDbEntity
  8
DEFPOINTS
 62
     0
100
AcDbPoint
 10
5.627967
 20
0.26
 30
0.0
  0
ENDBLK
  5
55F
100
AcDbEntity
  8
0
100
AcDbBlockEnd
  0
BLOCK
  5
56B
100
AcDbEntity
  8
0
100
AcDbBlockBegin
  2
*D2
 70
     1
 10
0.0
 20
0.0
 30
0.0
  3
*D2
  1

  0
LINE
  5
561
100
AcDbEntity
  8
AREA1
 62
     0
100
AcDbLine
 10
4.53
 20
-0.3475
 30
0.0
 11
4.53
 21
1.214043
 31
0.0
1001
ACAD
1000
RTLwPs
1070
   158
  0
LINE
  5
562
100
AcDbEntity
  8
AREA1
 62
     0
100
AcDbLine
 10
-2.57
 20
-0.3475
 30
0.0
 11
-2.57
 21
1.214043
 31
0.0
1001
ACAD
1000
RTLwPs
1070
   158
  0
LINE
  5
563
100
AcDbEntity
  8
AREA1
 62
     0
100
AcDbLine
 10
4.35
 20
1.034043
 30
0.0
 11
2.135
 21
1.034043
 31
0.0
1001
ACAD
1000
RTLwPs
1070
   158
  0
LINE
  5
564
100
AcDbEntity
  8
AREA1
 62
     0
100
AcDbLine
 10
-2.39
 20
1.034043
 30
0.0
 11
-0.175
 21
1.034043
 31
0.0
1001
ACAD
1000
RTLwPs
1070
   158
  0
SOLID
  5
565
100
AcDbEntity
  8
AREA1
 62
     0
100
AcDbTrace
 10
4.35
 20
1.064043
 30
0.0
 11
4.35
 21
1.004043
 31
0.0
 12
4.53
 22
1.034043
 32
0.0
 13
4.53
 23
1.034043
 33
0.0
  0
SOLID
  5
566
100
AcDbEntity
  8
AREA1
 62
     0
100
AcDbTrace
 10
-2.39
 20
1.064043
 30
0.0
 11
-2.39
 21
1.004043
 31
0.0
 12
-2.57
 22
1.034043
 32
0.0
 13
-2.57
 23
1.034043
 33
0.0
  0
MTEXT
  5
567
100
AcDbEntity
  8
AREA1
 62
     0
100
AcDbMText
 10
0.98
 20
1.034043
 30
0.0
 40
0.18
 41
0.0
 71
     5
 72
     1
  1
\A1;7 3/32 [180.3]
1001
ACAD
1000
MTEXTBEGIN
1070
    73
1070
     1
1070
    44
1040
1.0
1070
    74
1070
     0
1000
MTEXTEND
1000
MTEXTBEGIN
1070
    73
1070
     1
1070
    44
1040
1.0
1070
    74
1070
     0
1000
MTEXTEND
1000
MTEXTBEGIN
1070
    73
1070
     1
1070
    44
1040
1.0
1070
    74
1070
     0
1000
MTEXTEND
1000
MTEXTBEGIN
1070
    73
1070
     1
1070
    44
1040
1.0
1070
    74
1070
     0
1000
MTEXTEND
1000
MTEXTBEGIN
1070
    73
1070
     1
1070
    44
1040
1.0
1070
    74
1070
     0
1000
MTEXTEND
1000
MTEXTBEGIN
1070
    73
1070
     1
1070
    44
1040
1.0
1070
    74
1070
     0
1000
MTEXTEND
1000
MTEXTBEGIN
1070
    73
1070
     1
1070
    44
1040
1.0
1070
    74
1070
     0
1000
MTEXTEND
1000
MTEXTBEGIN
1070
    73
1070
     1
1070
    44
1040
1.0
1070
    74
1070
     0
1000
MTEXTEND
1000
MTEXTBEGIN
1070
    73
1070
     1
1070
    44
1040
1.0
1070
    74
1070
     0
1000
MTEXTEND
1000
MTEXTBEGIN
1070
    73
1070
     1
1070
    44
1040
1.0
1070
    74
1070
     0
1000
MTEXTEND
1000
MTEXTBEGIN
1070
    73
1070
     1
1070
    44
1040
1.0
1070
    74
1070
     0
1000
MTEXTEND
  0
POINT
  5
568
100
AcDbEntity
  8
DEFPOINTS
 62
     0
100
AcDbPoint
 10
4.53
 20
-0.41
 30
0.0
  0
POINT
  5
569
100
AcDbEntity
  8
DEFPOINTS
 62
     0
100
AcDbPoint
 10
-2.57
 20
-0.41
 30
0.0
  0
POINT
  5
56A
100
AcDbEntity
  8
DEFPOINTS
 62
     0
100
AcDbPoint
 10
-2.57
 20
1.034043
 30
0.0
  0
ENDBLK
  5
56C
100
AcDbEntity
  8
0
100
AcDbBlockEnd
  0
BLOCK
  5
92B
100
AcDbEntity
  8
0
100
AcDbBlockBegin
  2
ABCHA110
 70
     2
 10
0.0
 20
0.0
 30
0.0
  3
ABCHA110
  1

  0
ATTDEF
  5
570
100
AcDbEntity
  8
ATTRIBUTES
100
AcDbText
 10
-2.47415
 20
-2.749086
 30
0.0
 40
0.18
  1
ALLEN-BRADLEY
100
AcDbAttributeDefinition
  3
MANUFACTURER NAME?
  2
AC_VND_LABEL
 70
     1
  0
ATTDEF
  5
571
100
AcDbEntity
  8
ATTRIBUTES
100
AcDbText
 10
-2.47415
 20
-3.124086
 30
0.0
 40
0.18
  1
1746-A4
100
AcDbAttributeDefinition
  3
CATALOG NUMBER?
  2
AC_PART_NO
 70
     1
  0
ATTDEF
  5
572
100
AcDbEntity
  8
ATTRIBUTES
100
AcDbText
 10
-2.47415
 20
-3.499086
 30
0.0
 40
0.18
  1
1746-A4:4-SLOT RACK, MODULAR HARDWARE STYLE
100
AcDbAttributeDefinition
  3
PART DESCRIPTION?
  2
AC_DESCRIPTION
 70
     1
  0
ATTDEF
  5
573
100
AcDbEntity
  8
ATTRIBUTES
100
AcDbText
 10
-2.47415
 20
-3.874086
 30
0.0
 40
0.18
  1

100
AcDbAttributeDefinition
  3
DEVICE ID?
  2
DEVICE_ID
 70
     1
  0
ATTDEF
  5
574
100
AcDbEntity
  8
ATTRIBUTES
100
AcDbText
 10
-2.47415
 20
-4.249086
 30
0.0
 40
0.18
  1

100
AcDbAttributeDefinition
  3
CUSTOMER PART NUMBER?
  2
AC_CPART_NO
 70
     1
  0
ATTDEF
  5
575
100
AcDbEntity
  8
ATTRIBUTES
100
AcDbText
 10
-2.47415
 20
-4.624086
 30
0.0
 40
0.18
  1

100
AcDbAttributeDefinition
  3
CUSTOMER NOTE?
  2
AC_NOTE
 70
     1
  0
ATTDEF
  5
576
100
AcDbEntity
  8
ATTRIBUTES
100
AcDbText
 10
-2.47415
 20
-4.999086
 30
0.0
 40
0.18
  1

100
AcDbAttributeDefinition
  3
FASTENER DATA?
  2
FASTENER
 70
     1
  0
ATTDEF
  5
577
100
AcDbEntity
  8
ATTRIBUTES
100
AcDbText
 10
-2.47415
 20
-5.374086
 30
0.0
 40
0.18
  1
INCH
100
AcDbAttributeDefinition
  3
UNIT OF SCALE?
  2
AC_SCALE_UNIT
 70
     1
  0
ATTDEF
  5
578
100
AcDbEntity
  8
ATTRIBUTES
100
AcDbText
 10
-2.47415
 20
-5.749086
 30
0.0
 40
0.18
  1
0
100
AcDbAttributeDefinition
  3
VIEW CODE?
  2
AC_VIEW_CODE
 70
     1
  0
INSERT
  5
579
100
AcDbEntity
  8
SCALE
100
AcDbBlockReference
  2
SCALE
 10
-2.540908
 20
-6.297241
 30
0.0
  0
POLYLINE
  5
57A
100
AcDbEntity
  8
0
100
AcDbPolygonMesh
 66
     1
 10
0.0
 20
0.0
 30
0.0
 70
    16
 71
     6
 72
     3
  0
VERTEX
  5
57B
100
AcDbEntity
  8
0
100
AcDbVertex
100
AcDbPolygonMeshVertex
 10
4.13
 20
-0.41
 30
3.85
 70
    64
  0
VERTEX
  5
57C
100
AcDbEntity
  8
0
100
AcDbVertex
100
AcDbPolygonMeshVertex
 10
4.13
 20
-0.41
 30
0.0
 70
    64
  0
VERTEX
  5
57D
100
AcDbEntity
  8
0
100
AcDbVertex
100
AcDbPolygonMeshVertex
 10
4.13
 20
-0.41
 30
0.0
 70
    64
  0
VERTEX
  5
57E
100
AcDbEntity
  8
0
100
AcDbVertex
100
AcDbPolygonMeshVertex
 10
-2.57
 20
-0.41
 30
3.85
 70
    64
  0
VERTEX
  5
57F
100
AcDbEntity
  8
0
100
AcDbVertex
100
AcDbPolygonMeshVertex
 10
-2.57
 20
-0.41
 30
0.0
 70
    64
  0
VERTEX
  5
580
100
AcDbEntity
  8
0
100
AcDbVertex
100
AcDbPolygonMeshVertex
 10
-2.57
 20
-0.41
 30
0.0
 70
    64
  0
VERTEX
  5
581
100
AcDbEntity
  8
0
100
AcDbVertex
100
AcDbPolygonMeshVertex
 10
-2.57
 20
-0.450291
 30
3.85
 70
    64
  0
VERTEX
  5
582
100
AcDbEntity
  8
0
100
AcDbVertex
100
AcDbPolygonMeshVertex
 10
-2.57
 20
-0.450291
 30
0.0
 70
    64
  0
VERTEX
  5
583
100
AcDbEntity
  8
0
100
AcDbVertex
100
AcDbPolygonMeshVertex
 10
-2.57
 20
-0.41
 30
0.0
 70
    64
  0
VERTEX
  5
584
100
AcDbEntity
  8
0
100
AcDbVertex
100
AcDbPolygonMeshVertex
 10
4.13
 20
-0.450291
 30
3.85
 70
    64
  0
VERTEX
  5
585
100
AcDbEntity
  8
0
100
AcDbVertex
100
AcDbPolygonMeshVertex
 10
4.13
 20
-0.450291
 30
0.0
 70
    64
  0
VERTEX
  5
586
100
AcDbEntity
  8
0
100
AcDbVertex
100
AcDbPolygonMeshVertex
 10
4.13
 20
-0.41
 30
0.0
 70
    64
  0
VERTEX
  5
587
100
AcDbEntity
  8
0
100
AcDbVertex
100
AcDbPolygonMeshVertex
 10
4.13
 20
-0.450291
 30
3.85
 70
    64
  0
VERTEX
  5
588
100
AcDbEntity
  8
0
100
AcDbVertex
100
AcDbPolygonMeshVertex
 10
4.13
 20
-0.450291
 30
3.85
 70
    64
  0
VERTEX
  5
589
100
AcDbEntity
  8
0
100
AcDbVertex
100
AcDbPolygonMeshVertex
 10
4.13
 20
-0.41
 30
3.85
 70
    64
  0
VERTEX
  5
58A
100
AcDbEntity
  8
0
100
AcDbVertex
100
AcDbPolygonMeshVertex
 10
-2.57
 20
-0.450291
 30
3.85
 70
    64
  0
VERTEX
  5
58B
100
AcDbEntity
  8
0
100
AcDbVertex
100
AcDbPolygonMeshVertex
 10
-2.57
 20
-0.450291
 30
3.85
 70
    64
  0
VERTEX
  5
58C
100
AcDbEntity
  8
0
100
AcDbVertex
100
AcDbPolygonMeshVertex
 10
-2.57
 20
-0.41
 30
3.85
 70
    64
  0
SEQEND
  5
58D
100
AcDbEntity
  8
0
  0
POLYLINE
  5
58E
100
AcDbEntity
  8
0
100
AcDbPolygonMesh
 66
     1
 10
0.0
 20
0.0
 30
0.0
 70
    16
 71
     6
 72
     3
  0
VERTEX
  5
58F
100
AcDbEntity
  8
0
100
AcDbVertex
100
AcDbPolygonMeshVertex
 10
4.13
 20
-5.879709
 30
0.040001
 70
    64
  0
VERTEX
  5
590
100
AcDbEntity
  8
0
100
AcDbVertex
100
AcDbPolygonMeshVertex
 10
4.13
 20
-5.879709
 30
0.0
 70
    64
  0
VERTEX
  5
591
100
AcDbEntity
  8
0
100
AcDbVertex
100
AcDbPolygonMeshVertex
 10
4.13
 20
-5.879709
 30
0.0
 70
    64
  0
VERTEX
  5
592
100
AcDbEntity
  8
0
100
AcDbVertex
100
AcDbPolygonMeshVertex
 10
-2.57
 20
-5.879709
 30
0.040001
 70
    64
  0
VERTEX
  5
593
100
AcDbEntity
  8
0
100
AcDbVertex
100
AcDbPolygonMeshVertex
 10
-2.57
 20
-5.879709
 30
0.0
 70
    64
  0
VERTEX
  5
594
100
AcDbEntity
  8
0
100
AcDbVertex
100
AcDbPolygonMeshVertex
 10
-2.57
 20
-5.879709
 30
0.0
 70
    64
  0
VERTEX
  5
595
100
AcDbEntity
  8
0
100
AcDbVertex
100
AcDbPolygonMeshVertex
 10
-2.57
 20
-0.45
 30
0.040001
 70
    64
  0
VERTEX
  5
596
100
AcDbEntity
  8
0
100
AcDbVertex
100
AcDbPolygonMeshVertex
 10
-2.57
 20
-0.45
 30
0.0
 70
    64
  0
VERTEX
  5
597
100
AcDbEntity
  8
0
100
AcDbVertex
100
AcDbPolygonMeshVertex
 10
-2.57
 20
-5.879709
 30
0.0
 70
    64
  0
VERTEX
  5
598
100
AcDbEntity
  8
0
100
AcDbVertex
100
AcDbPolygonMeshVertex
 10
4.13
 20
-0.45
 30
0.040001
 70
    64
  0
VERTEX
  5
599
100
AcDbEntity
  8
0
100
AcDbVertex
100
AcDbPolygonMeshVertex
 10
4.13
 20
-0.45
 30
0.0
 70
    64
  0
VERTEX
  5
59A
100
AcDbEntity
  8
0
100
AcDbVertex
100
AcDbPolygonMeshVertex
 10
4.13
 20
-5.879709
 30
0.0
 70
    64
  0
VERTEX
  5
59B
100
AcDbEntity
  8
0
100
AcDbVertex
100
AcDbPolygonMeshVertex
 10
4.13
 20
-0.45
 30
0.040001
 70
    64
  0
VERTEX
  5
59C
100
AcDbEntity
  8
0
100
AcDbVertex
100
AcDbPolygonMeshVertex
 10
4.13
 20
-0.45
 30
0.040001
 70
    64
  0
VERTEX
  5
59D
100
AcDbEntity
  8
0
100
AcDbVertex
100
AcDbPolygonMeshVertex
 10
4.13
 20
-5.879709
 30
0.040001
 70
    64
  0
VERTEX
  5
59E
100
AcDbEntity
  8
0
100
AcDbVertex
100
AcDbPolygonMeshVertex
 10
-2.57
 20
-0.45
 30
0.040001
 70
    64
  0
VERTEX
  5
59F
100
AcDbEntity
  8
0
100
AcDbVertex
100
AcDbPolygonMeshVertex
 10
-2.57
 20
-0.45
 30
0.040001
 70
    64
  0
VERTEX
  5
5A0
100
AcDbEntity
  8
0
100
AcDbVertex
100
AcDbPolygonMeshVertex
 10
-2.57
 20
-5.879709
 30
0.040001
 70
    64
  0
SEQEND
  5
5A1
100
AcDbEntity
  8
0
  0
POLYLINE
  5
5A2
100
AcDbEntity
  8
0
100
AcDbPolygonMesh
 66
     1
 10
0.0
 20
0.0
 30
0.0
 70
    16
 71
     6
 72
     3
  0
VERTEX
  5
5A3
100
AcDbEntity
  8
0
100
AcDbVertex
100
AcDbPolygonMeshVertex
 10
4.13
 20
-5.92
 30
3.85
 70
    64
  0
VERTEX
  5
5A4
100
AcDbEntity
  8
0
100
AcDbVertex
100
AcDbPolygonMeshVertex
 10
4.13
 20
-5.92
 30
0.0
 70
    64
  0
VERTEX
  5
5A5
100
AcDbEntity
  8
0
100
AcDbVertex
100
AcDbPolygonMeshVertex
 10
4.13
 20
-5.92
 30
0.0
 70
    64
  0
VERTEX
  5
5A6
100
AcDbEntity
  8
0
100
AcDbVertex
100
AcDbPolygonMeshVertex
 10
-2.57
 20
-5.92
 30
3.85
 70
    64
  0
VERTEX
  5
5A7
100
AcDbEntity
  8
0
100
AcDbVertex
100
AcDbPolygonMeshVertex
 10
-2.57
 20
-5.92
 30
0.0
 70
    64
  0
VERTEX
  5
5A8
100
AcDbEntity
  8
0
100
AcDbVertex
100
AcDbPolygonMeshVertex
 10
-2.57
 20
-5.92
 30
0.0
 70
    64
  0
VERTEX
  5
5A9
100
AcDbEntity
  8
0
100
AcDbVertex
100
AcDbPolygonMeshVertex
 10
-2.57
 20
-5.879709
 30
3.85
 70
    64
  0
VERTEX
  5
5AA
100
AcDbEntity
  8
0
100
AcDbVertex
100
AcDbPolygonMeshVertex
 10
-2.57
 20
-5.879709
 30
0.0
 70
    64
  0
VERTEX
  5
5AB
100
AcDbEntity
  8
0
100
AcDbVertex
100
AcDbPolygonMeshVertex
 10
-2.57
 20
-5.92
 30
0.0
 70
    64
  0
VERTEX
  5
5AC
100
AcDbEntity
  8
0
100
AcDbVertex
100
AcDbPolygonMeshVertex
 10
4.13
 20
-5.879709
 30
3.85
 70
    64
  0
VERTEX
  5
5AD
100
AcDbEntity
  8
0
100
AcDbVertex
100
AcDbPolygonMeshVertex
 10
4.13
 20
-5.879709
 30
0.0
 70
    64
  0
VERTEX
  5
5AE
100
AcDbEntity
  8
0
100
AcDbVertex
100
AcDbPolygonMeshVertex
 10
4.13
 20
-5.92
 30
0.0
 70
    64
  0
VERTEX
  5
5AF
100
AcDbEntity
  8
0
100
AcDbVertex
100
AcDbPolygonMeshVertex
 10
4.13
 20
-5.879709
 30
3.85
 70
    64
  0
VERTEX
  5
5B0
100
AcDbEntity
  8
0
100
AcDbVertex
100
AcDbPolygonMeshVertex
 10
4.13
 20
-5.879709
 30
3.85
 70
    64
  0
VERTEX
  5
5B1
100
AcDbEntity
  8
0
100
AcDbVertex
100
AcDbPolygonMeshVertex
 10
4.13
 20
-5.92
 30
3.85
 70
    64
  0
VERTEX
  5
5B2
100
AcDbEntity
  8
0
100
AcDbVertex
100
AcDbPolygonMeshVertex
 10
-2.57
 20
-5.879709
 30
3.85
 70
    64
  0
VERTEX
  5
5B3
100
AcDbEntity
  8
0
100
AcDbVertex
100
AcDbPolygonMeshVertex
 10
-2.57
 20
-5.879709
 30
3.85
 70
    64
  0
VERTEX
  5
5B4
100
AcDbEntity
  8
0
100
AcDbVertex
100
AcDbPolygonMeshVertex
 10
-2.57
 20
-5.92
 30
3.85
 70
    64
  0
SEQEND
  5
5B5
100
AcDbEntity
  8
0
  0
POLYLINE
  5
5B6
100
AcDbEntity
  8
0
100
AcDbPolygonMesh
 66
     1
 10
0.0
 20
0.0
 30
0.0
 70
    16
 71
     6
 72
     3
  0
VERTEX
  5
5B7
100
AcDbEntity
  8
0
100
AcDbVertex
100
AcDbPolygonMeshVertex
 10
-0.317
 20
-0.41
 30
0.04
 70
    64
  0
VERTEX
  5
5B8
100
AcDbEntity
  8
0
100
AcDbVertex
100
AcDbPolygonMeshVertex
 10
-0.317
 20
-0.41
 30
0.0
 70
    64
  0
VERTEX
  5
5B9
100
AcDbEntity
  8
0
100
AcDbVertex
100
AcDbPolygonMeshVertex
 10
-0.317
 20
-0.41
 30
0.0
 70
    64
  0
VERTEX
  5
5BA
100
AcDbEntity
  8
0
100
AcDbVertex
100
AcDbPolygonMeshVertex
 10
-0.317
 20
0.26
 30
0.04
 70
    64
  0
VERTEX
  5
5BB
100
AcDbEntity
  8
0
100
AcDbVertex
100
AcDbPolygonMeshVertex
 10
-0.317
 20
0.26
 30
0.0
 70
    64
  0
VERTEX
  5
5BC
100
AcDbEntity
  8
0
100
AcDbVertex
100
AcDbPolygonMeshVertex
 10
-0.317
 20
0.26
 30
0.0
 70
    64
  0
VERTEX
  5
5BD
100
AcDbEntity
  8
0
100
AcDbVertex
100
AcDbPolygonMeshVertex
 10
0.317
 20
0.26
 30
0.04
 70
    64
  0
VERTEX
  5
5BE
100
AcDbEntity
  8
0
100
AcDbVertex
100
AcDbPolygonMeshVertex
 10
0.317
 20
0.26
 30
0.0
 70
    64
  0
VERTEX
  5
5BF
100
AcDbEntity
  8
0
100
AcDbVertex
100
AcDbPolygonMeshVertex
 10
-0.317
 20
0.26
 30
0.0
 70
    64
  0
VERTEX
  5
5C0
100
AcDbEntity
  8
0
100
AcDbVertex
100
AcDbPolygonMeshVertex
 10
0.317
 20
-0.41
 30
0.04
 70
    64
  0
VERTEX
  5
5C1
100
AcDbEntity
  8
0
100
AcDbVertex
100
AcDbPolygonMeshVertex
 10
0.317
 20
-0.41
 30
0.0
 70
    64
  0
VERTEX
  5
5C2
100
AcDbEntity
  8
0
100
AcDbVertex
100
AcDbPolygonMeshVertex
 10
-0.317
 20
-0.41
 30
0.0
 70
    64
  0
VERTEX
  5
5C3
100
AcDbEntity
  8
0
100
AcDbVertex
100
AcDbPolygonMeshVertex
 10
0.317
 20
-0.41
 30
0.04
 70
    64
  0
VERTEX
  5
5C4
100
AcDbEntity
  8
0
100
AcDbVertex
100
AcDbPolygonMeshVertex
 10
0.317
 20
-0.41
 30
0.04
 70
    64
  0
VERTEX
  5
5C5
100
AcDbEntity
  8
0
100
AcDbVertex
100
AcDbPolygonMeshVertex
 10
-0.317
 20
-0.41
 30
0.04
 70
    64
  0
VERTEX
  5
5C6
100
AcDbEntity
  8
0
100
AcDbVertex
100
AcDbPolygonMeshVertex
 10
0.317
 20
0.26
 30
0.04
 70
    64
  0
VERTEX
  5
5C7
100
AcDbEntity
  8
0
100
AcDbVertex
100
AcDbPolygonMeshVertex
 10
0.317
 20
0.26
 30
0.04
 70
    64
  0
VERTEX
  5
5C8
100
AcDbEntity
  8
0
100
AcDbVertex
100
AcDbPolygonMeshVertex
 10
-0.317
 20
0.26
 30
0.04
 70
    64
  0
SEQEND
  5
5C9
100
AcDbEntity
  8
0
  0
POLYLINE
  5
5CA
100
AcDbEntity
  8
0
100
AcDbPolygonMesh
 66
     1
 10
0.0
 20
0.0
 30
0.0
 70
    16
 71
     6
 72
     3
  0
VERTEX
  5
5CB
100
AcDbEntity
  8
0
100
AcDbVertex
100
AcDbPolygonMeshVertex
 10
-2.20252
 20
-0.482025
 30
3.05
 70
    64
  0
VERTEX
  5
5CC
100
AcDbEntity
  8
0
100
AcDbVertex
100
AcDbPolygonMeshVertex
 10
-2.20252
 20
-0.482025
 30
0.05
 70
    64
  0
VERTEX
  5
5CD
100
AcDbEntity
  8
0
100
AcDbVertex
100
AcDbPolygonMeshVertex
 10
-2.20252
 20
-0.482025
 30
0.05
 70
    64
  0
VERTEX
  5
5CE
100
AcDbEntity
  8
0
100
AcDbVertex
100
AcDbPolygonMeshVertex
 10
-2.30252
 20
-0.482025
 30
3.05
 70
    64
  0
VERTEX
  5
5CF
100
AcDbEntity
  8
0
100
AcDbVertex
100
AcDbPolygonMeshVertex
 10
-2.30252
 20
-0.482025
 30
0.05
 70
    64
  0
VERTEX
  5
5D0
100
AcDbEntity
  8
0
100
AcDbVertex
100
AcDbPolygonMeshVertex
 10
-2.30252
 20
-0.482025
 30
0.05
 70
    64
  0
VERTEX
  5
5D1
100
AcDbEntity
  8
0
100
AcDbVertex
100
AcDbPolygonMeshVertex
 10
-2.30252
 20
-0.682025
 30
3.05
 70
    64
  0
VERTEX
  5
5D2
100
AcDbEntity
  8
0
100
AcDbVertex
100
AcDbPolygonMeshVertex
 10
-2.30252
 20
-0.682025
 30
0.05
 70
    64
  0
VERTEX
  5
5D3
100
AcDbEntity
  8
0
100
AcDbVertex
100
AcDbPolygonMeshVertex
 10
-2.30252
 20
-0.482025
 30
0.05
 70
    64
  0
VERTEX
  5
5D4
100
AcDbEntity
  8
0
100
AcDbVertex
100
AcDbPolygonMeshVertex
 10
-2.20252
 20
-0.682025
 30
3.05
 70
    64
  0
VERTEX
  5
5D5
100
AcDbEntity
  8
0
100
AcDbVertex
100
AcDbPolygonMeshVertex
 10
-2.20252
 20
-0.682025
 30
0.05
 70
    64
  0
VERTEX
  5
5D6
100
AcDbEntity
  8
0
100
AcDbVertex
100
AcDbPolygonMeshVertex
 10
-2.20252
 20
-0.482025
 30
0.05
 70
    64
  0
VERTEX
  5
5D7
100
AcDbEntity
  8
0
100
AcDbVertex
100
AcDbPolygonMeshVertex
 10
-2.20252
 20
-0.682025
 30
3.05
 70
    64
  0
VERTEX
  5
5D8
100
AcDbEntity
  8
0
100
AcDbVertex
100
AcDbPolygonMeshVertex
 10
-2.20252
 20
-0.682025
 30
3.05
 70
    64
  0
VERTEX
  5
5D9
100
AcDbEntity
  8
0
100
AcDbVertex
100
AcDbPolygonMeshVertex
 10
-2.20252
 20
-0.482025
 30
3.05
 70
    64
  0
VERTEX
  5
5DA
100
AcDbEntity
  8
0
100
AcDbVertex
100
AcDbPolygonMeshVertex
 10
-2.30252
 20
-0.682025
 30
3.05
 70
    64
  0
VERTEX
  5
5DB
100
AcDbEntity
  8
0
100
AcDbVertex
100
AcDbPolygonMeshVertex
 10
-2.30252
 20
-0.682025
 30
3.05
 70
    64
  0
VERTEX
  5
5DC
100
AcDbEntity
  8
0
100
AcDbVertex
100
AcDbPolygonMeshVertex
 10
-2.30252
 20
-0.482025
 30
3.05
 70
    64
  0
SEQEND
  5
5DD
100
AcDbEntity
  8
0
  0
POLYLINE
  5
5DE
100
AcDbEntity
  8
0
100
AcDbPolygonMesh
 66
     1
 10
0.0
 20
0.0
 30
0.0
 70
    16
 71
     6
 72
     3
  0
VERTEX
  5
5DF
100
AcDbEntity
  8
0
100
AcDbVertex
100
AcDbPolygonMeshVertex
 10
-2.01252
 20
-0.482025
 30
3.05
 70
    64
  0
VERTEX
  5
5E0
100
AcDbEntity
  8
0
100
AcDbVertex
100
AcDbPolygonMeshVertex
 10
-2.01252
 20
-0.482025
 30
0.05
 70
    64
  0
VERTEX
  5
5E1
100
AcDbEntity
  8
0
100
AcDbVertex
100
AcDbPolygonMeshVertex
 10
-2.01252
 20
-0.482025
 30
0.05
 70
    64
  0
VERTEX
  5
5E2
100
AcDbEntity
  8
0
100
AcDbVertex
100
AcDbPolygonMeshVertex
 10
-2.11252
 20
-0.482025
 30
3.05
 70
    64
  0
VERTEX
  5
5E3
100
AcDbEntity
  8
0
100
AcDbVertex
100
AcDbPolygonMeshVertex
 10
-2.11252
 20
-0.482025
 30
0.05
 70
    64
  0
VERTEX
  5
5E4
100
AcDbEntity
  8
0
100
AcDbVertex
100
AcDbPolygonMeshVertex
 10
-2.11252
 20
-0.482025
 30
0.05
 70
    64
  0
VERTEX
  5
5E5
100
AcDbEntity
  8
0
100
AcDbVertex
100
AcDbPolygonMeshVertex
 10
-2.11252
 20
-0.682025
 30
3.05
 70
    64
  0
VERTEX
  5
5E6
100
AcDbEntity
  8
0
100
AcDbVertex
100
AcDbPolygonMeshVertex
 10
-2.11252
 20
-0.682025
 30
0.05
 70
    64
  0
VERTEX
  5
5E7
100
AcDbEntity
  8
0
100
AcDbVertex
100
AcDbPolygonMeshVertex
 10
-2.11252
 20
-0.482025
 30
0.05
 70
    64
  0
VERTEX
  5
5E8
100
AcDbEntity
  8
0
100
AcDbVertex
100
AcDbPolygonMeshVertex
 10
-2.01252
 20
-0.682025
 30
3.05
 70
    64
  0
VERTEX
  5
5E9
100
AcDbEntity
  8
0
100
AcDbVertex
100
AcDbPolygonMeshVertex
 10
-2.01252
 20
-0.682025
 30
0.05
 70
    64
  0
VERTEX
  5
5EA
100
AcDbEntity
  8
0
100
AcDbVertex
100
AcDbPolygonMeshVertex
 10
-2.01252
 20
-0.482025
 30
0.05
 70
    64
  0
VERTEX
  5
5EB
100
AcDbEntity
  8
0
100
AcDbVertex
100
AcDbPolygonMeshVertex
 10
-2.01252
 20
-0.682025
 30
3.05
 70
    64
  0
VERTEX
  5
5EC
100
AcDbEntity
  8
0
100
AcDbVertex
100
AcDbPolygonMeshVertex
 10
-2.01252
 20
-0.682025
 30
3.05
 70
    64
  0
VERTEX
  5
5ED
100
AcDbEntity
  8
0
100
AcDbVertex
100
AcDbPolygonMeshVertex
 10
-2.01252
 20
-0.482025
 30
3.05
 70
    64
  0
VERTEX
  5
5EE
100
AcDbEntity
  8
0
100
AcDbVertex
100
AcDbPolygonMeshVertex
 10
-2.11252
 20
-0.682025
 30
3.05
 70
    64
  0
VERTEX
  5
5EF
100
AcDbEntity
  8
0
100
AcDbVertex
100
AcDbPolygonMeshVertex
 10
-2.11252
 20
-0.682025
 30
3.05
 70
    64
  0
VERTEX
  5
5F0
100
AcDbEntity
  8
0
100
AcDbVertex
100
AcDbPolygonMeshVertex
 10
-2.11252
 20
-0.482025
 30
3.05
 70
    64
  0
SEQEND
  5
5F1
100
AcDbEntity
  8
0
  0
POLYLINE
  5
5F2
100
AcDbEntity
  8
0
100
AcDbPolygonMesh
 66
     1
 10
0.0
 20
0.0
 30
0.0
 70
    16
 71
     6
 72
     3
  0
VERTEX
  5
5F3
100
AcDbEntity
  8
0
100
AcDbVertex
100
AcDbPolygonMeshVertex
 10
-2.11252
 20
-0.482025
 30
3.05
 70
    64
  0
VERTEX
  5
5F4
100
AcDbEntity
  8
0
100
AcDbVertex
100
AcDbPolygonMeshVertex
 10
-2.11252
 20
-0.482025
 30
0.05
 70
    64
  0
VERTEX
  5
5F5
100
AcDbEntity
  8
0
100
AcDbVertex
100
AcDbPolygonMeshVertex
 10
-2.11252
 20
-0.482025
 30
0.05
 70
    64
  0
VERTEX
  5
5F6
100
AcDbEntity
  8
0
100
AcDbVertex
100
AcDbPolygonMeshVertex
 10
-2.20252
 20
-0.482025
 30
3.05
 70
    64
  0
VERTEX
  5
5F7
100
AcDbEntity
  8
0
100
AcDbVertex
100
AcDbPolygonMeshVertex
 10
-2.20252
 20
-0.482025
 30
0.05
 70
    64
  0
VERTEX
  5
5F8
100
AcDbEntity
  8
0
100
AcDbVertex
100
AcDbPolygonMeshVertex
 10
-2.20252
 20
-0.482025
 30
0.05
 70
    64
  0
VERTEX
  5
5F9
100
AcDbEntity
  8
0
100
AcDbVertex
100
AcDbPolygonMeshVertex
 10
-2.20252
 20
-0.557025
 30
3.05
 70
    64
  0
VERTEX
  5
5FA
100
AcDbEntity
  8
0
100
AcDbVertex
100
AcDbPolygonMeshVertex
 10
-2.20252
 20
-0.557025
 30
0.05
 70
    64
  0
VERTEX
  5
5FB
100
AcDbEntity
  8
0
100
AcDbVertex
100
AcDbPolygonMeshVertex
 10
-2.20252
 20
-0.482025
 30
0.05
 70
    64
  0
VERTEX
  5
5FC
100
AcDbEntity
  8
0
100
AcDbVertex
100
AcDbPolygonMeshVertex
 10
-2.11252
 20
-0.557025
 30
3.05
 70
    64
  0
VERTEX
  5
5FD
100
AcDbEntity
  8
0
100
AcDbVertex
100
AcDbPolygonMeshVertex
 10
-2.11252
 20
-0.557025
 30
0.05
 70
    64
  0
VERTEX
  5
5FE
100
AcDbEntity
  8
0
100
AcDbVertex
100
AcDbPolygonMeshVertex
 10
-2.11252
 20
-0.482025
 30
0.05
 70
    64
  0
VERTEX
  5
5FF
100
AcDbEntity
  8
0
100
AcDbVertex
100
AcDbPolygonMeshVertex
 10
-2.11252
 20
-0.557025
 30
3.05
 70
    64
  0
VERTEX
  5
600
100
AcDbEntity
  8
0
100
AcDbVertex
100
AcDbPolygonMeshVertex
 10
-2.11252
 20
-0.557025
 30
3.05
 70
    64
  0
VERTEX
  5
601
100
AcDbEntity
  8
0
100
AcDbVertex
100
AcDbPolygonMeshVertex
 10
-2.11252
 20
-0.482025
 30
3.05
 70
    64
  0
VERTEX
  5
602
100
AcDbEntity
  8
0
100
AcDbVertex
100
AcDbPolygonMeshVertex
 10
-2.20252
 20
-0.557025
 30
3.05
 70
    64
  0
VERTEX
  5
603
100
AcDbEntity
  8
0
100
AcDbVertex
100
AcDbPolygonMeshVertex
 10
-2.20252
 20
-0.557025
 30
3.05
 70
    64
  0
VERTEX
  5
604
100
AcDbEntity
  8
0
100
AcDbVertex
100
AcDbPolygonMeshVertex
 10
-2.20252
 20
-0.482025
 30
3.05
 70
    64
  0
SEQEND
  5
605
100
AcDbEntity
  8
0
  0
POLYLINE
  5
606
100
AcDbEntity
  8
0
100
AcDbPolygonMesh
 66
     1
 10
0.0
 20
0.0
 30
0.0
 70
    16
 71
     6
 72
     3
  0
VERTEX
  5
607
100
AcDbEntity
  8
0
100
AcDbVertex
100
AcDbPolygonMeshVertex
 10
-0.430006
 20
-0.482025
 30
3.05
 70
    64
  0
VERTEX
  5
608
100
AcDbEntity
  8
0
100
AcDbVertex
100
AcDbPolygonMeshVertex
 10
-0.430006
 20
-0.482025
 30
0.05
 70
    64
  0
VERTEX
  5
609
100
AcDbEntity
  8
0
100
AcDbVertex
100
AcDbPolygonMeshVertex
 10
-0.430006
 20
-0.482025
 30
0.05
 70
    64
  0
VERTEX
  5
60A
100
AcDbEntity
  8
0
100
AcDbVertex
100
AcDbPolygonMeshVertex
 10
-0.530006
 20
-0.482025
 30
3.05
 70
    64
  0
VERTEX
  5
60B
100
AcDbEntity
  8
0
100
AcDbVertex
100
AcDbPolygonMeshVertex
 10
-0.530006
 20
-0.482025
 30
0.05
 70
    64
  0
VERTEX
  5
60C
100
AcDbEntity
  8
0
100
AcDbVertex
100
AcDbPolygonMeshVertex
 10
-0.530006
 20
-0.482025
 30
0.05
 70
    64
  0
VERTEX
  5
60D
100
AcDbEntity
  8
0
100
AcDbVertex
100
AcDbPolygonMeshVertex
 10
-0.530006
 20
-0.682025
 30
3.05
 70
    64
  0
VERTEX
  5
60E
100
AcDbEntity
  8
0
100
AcDbVertex
100
AcDbPolygonMeshVertex
 10
-0.530006
 20
-0.682025
 30
0.05
 70
    64
  0
VERTEX
  5
60F
100
AcDbEntity
  8
0
100
AcDbVertex
100
AcDbPolygonMeshVertex
 10
-0.530006
 20
-0.482025
 30
0.05
 70
    64
  0
VERTEX
  5
610
100
AcDbEntity
  8
0
100
AcDbVertex
100
AcDbPolygonMeshVertex
 10
-0.430006
 20
-0.682025
 30
3.05
 70
    64
  0
VERTEX
  5
611
100
AcDbEntity
  8
0
100
AcDbVertex
100
AcDbPolygonMeshVertex
 10
-0.430006
 20
-0.682025
 30
0.05
 70
    64
  0
VERTEX
  5
612
100
AcDbEntity
  8
0
100
AcDbVertex
100
AcDbPolygonMeshVertex
 10
-0.430006
 20
-0.482025
 30
0.05
 70
    64
  0
VERTEX
  5
613
100
AcDbEntity
  8
0
100
AcDbVertex
100
AcDbPolygonMeshVertex
 10
-0.430006
 20
-0.682025
 30
3.05
 70
    64
  0
VERTEX
  5
614
100
AcDbEntity
  8
0
100
AcDbVertex
100
AcDbPolygonMeshVertex
 10
-0.430006
 20
-0.682025
 30
3.05
 70
    64
  0
VERTEX
  5
615
100
AcDbEntity
  8
0
100
AcDbVertex
100
AcDbPolygonMeshVertex
 10
-0.430006
 20
-0.482025
 30
3.05
 70
    64
  0
VERTEX
  5
616
100
AcDbEntity
  8
0
100
AcDbVertex
100
AcDbPolygonMeshVertex
 10
-0.530006
 20
-0.682025
 30
3.05
 70
    64
  0
VERTEX
  5
617
100
AcDbEntity
  8
0
100
AcDbVertex
100
AcDbPolygonMeshVertex
 10
-0.530006
 20
-0.682025
 30
3.05
 70
    64
  0
VERTEX
  5
618
100
AcDbEntity
  8
0
100
AcDbVertex
100
AcDbPolygonMeshVertex
 10
-0.530006
 20
-0.482025
 30
3.05
 70
    64
  0
SEQEND
  5
619
100
AcDbEntity
  8
0
  0
POLYLINE
  5
61A
100
AcDbEntity
  8
0
100
AcDbPolygonMesh
 66
     1
 10
0.0
 20
0.0
 30
0.0
 70
    16
 71
     6
 72
     3
  0
VERTEX
  5
61B
100
AcDbEntity
  8
0
100
AcDbVertex
100
AcDbPolygonMeshVertex
 10
-0.240006
 20
-0.482025
 30
3.05
 70
    64
  0
VERTEX
  5
61C
100
AcDbEntity
  8
0
100
AcDbVertex
100
AcDbPolygonMeshVertex
 10
-0.240006
 20
-0.482025
 30
0.05
 70
    64
  0
VERTEX
  5
61D
100
AcDbEntity
  8
0
100
AcDbVertex
100
AcDbPolygonMeshVertex
 10
-0.240006
 20
-0.482025
 30
0.05
 70
    64
  0
VERTEX
  5
61E
100
AcDbEntity
  8
0
100
AcDbVertex
100
AcDbPolygonMeshVertex
 10
-0.340006
 20
-0.482025
 30
3.05
 70
    64
  0
VERTEX
  5
61F
100
AcDbEntity
  8
0
100
AcDbVertex
100
AcDbPolygonMeshVertex
 10
-0.340006
 20
-0.482025
 30
0.05
 70
    64
  0
VERTEX
  5
620
100
AcDbEntity
  8
0
100
AcDbVertex
100
AcDbPolygonMeshVertex
 10
-0.340006
 20
-0.482025
 30
0.05
 70
    64
  0
VERTEX
  5
621
100
AcDbEntity
  8
0
100
AcDbVertex
100
AcDbPolygonMeshVertex
 10
-0.340006
 20
-0.682025
 30
3.05
 70
    64
  0
VERTEX
  5
622
100
AcDbEntity
  8
0
100
AcDbVertex
100
AcDbPolygonMeshVertex
 10
-0.340006
 20
-0.682025
 30
0.05
 70
    64
  0
VERTEX
  5
623
100
AcDbEntity
  8
0
100
AcDbVertex
100
AcDbPolygonMeshVertex
 10
-0.340006
 20
-0.482025
 30
0.05
 70
    64
  0
VERTEX
  5
624
100
AcDbEntity
  8
0
100
AcDbVertex
100
AcDbPolygonMeshVertex
 10
-0.240006
 20
-0.682025
 30
3.05
 70
    64
  0
VERTEX
  5
625
100
AcDbEntity
  8
0
100
AcDbVertex
100
AcDbPolygonMeshVertex
 10
-0.240006
 20
-0.682025
 30
0.05
 70
    64
  0
VERTEX
  5
626
100
AcDbEntity
  8
0
100
AcDbVertex
100
AcDbPolygonMeshVertex
 10
-0.240006
 20
-0.482025
 30
0.05
 70
    64
  0
VERTEX
  5
627
100
AcDbEntity
  8
0
100
AcDbVertex
100
AcDbPolygonMeshVertex
 10
-0.240006
 20
-0.682025
 30
3.05
 70
    64
  0
VERTEX
  5
628
100
AcDbEntity
  8
0
100
AcDbVertex
100
AcDbPolygonMeshVertex
 10
-0.240006
 20
-0.682025
 30
3.05
 70
    64
  0
VERTEX
  5
629
100
AcDbEntity
  8
0
100
AcDbVertex
100
AcDbPolygonMeshVertex
 10
-0.240006
 20
-0.482025
 30
3.05
 70
    64
  0
VERTEX
  5
62A
100
AcDbEntity
  8
0
100
AcDbVertex
100
AcDbPolygonMeshVertex
 10
-0.340006
 20
-0.682025
 30
3.05
 70
    64
  0
VERTEX
  5
62B
100
AcDbEntity
  8
0
100
AcDbVertex
100
AcDbPolygonMeshVertex
 10
-0.340006
 20
-0.682025
 30
3.05
 70
    64
  0
VERTEX
  5
62C
100
AcDbEntity
  8
0
100
AcDbVertex
100
AcDbPolygonMeshVertex
 10
-0.340006
 20
-0.482025
 30
3.05
 70
    64
  0
SEQEND
  5
62D
100
AcDbEntity
  8
0
  0
POLYLINE
  5
62E
100
AcDbEntity
  8
0
100
AcDbPolygonMesh
 66
     1
 10
0.0
 20
0.0
 30
0.0
 70
    16
 71
     6
 72
     3
  0
VERTEX
  5
62F
100
AcDbEntity
  8
0
100
AcDbVertex
100
AcDbPolygonMeshVertex
 10
-0.340006
 20
-0.482025
 30
3.05
 70
    64
  0
VERTEX
  5
630
100
AcDbEntity
  8
0
100
AcDbVertex
100
AcDbPolygonMeshVertex
 10
-0.340006
 20
-0.482025
 30
0.05
 70
    64
  0
VERTEX
  5
631
100
AcDbEntity
  8
0
100
AcDbVertex
100
AcDbPolygonMeshVertex
 10
-0.340006
 20
-0.482025
 30
0.05
 70
    64
  0
VERTEX
  5
632
100
AcDbEntity
  8
0
100
AcDbVertex
100
AcDbPolygonMeshVertex
 10
-0.430006
 20
-0.482025
 30
3.05
 70
    64
  0
VERTEX
  5
633
100
AcDbEntity
  8
0
100
AcDbVertex
100
AcDbPolygonMeshVertex
 10
-0.430006
 20
-0.482025
 30
0.05
 70
    64
  0
VERTEX
  5
634
100
AcDbEntity
  8
0
100
AcDbVertex
100
AcDbPolygonMeshVertex
 10
-0.430006
 20
-0.482025
 30
0.05
 70
    64
  0
VERTEX
  5
635
100
AcDbEntity
  8
0
100
AcDbVertex
100
AcDbPolygonMeshVertex
 10
-0.430006
 20
-0.557025
 30
3.05
 70
    64
  0
VERTEX
  5
636
100
AcDbEntity
  8
0
100
AcDbVertex
100
AcDbPolygonMeshVertex
 10
-0.430006
 20
-0.557025
 30
0.05
 70
    64
  0
VERTEX
  5
637
100
AcDbEntity
  8
0
100
AcDbVertex
100
AcDbPolygonMeshVertex
 10
-0.430006
 20
-0.482025
 30
0.05
 70
    64
  0
VERTEX
  5
638
100
AcDbEntity
  8
0
100
AcDbVertex
100
AcDbPolygonMeshVertex
 10
-0.340006
 20
-0.557025
 30
3.05
 70
    64
  0
VERTEX
  5
639
100
AcDbEntity
  8
0
100
AcDbVertex
100
AcDbPolygonMeshVertex
 10
-0.340006
 20
-0.557025
 30
0.05
 70
    64
  0
VERTEX
  5
63A
100
AcDbEntity
  8
0
100
AcDbVertex
100
AcDbPolygonMeshVertex
 10
-0.340006
 20
-0.482025
 30
0.05
 70
    64
  0
VERTEX
  5
63B
100
AcDbEntity
  8
0
100
AcDbVertex
100
AcDbPolygonMeshVertex
 10
-0.340006
 20
-0.557025
 30
3.05
 70
    64
  0
VERTEX
  5
63C
100
AcDbEntity
  8
0
100
AcDbVertex
100
AcDbPolygonMeshVertex
 10
-0.340006
 20
-0.557025
 30
3.05
 70
    64
  0
VERTEX
  5
63D
100
AcDbEntity
  8
0
100
AcDbVertex
100
AcDbPolygonMeshVertex
 10
-0.340006
 20
-0.482025
 30
3.05
 70
    64
  0
VERTEX
  5
63E
100
AcDbEntity
  8
0
100
AcDbVertex
100
AcDbPolygonMeshVertex
 10
-0.430006
 20
-0.557025
 30
3.05
 70
    64
  0
VERTEX
  5
63F
100
AcDbEntity
  8
0
100
AcDbVertex
100
AcDbPolygonMeshVertex
 10
-0.430006
 20
-0.557025
 30
3.05
 70
    64
  0
VERTEX
  5
640
100
AcDbEntity
  8
0
100
AcDbVertex
100
AcDbPolygonMeshVertex
 10
-0.430006
 20
-0.482025
 30
3.05
 70
    64
  0
SEQEND
  5
641
100
AcDbEntity
  8
0
  0
POLYLINE
  5
642
100
AcDbEntity
  8
0
100
AcDbPolygonMesh
 66
     1
 10
0.0
 20
0.0
 30
0.0
 70
    16
 71
     6
 72
     3
  0
VERTEX
  5
643
100
AcDbEntity
  8
0
100
AcDbVertex
100
AcDbPolygonMeshVertex
 10
0.944994
 20
-0.482025
 30
3.05
 70
    64
  0
VERTEX
  5
644
100
AcDbEntity
  8
0
100
AcDbVertex
100
AcDbPolygonMeshVertex
 10
0.944994
 20
-0.482025
 30
0.05
 70
    64
  0
VERTEX
  5
645
100
AcDbEntity
  8
0
100
AcDbVertex
100
AcDbPolygonMeshVertex
 10
0.944994
 20
-0.482025
 30
0.05
 70
    64
  0
VERTEX
  5
646
100
AcDbEntity
  8
0
100
AcDbVertex
100
AcDbPolygonMeshVertex
 10
0.844994
 20
-0.482025
 30
3.05
 70
    64
  0
VERTEX
  5
647
100
AcDbEntity
  8
0
100
AcDbVertex
100
AcDbPolygonMeshVertex
 10
0.844994
 20
-0.482025
 30
0.05
 70
    64
  0
VERTEX
  5
648
100
AcDbEntity
  8
0
100
AcDbVertex
100
AcDbPolygonMeshVertex
 10
0.844994
 20
-0.482025
 30
0.05
 70
    64
  0
VERTEX
  5
649
100
AcDbEntity
  8
0
100
AcDbVertex
100
AcDbPolygonMeshVertex
 10
0.844994
 20
-0.682025
 30
3.05
 70
    64
  0
VERTEX
  5
64A
100
AcDbEntity
  8
0
100
AcDbVertex
100
AcDbPolygonMeshVertex
 10
0.844994
 20
-0.682025
 30
0.05
 70
    64
  0
VERTEX
  5
64B
100
AcDbEntity
  8
0
100
AcDbVertex
100
AcDbPolygonMeshVertex
 10
0.844994
 20
-0.482025
 30
0.05
 70
    64
  0
VERTEX
  5
64C
100
AcDbEntity
  8
0
100
AcDbVertex
100
AcDbPolygonMeshVertex
 10
0.944994
 20
-0.682025
 30
3.05
 70
    64
  0
VERTEX
  5
64D
100
AcDbEntity
  8
0
100
AcDbVertex
100
AcDbPolygonMeshVertex
 10
0.944994
 20
-0.682025
 30
0.05
 70
    64
  0
VERTEX
  5
64E
100
AcDbEntity
  8
0
100
AcDbVertex
100
AcDbPolygonMeshVertex
 10
0.944994
 20
-0.482025
 30
0.05
 70
    64
  0
VERTEX
  5
64F
100
AcDbEntity
  8
0
100
AcDbVertex
100
AcDbPolygonMeshVertex
 10
0.944994
 20
-0.682025
 30
3.05
 70
    64
  0
VERTEX
  5
650
100
AcDbEntity
  8
0
100
AcDbVertex
100
AcDbPolygonMeshVertex
 10
0.944994
 20
-0.682025
 30
3.05
 70
    64
  0
VERTEX
  5
651
100
AcDbEntity
  8
0
100
AcDbVertex
100
AcDbPolygonMeshVertex
 10
0.944994
 20
-0.482025
 30
3.05
 70
    64
  0
VERTEX
  5
652
100
AcDbEntity
  8
0
100
AcDbVertex
100
AcDbPolygonMeshVertex
 10
0.844994
 20
-0.682025
 30
3.05
 70
    64
  0
VERTEX
  5
653
100
AcDbEntity
  8
0
100
AcDbVertex
100
AcDbPolygonMeshVertex
 10
0.844994
 20
-0.682025
 30
3.05
 70
    64
  0
VERTEX
  5
654
100
AcDbEntity
  8
0
100
AcDbVertex
100
AcDbPolygonMeshVertex
 10
0.844994
 20
-0.482025
 30
3.05
 70
    64
  0
SEQEND
  5
655
100
AcDbEntity
  8
0
  0
POLYLINE
  5
656
100
AcDbEntity
  8
0
100
AcDbPolygonMesh
 66
     1
 10
0.0
 20
0.0
 30
0.0
 70
    16
 71
     6
 72
     3
  0
VERTEX
  5
657
100
AcDbEntity
  8
0
100
AcDbVertex
100
AcDbPolygonMeshVertex
 10
1.134994
 20
-0.482025
 30
3.05
 70
    64
  0
VERTEX
  5
658
100
AcDbEntity
  8
0
100
AcDbVertex
100
AcDbPolygonMeshVertex
 10
1.134994
 20
-0.482025
 30
0.05
 70
    64
  0
VERTEX
  5
659
100
AcDbEntity
  8
0
100
AcDbVertex
100
AcDbPolygonMeshVertex
 10
1.134994
 20
-0.482025
 30
0.05
 70
    64
  0
VERTEX
  5
65A
100
AcDbEntity
  8
0
100
AcDbVertex
100
AcDbPolygonMeshVertex
 10
1.034994
 20
-0.482025
 30
3.05
 70
    64
  0
VERTEX
  5
65B
100
AcDbEntity
  8
0
100
AcDbVertex
100
AcDbPolygonMeshVertex
 10
1.034994
 20
-0.482025
 30
0.05
 70
    64
  0
VERTEX
  5
65C
100
AcDbEntity
  8
0
100
AcDbVertex
100
AcDbPolygonMeshVertex
 10
1.034994
 20
-0.482025
 30
0.05
 70
    64
  0
VERTEX
  5
65D
100
AcDbEntity
  8
0
100
AcDbVertex
100
AcDbPolygonMeshVertex
 10
1.034994
 20
-0.682025
 30
3.05
 70
    64
  0
VERTEX
  5
65E
100
AcDbEntity
  8
0
100
AcDbVertex
100
AcDbPolygonMeshVertex
 10
1.034994
 20
-0.682025
 30
0.05
 70
    64
  0
VERTEX
  5
65F
100
AcDbEntity
  8
0
100
AcDbVertex
100
AcDbPolygonMeshVertex
 10
1.034994
 20
-0.482025
 30
0.05
 70
    64
  0
VERTEX
  5
660
100
AcDbEntity
  8
0
100
AcDbVertex
100
AcDbPolygonMeshVertex
 10
1.134994
 20
-0.682025
 30
3.05
 70
    64
  0
VERTEX
  5
661
100
AcDbEntity
  8
0
100
AcDbVertex
100
AcDbPolygonMeshVertex
 10
1.134994
 20
-0.682025
 30
0.05
 70
    64
  0
VERTEX
  5
662
100
AcDbEntity
  8
0
100
AcDbVertex
100
AcDbPolygonMeshVertex
 10
1.134994
 20
-0.482025
 30
0.05
 70
    64
  0
VERTEX
  5
663
100
AcDbEntity
  8
0
100
AcDbVertex
100
AcDbPolygonMeshVertex
 10
1.134994
 20
-0.682025
 30
3.05
 70
    64
  0
VERTEX
  5
664
100
AcDbEntity
  8
0
100
AcDbVertex
100
AcDbPolygonMeshVertex
 10
1.134994
 20
-0.682025
 30
3.05
 70
    64
  0
VERTEX
  5
665
100
AcDbEntity
  8
0
100
AcDbVertex
100
AcDbPolygonMeshVertex
 10
1.134994
 20
-0.482025
 30
3.05
 70
    64
  0
VERTEX
  5
666
100
AcDbEntity
  8
0
100
AcDbVertex
100
AcDbPolygonMeshVertex
 10
1.034994
 20
-0.682025
 30
3.05
 70
    64
  0
VERTEX
  5
667
100
AcDbEntity
  8
0
100
AcDbVertex
100
AcDbPolygonMeshVertex
 10
1.034994
 20
-0.682025
 30
3.05
 70
    64
  0
VERTEX
  5
668
100
AcDbEntity
  8
0
100
AcDbVertex
100
AcDbPolygonMeshVertex
 10
1.034994
 20
-0.482025
 30
3.05
 70
    64
  0
SEQEND
  5
669
100
AcDbEntity
  8
0
  0
POLYLINE
  5
66A
100
AcDbEntity
  8
0
100
AcDbPolygonMesh
 66
     1
 10
0.0
 20
0.0
 30
0.0
 70
    16
 71
     6
 72
     3
  0
VERTEX
  5
66B
100
AcDbEntity
  8
0
100
AcDbVertex
100
AcDbPolygonMeshVertex
 10
1.034994
 20
-0.482025
 30
3.05
 70
    64
  0
VERTEX
  5
66C
100
AcDbEntity
  8
0
100
AcDbVertex
100
AcDbPolygonMeshVertex
 10
1.034994
 20
-0.482025
 30
0.05
 70
    64
  0
VERTEX
  5
66D
100
AcDbEntity
  8
0
100
AcDbVertex
100
AcDbPolygonMeshVertex
 10
1.034994
 20
-0.482025
 30
0.05
 70
    64
  0
VERTEX
  5
66E
100
AcDbEntity
  8
0
100
AcDbVertex
100
AcDbPolygonMeshVertex
 10
0.944994
 20
-0.482025
 30
3.05
 70
    64
  0
VERTEX
  5
66F
100
AcDbEntity
  8
0
100
AcDbVertex
100
AcDbPolygonMeshVertex
 10
0.944994
 20
-0.482025
 30
0.05
 70
    64
  0
VERTEX
  5
670
100
AcDbEntity
  8
0
100
AcDbVertex
100
AcDbPolygonMeshVertex
 10
0.944994
 20
-0.482025
 30
0.05
 70
    64
  0
VERTEX
  5
671
100
AcDbEntity
  8
0
100
AcDbVertex
100
AcDbPolygonMeshVertex
 10
0.944994
 20
-0.557025
 30
3.05
 70
    64
  0
VERTEX
  5
672
100
AcDbEntity
  8
0
100
AcDbVertex
100
AcDbPolygonMeshVertex
 10
0.944994
 20
-0.557025
 30
0.05
 70
    64
  0
VERTEX
  5
673
100
AcDbEntity
  8
0
100
AcDbVertex
100
AcDbPolygonMeshVertex
 10
0.944994
 20
-0.482025
 30
0.05
 70
    64
  0
VERTEX
  5
674
100
AcDbEntity
  8
0
100
AcDbVertex
100
AcDbPolygonMeshVertex
 10
1.034994
 20
-0.557025
 30
3.05
 70
    64
  0
VERTEX
  5
675
100
AcDbEntity
  8
0
100
AcDbVertex
100
AcDbPolygonMeshVertex
 10
1.034994
 20
-0.557025
 30
0.05
 70
    64
  0
VERTEX
  5
676
100
AcDbEntity
  8
0
100
AcDbVertex
100
AcDbPolygonMeshVertex
 10
1.034994
 20
-0.482025
 30
0.05
 70
    64
  0
VERTEX
  5
677
100
AcDbEntity
  8
0
100
AcDbVertex
100
AcDbPolygonMeshVertex
 10
1.034994
 20
-0.557025
 30
3.05
 70
    64
  0
VERTEX
  5
678
100
AcDbEntity
  8
0
100
AcDbVertex
100
AcDbPolygonMeshVertex
 10
1.034994
 20
-0.557025
 30
3.05
 70
    64
  0
VERTEX
  5
679
100
AcDbEntity
  8
0
100
AcDbVertex
100
AcDbPolygonMeshVertex
 10
1.034994
 20
-0.482025
 30
3.05
 70
    64
  0
VERTEX
  5
67A
100
AcDbEntity
  8
0
100
AcDbVertex
100
AcDbPolygonMeshVertex
 10
0.944994
 20
-0.557025
 30
3.05
 70
    64
  0
VERTEX
  5
67B
100
AcDbEntity
  8
0
100
AcDbVertex
100
AcDbPolygonMeshVertex
 10
0.944994
 20
-0.557025
 30
3.05
 70
    64
  0
VERTEX
  5
67C
100
AcDbEntity
  8
0
100
AcDbVertex
100
AcDbPolygonMeshVertex
 10
0.944994
 20
-0.482025
 30
3.05
 70
    64
  0
SEQEND
  5
67D
100
AcDbEntity
  8
0
  0
POLYLINE
  5
67E
100
AcDbEntity
  8
0
100
AcDbPolygonMesh
 66
     1
 10
0.0
 20
0.0
 30
0.0
 70
    16
 71
     6
 72
     3
  0
VERTEX
  5
67F
100
AcDbEntity
  8
0
100
AcDbVertex
100
AcDbPolygonMeshVertex
 10
-1.582856
 20
-5.88
 30
3.849968
 70
    64
  0
VERTEX
  5
680
100
AcDbEntity
  8
0
100
AcDbVertex
100
AcDbPolygonMeshVertex
 10
-1.582856
 20
-5.88
 30
0.05
 70
    64
  0
VERTEX
  5
681
100
AcDbEntity
  8
0
100
AcDbVertex
100
AcDbPolygonMeshVertex
 10
-1.582856
 20
-5.88
 30
0.05
 70
    64
  0
VERTEX
  5
682
100
AcDbEntity
  8
0
100
AcDbVertex
100
AcDbPolygonMeshVertex
 10
-1.982856
 20
-5.88
 30
3.849968
 70
    64
  0
VERTEX
  5
683
100
AcDbEntity
  8
0
100
AcDbVertex
100
AcDbPolygonMeshVertex
 10
-1.982856
 20
-5.88
 30
0.05
 70
    64
  0
VERTEX
  5
684
100
AcDbEntity
  8
0
100
AcDbVertex
100
AcDbPolygonMeshVertex
 10
-1.982856
 20
-5.88
 30
0.05
 70
    64
  0
VERTEX
  5
685
100
AcDbEntity
  8
0
100
AcDbVertex
100
AcDbPolygonMeshVertex
 10
-1.982856
 20
-0.45
 30
3.849968
 70
    64
  0
VERTEX
  5
686
100
AcDbEntity
  8
0
100
AcDbVertex
100
AcDbPolygonMeshVertex
 10
-1.982856
 20
-0.45
 30
0.05
 70
    64
  0
VERTEX
  5
687
100
AcDbEntity
  8
0
100
AcDbVertex
100
AcDbPolygonMeshVertex
 10
-1.982856
 20
-5.88
 30
0.05
 70
    64
  0
VERTEX
  5
688
100
AcDbEntity
  8
0
100
AcDbVertex
100
AcDbPolygonMeshVertex
 10
-1.582856
 20
-0.45
 30
3.849968
 70
    64
  0
VERTEX
  5
689
100
AcDbEntity
  8
0
100
AcDbVertex
100
AcDbPolygonMeshVertex
 10
-1.582856
 20
-0.45
 30
0.05
 70
    64
  0
VERTEX
  5
68A
100
AcDbEntity
  8
0
100
AcDbVertex
100
AcDbPolygonMeshVertex
 10
-1.582856
 20
-5.88
 30
0.05
 70
    64
  0
VERTEX
  5
68B
100
AcDbEntity
  8
0
100
AcDbVertex
100
AcDbPolygonMeshVertex
 10
-1.582856
 20
-0.45
 30
3.849968
 70
    64
  0
VERTEX
  5
68C
100
AcDbEntity
  8
0
100
AcDbVertex
100
AcDbPolygonMeshVertex
 10
-1.582856
 20
-0.45
 30
3.849968
 70
    64
  0
VERTEX
  5
68D
100
AcDbEntity
  8
0
100
AcDbVertex
100
AcDbPolygonMeshVertex
 10
-1.582856
 20
-5.88
 30
3.849968
 70
    64
  0
VERTEX
  5
68E
100
AcDbEntity
  8
0
100
AcDbVertex
100
AcDbPolygonMeshVertex
 10
-1.982856
 20
-0.45
 30
3.849968
 70
    64
  0
VERTEX
  5
68F
100
AcDbEntity
  8
0
100
AcDbVertex
100
AcDbPolygonMeshVertex
 10
-1.982856
 20
-0.45
 30
3.849968
 70
    64
  0
VERTEX
  5
690
100
AcDbEntity
  8
0
100
AcDbVertex
100
AcDbPolygonMeshVertex
 10
-1.982856
 20
-5.88
 30
3.849968
 70
    64
  0
SEQEND
  5
691
100
AcDbEntity
  8
0
  0
POLYLINE
  5
692
100
AcDbEntity
  8
0
100
AcDbPolygonMesh
 66
     1
 10
0.0
 20
0.0
 30
0.0
 70
    16
 71
     6
 72
     3
  0
VERTEX
  5
693
100
AcDbEntity
  8
0
100
AcDbVertex
100
AcDbPolygonMeshVertex
 10
-2.11252
 20
-5.847975
 30
3.05
 70
    64
  0
VERTEX
  5
694
100
AcDbEntity
  8
0
100
AcDbVertex
100
AcDbPolygonMeshVertex
 10
-2.11252
 20
-5.847975
 30
0.05
 70
    64
  0
VERTEX
  5
695
100
AcDbEntity
  8
0
100
AcDbVertex
100
AcDbPolygonMeshVertex
 10
-2.11252
 20
-5.847975
 30
0.05
 70
    64
  0
VERTEX
  5
696
100
AcDbEntity
  8
0
100
AcDbVertex
100
AcDbPolygonMeshVertex
 10
-2.20252
 20
-5.847975
 30
3.05
 70
    64
  0
VERTEX
  5
697
100
AcDbEntity
  8
0
100
AcDbVertex
100
AcDbPolygonMeshVertex
 10
-2.20252
 20
-5.847975
 30
0.05
 70
    64
  0
VERTEX
  5
698
100
AcDbEntity
  8
0
100
AcDbVertex
100
AcDbPolygonMeshVertex
 10
-2.20252
 20
-5.847975
 30
0.05
 70
    64
  0
VERTEX
  5
699
100
AcDbEntity
  8
0
100
AcDbVertex
100
AcDbPolygonMeshVertex
 10
-2.20252
 20
-5.772975
 30
3.05
 70
    64
  0
VERTEX
  5
69A
100
AcDbEntity
  8
0
100
AcDbVertex
100
AcDbPolygonMeshVertex
 10
-2.20252
 20
-5.772975
 30
0.05
 70
    64
  0
VERTEX
  5
69B
100
AcDbEntity
  8
0
100
AcDbVertex
100
AcDbPolygonMeshVertex
 10
-2.20252
 20
-5.847975
 30
0.05
 70
    64
  0
VERTEX
  5
69C
100
AcDbEntity
  8
0
100
AcDbVertex
100
AcDbPolygonMeshVertex
 10
-2.11252
 20
-5.772975
 30
3.05
 70
    64
  0
VERTEX
  5
69D
100
AcDbEntity
  8
0
100
AcDbVertex
100
AcDbPolygonMeshVertex
 10
-2.11252
 20
-5.772975
 30
0.05
 70
    64
  0
VERTEX
  5
69E
100
AcDbEntity
  8
0
100
AcDbVertex
100
AcDbPolygonMeshVertex
 10
-2.11252
 20
-5.847975
 30
0.05
 70
    64
  0
VERTEX
  5
69F
100
AcDbEntity
  8
0
100
AcDbVertex
100
AcDbPolygonMeshVertex
 10
-2.11252
 20
-5.772975
 30
3.05
 70
    64
  0
VERTEX
  5
6A0
100
AcDbEntity
  8
0
100
AcDbVertex
100
AcDbPolygonMeshVertex
 10
-2.11252
 20
-5.772975
 30
3.05
 70
    64
  0
VERTEX
  5
6A1
100
AcDbEntity
  8
0
100
AcDbVertex
100
AcDbPolygonMeshVertex
 10
-2.11252
 20
-5.847975
 30
3.05
 70
    64
  0
VERTEX
  5
6A2
100
AcDbEntity
  8
0
100
AcDbVertex
100
AcDbPolygonMeshVertex
 10
-2.20252
 20
-5.772975
 30
3.05
 70
    64
  0
VERTEX
  5
6A3
100
AcDbEntity
  8
0
100
AcDbVertex
100
AcDbPolygonMeshVertex
 10
-2.20252
 20
-5.772975
 30
3.05
 70
    64
  0
VERTEX
  5
6A4
100
AcDbEntity
  8
0
100
AcDbVertex
100
AcDbPolygonMeshVertex
 10
-2.20252
 20
-5.847975
 30
3.05
 70
    64
  0
SEQEND
  5
6A5
100
AcDbEntity
  8
0
  0
POLYLINE
  5
6A6
100
AcDbEntity
  8
0
100
AcDbPolygonMesh
 66
     1
 10
0.0
 20
0.0
 30
0.0
 70
    16
 71
     6
 72
     3
  0
VERTEX
  5
6A7
100
AcDbEntity
  8
0
100
AcDbVertex
100
AcDbPolygonMeshVertex
 10
-2.01252
 20
-5.847975
 30
3.05
 70
    64
  0
VERTEX
  5
6A8
100
AcDbEntity
  8
0
100
AcDbVertex
100
AcDbPolygonMeshVertex
 10
-2.01252
 20
-5.847975
 30
0.05
 70
    64
  0
VERTEX
  5
6A9
100
AcDbEntity
  8
0
100
AcDbVertex
100
AcDbPolygonMeshVertex
 10
-2.01252
 20
-5.847975
 30
0.05
 70
    64
  0
VERTEX
  5
6AA
100
AcDbEntity
  8
0
100
AcDbVertex
100
AcDbPolygonMeshVertex
 10
-2.11252
 20
-5.847975
 30
3.05
 70
    64
  0
VERTEX
  5
6AB
100
AcDbEntity
  8
0
100
AcDbVertex
100
AcDbPolygonMeshVertex
 10
-2.11252
 20
-5.847975
 30
0.05
 70
    64
  0
VERTEX
  5
6AC
100
AcDbEntity
  8
0
100
AcDbVertex
100
AcDbPolygonMeshVertex
 10
-2.11252
 20
-5.847975
 30
0.05
 70
    64
  0
VERTEX
  5
6AD
100
AcDbEntity
  8
0
100
AcDbVertex
100
AcDbPolygonMeshVertex
 10
-2.11252
 20
-5.647975
 30
3.05
 70
    64
  0
VERTEX
  5
6AE
100
AcDbEntity
  8
0
100
AcDbVertex
100
AcDbPolygonMeshVertex
 10
-2.11252
 20
-5.647975
 30
0.05
 70
    64
  0
VERTEX
  5
6AF
100
AcDbEntity
  8
0
100
AcDbVertex
100
AcDbPolygonMeshVertex
 10
-2.11252
 20
-5.847975
 30
0.05
 70
    64
  0
VERTEX
  5
6B0
100
AcDbEntity
  8
0
100
AcDbVertex
100
AcDbPolygonMeshVertex
 10
-2.01252
 20
-5.647975
 30
3.05
 70
    64
  0
VERTEX
  5
6B1
100
AcDbEntity
  8
0
100
AcDbVertex
100
AcDbPolygonMeshVertex
 10
-2.01252
 20
-5.647975
 30
0.05
 70
    64
  0
VERTEX
  5
6B2
100
AcDbEntity
  8
0
100
AcDbVertex
100
AcDbPolygonMeshVertex
 10
-2.01252
 20
-5.847975
 30
0.05
 70
    64
  0
VERTEX
  5
6B3
100
AcDbEntity
  8
0
100
AcDbVertex
100
AcDbPolygonMeshVertex
 10
-2.01252
 20
-5.647975
 30
3.05
 70
    64
  0
VERTEX
  5
6B4
100
AcDbEntity
  8
0
100
AcDbVertex
100
AcDbPolygonMeshVertex
 10
-2.01252
 20
-5.647975
 30
3.05
 70
    64
  0
VERTEX
  5
6B5
100
AcDbEntity
  8
0
100
AcDbVertex
100
AcDbPolygonMeshVertex
 10
-2.01252
 20
-5.847975
 30
3.05
 70
    64
  0
VERTEX
  5
6B6
100
AcDbEntity
  8
0
100
AcDbVertex
100
AcDbPolygonMeshVertex
 10
-2.11252
 20
-5.647975
 30
3.05
 70
    64
  0
VERTEX
  5
6B7
100
AcDbEntity
  8
0
100
AcDbVertex
100
AcDbPolygonMeshVertex
 10
-2.11252
 20
-5.647975
 30
3.05
 70
    64
  0
VERTEX
  5
6B8
100
AcDbEntity
  8
0
100
AcDbVertex
100
AcDbPolygonMeshVertex
 10
-2.11252
 20
-5.847975
 30
3.05
 70
    64
  0
SEQEND
  5
6B9
100
AcDbEntity
  8
0
  0
POLYLINE
  5
6BA
100
AcDbEntity
  8
0
100
AcDbPolygonMesh
 66
     1
 10
0.0
 20
0.0
 30
0.0
 70
    16
 71
     6
 72
     3
  0
VERTEX
  5
6BB
100
AcDbEntity
  8
0
100
AcDbVertex
100
AcDbPolygonMeshVertex
 10
-2.20252
 20
-5.847975
 30
3.05
 70
    64
  0
VERTEX
  5
6BC
100
AcDbEntity
  8
0
100
AcDbVertex
100
AcDbPolygonMeshVertex
 10
-2.20252
 20
-5.847975
 30
0.05
 70
    64
  0
VERTEX
  5
6BD
100
AcDbEntity
  8
0
100
AcDbVertex
100
AcDbPolygonMeshVertex
 10
-2.20252
 20
-5.847975
 30
0.05
 70
    64
  0
VERTEX
  5
6BE
100
AcDbEntity
  8
0
100
AcDbVertex
100
AcDbPolygonMeshVertex
 10
-2.30252
 20
-5.847975
 30
3.05
 70
    64
  0
VERTEX
  5
6BF
100
AcDbEntity
  8
0
100
AcDbVertex
100
AcDbPolygonMeshVertex
 10
-2.30252
 20
-5.847975
 30
0.05
 70
    64
  0
VERTEX
  5
6C0
100
AcDbEntity
  8
0
100
AcDbVertex
100
AcDbPolygonMeshVertex
 10
-2.30252
 20
-5.847975
 30
0.05
 70
    64
  0
VERTEX
  5
6C1
100
AcDbEntity
  8
0
100
AcDbVertex
100
AcDbPolygonMeshVertex
 10
-2.30252
 20
-5.647975
 30
3.05
 70
    64
  0
VERTEX
  5
6C2
100
AcDbEntity
  8
0
100
AcDbVertex
100
AcDbPolygonMeshVertex
 10
-2.30252
 20
-5.647975
 30
0.05
 70
    64
  0
VERTEX
  5
6C3
100
AcDbEntity
  8
0
100
AcDbVertex
100
AcDbPolygonMeshVertex
 10
-2.30252
 20
-5.847975
 30
0.05
 70
    64
  0
VERTEX
  5
6C4
100
AcDbEntity
  8
0
100
AcDbVertex
100
AcDbPolygonMeshVertex
 10
-2.20252
 20
-5.647975
 30
3.05
 70
    64
  0
VERTEX
  5
6C5
100
AcDbEntity
  8
0
100
AcDbVertex
100
AcDbPolygonMeshVertex
 10
-2.20252
 20
-5.647975
 30
0.05
 70
    64
  0
VERTEX
  5
6C6
100
AcDbEntity
  8
0
100
AcDbVertex
100
AcDbPolygonMeshVertex
 10
-2.20252
 20
-5.847975
 30
0.05
 70
    64
  0
VERTEX
  5
6C7
100
AcDbEntity
  8
0
100
AcDbVertex
100
AcDbPolygonMeshVertex
 10
-2.20252
 20
-5.647975
 30
3.05
 70
    64
  0
VERTEX
  5
6C8
100
AcDbEntity
  8
0
100
AcDbVertex
100
AcDbPolygonMeshVertex
 10
-2.20252
 20
-5.647975
 30
3.05
 70
    64
  0
VERTEX
  5
6C9
100
AcDbEntity
  8
0
100
AcDbVertex
100
AcDbPolygonMeshVertex
 10
-2.20252
 20
-5.847975
 30
3.05
 70
    64
  0
VERTEX
  5
6CA
100
AcDbEntity
  8
0
100
AcDbVertex
100
AcDbPolygonMeshVertex
 10
-2.30252
 20
-5.647975
 30
3.05
 70
    64
  0
VERTEX
  5
6CB
100
AcDbEntity
  8
0
100
AcDbVertex
100
AcDbPolygonMeshVertex
 10
-2.30252
 20
-5.647975
 30
3.05
 70
    64
  0
VERTEX
  5
6CC
100
AcDbEntity
  8
0
100
AcDbVertex
100
AcDbPolygonMeshVertex
 10
-2.30252
 20
-5.847975
 30
3.05
 70
    64
  0
SEQEND
  5
6CD
100
AcDbEntity
  8
0
  0
POLYLINE
  5
6CE
100
AcDbEntity
  8
0
100
AcDbPolygonMesh
 66
     1
 10
0.0
 20
0.0
 30
0.0
 70
    16
 71
     6
 72
     3
  0
VERTEX
  5
6CF
100
AcDbEntity
  8
0
100
AcDbVertex
100
AcDbPolygonMeshVertex
 10
-0.340006
 20
-5.847975
 30
3.05
 70
    64
  0
VERTEX
  5
6D0
100
AcDbEntity
  8
0
100
AcDbVertex
100
AcDbPolygonMeshVertex
 10
-0.340006
 20
-5.847975
 30
0.05
 70
    64
  0
VERTEX
  5
6D1
100
AcDbEntity
  8
0
100
AcDbVertex
100
AcDbPolygonMeshVertex
 10
-0.340006
 20
-5.847975
 30
0.05
 70
    64
  0
VERTEX
  5
6D2
100
AcDbEntity
  8
0
100
AcDbVertex
100
AcDbPolygonMeshVertex
 10
-0.430006
 20
-5.847975
 30
3.05
 70
    64
  0
VERTEX
  5
6D3
100
AcDbEntity
  8
0
100
AcDbVertex
100
AcDbPolygonMeshVertex
 10
-0.430006
 20
-5.847975
 30
0.05
 70
    64
  0
VERTEX
  5
6D4
100
AcDbEntity
  8
0
100
AcDbVertex
100
AcDbPolygonMeshVertex
 10
-0.430006
 20
-5.847975
 30
0.05
 70
    64
  0
VERTEX
  5
6D5
100
AcDbEntity
  8
0
100
AcDbVertex
100
AcDbPolygonMeshVertex
 10
-0.430006
 20
-5.772975
 30
3.05
 70
    64
  0
VERTEX
  5
6D6
100
AcDbEntity
  8
0
100
AcDbVertex
100
AcDbPolygonMeshVertex
 10
-0.430006
 20
-5.772975
 30
0.05
 70
    64
  0
VERTEX
  5
6D7
100
AcDbEntity
  8
0
100
AcDbVertex
100
AcDbPolygonMeshVertex
 10
-0.430006
 20
-5.847975
 30
0.05
 70
    64
  0
VERTEX
  5
6D8
100
AcDbEntity
  8
0
100
AcDbVertex
100
AcDbPolygonMeshVertex
 10
-0.340006
 20
-5.772975
 30
3.05
 70
    64
  0
VERTEX
  5
6D9
100
AcDbEntity
  8
0
100
AcDbVertex
100
AcDbPolygonMeshVertex
 10
-0.340006
 20
-5.772975
 30
0.05
 70
    64
  0
VERTEX
  5
6DA
100
AcDbEntity
  8
0
100
AcDbVertex
100
AcDbPolygonMeshVertex
 10
-0.340006
 20
-5.847975
 30
0.05
 70
    64
  0
VERTEX
  5
6DB
100
AcDbEntity
  8
0
100
AcDbVertex
100
AcDbPolygonMeshVertex
 10
-0.340006
 20
-5.772975
 30
3.05
 70
    64
  0
VERTEX
  5
6DC
100
AcDbEntity
  8
0
100
AcDbVertex
100
AcDbPolygonMeshVertex
 10
-0.340006
 20
-5.772975
 30
3.05
 70
    64
  0
VERTEX
  5
6DD
100
AcDbEntity
  8
0
100
AcDbVertex
100
AcDbPolygonMeshVertex
 10
-0.340006
 20
-5.847975
 30
3.05
 70
    64
  0
VERTEX
  5
6DE
100
AcDbEntity
  8
0
100
AcDbVertex
100
AcDbPolygonMeshVertex
 10
-0.430006
 20
-5.772975
 30
3.05
 70
    64
  0
VERTEX
  5
6DF
100
AcDbEntity
  8
0
100
AcDbVertex
100
AcDbPolygonMeshVertex
 10
-0.430006
 20
-5.772975
 30
3.05
 70
    64
  0
VERTEX
  5
6E0
100
AcDbEntity
  8
0
100
AcDbVertex
100
AcDbPolygonMeshVertex
 10
-0.430006
 20
-5.847975
 30
3.05
 70
    64
  0
SEQEND
  5
6E1
100
AcDbEntity
  8
0
  0
POLYLINE
  5
6E2
100
AcDbEntity
  8
0
100
AcDbPolygonMesh
 66
     1
 10
0.0
 20
0.0
 30
0.0
 70
    16
 71
     6
 72
     3
  0
VERTEX
  5
6E3
100
AcDbEntity
  8
0
100
AcDbVertex
100
AcDbPolygonMeshVertex
 10
-0.240006
 20
-5.847975
 30
3.05
 70
    64
  0
VERTEX
  5
6E4
100
AcDbEntity
  8
0
100
AcDbVertex
100
AcDbPolygonMeshVertex
 10
-0.240006
 20
-5.847975
 30
0.05
 70
    64
  0
VERTEX
  5
6E5
100
AcDbEntity
  8
0
100
AcDbVertex
100
AcDbPolygonMeshVertex
 10
-0.240006
 20
-5.847975
 30
0.05
 70
    64
  0
VERTEX
  5
6E6
100
AcDbEntity
  8
0
100
AcDbVertex
100
AcDbPolygonMeshVertex
 10
-0.340006
 20
-5.847975
 30
3.05
 70
    64
  0
VERTEX
  5
6E7
100
AcDbEntity
  8
0
100
AcDbVertex
100
AcDbPolygonMeshVertex
 10
-0.340006
 20
-5.847975
 30
0.05
 70
    64
  0
VERTEX
  5
6E8
100
AcDbEntity
  8
0
100
AcDbVertex
100
AcDbPolygonMeshVertex
 10
-0.340006
 20
-5.847975
 30
0.05
 70
    64
  0
VERTEX
  5
6E9
100
AcDbEntity
  8
0
100
AcDbVertex
100
AcDbPolygonMeshVertex
 10
-0.340006
 20
-5.647975
 30
3.05
 70
    64
  0
VERTEX
  5
6EA
100
AcDbEntity
  8
0
100
AcDbVertex
100
AcDbPolygonMeshVertex
 10
-0.340006
 20
-5.647975
 30
0.05
 70
    64
  0
VERTEX
  5
6EB
100
AcDbEntity
  8
0
100
AcDbVertex
100
AcDbPolygonMeshVertex
 10
-0.340006
 20
-5.847975
 30
0.05
 70
    64
  0
VERTEX
  5
6EC
100
AcDbEntity
  8
0
100
AcDbVertex
100
AcDbPolygonMeshVertex
 10
-0.240006
 20
-5.647975
 30
3.05
 70
    64
  0
VERTEX
  5
6ED
100
AcDbEntity
  8
0
100
AcDbVertex
100
AcDbPolygonMeshVertex
 10
-0.240006
 20
-5.647975
 30
0.05
 70
    64
  0
VERTEX
  5
6EE
100
AcDbEntity
  8
0
100
AcDbVertex
100
AcDbPolygonMeshVertex
 10
-0.240006
 20
-5.847975
 30
0.05
 70
    64
  0
VERTEX
  5
6EF
100
AcDbEntity
  8
0
100
AcDbVertex
100
AcDbPolygonMeshVertex
 10
-0.240006
 20
-5.647975
 30
3.05
 70
    64
  0
VERTEX
  5
6F0
100
AcDbEntity
  8
0
100
AcDbVertex
100
AcDbPolygonMeshVertex
 10
-0.240006
 20
-5.647975
 30
3.05
 70
    64
  0
VERTEX
  5
6F1
100
AcDbEntity
  8
0
100
AcDbVertex
100
AcDbPolygonMeshVertex
 10
-0.240006
 20
-5.847975
 30
3.05
 70
    64
  0
VERTEX
  5
6F2
100
AcDbEntity
  8
0
100
AcDbVertex
100
AcDbPolygonMeshVertex
 10
-0.340006
 20
-5.647975
 30
3.05
 70
    64
  0
VERTEX
  5
6F3
100
AcDbEntity
  8
0
100
AcDbVertex
100
AcDbPolygonMeshVertex
 10
-0.340006
 20
-5.647975
 30
3.05
 70
    64
  0
VERTEX
  5
6F4
100
AcDbEntity
  8
0
100
AcDbVertex
100
AcDbPolygonMeshVertex
 10
-0.340006
 20
-5.847975
 30
3.05
 70
    64
  0
SEQEND
  5
6F5
100
AcDbEntity
  8
0
  0
POLYLINE
  5
6F6
100
AcDbEntity
  8
0
100
AcDbPolygonMesh
 66
     1
 10
0.0
 20
0.0
 30
0.0
 70
    16
 71
     6
 72
     3
  0
VERTEX
  5
6F7
100
AcDbEntity
  8
0
100
AcDbVertex
100
AcDbPolygonMeshVertex
 10
-0.430006
 20
-5.847975
 30
3.05
 70
    64
  0
VERTEX
  5
6F8
100
AcDbEntity
  8
0
100
AcDbVertex
100
AcDbPolygonMeshVertex
 10
-0.430006
 20
-5.847975
 30
0.05
 70
    64
  0
VERTEX
  5
6F9
100
AcDbEntity
  8
0
100
AcDbVertex
100
AcDbPolygonMeshVertex
 10
-0.430006
 20
-5.847975
 30
0.05
 70
    64
  0
VERTEX
  5
6FA
100
AcDbEntity
  8
0
100
AcDbVertex
100
AcDbPolygonMeshVertex
 10
-0.530006
 20
-5.847975
 30
3.05
 70
    64
  0
VERTEX
  5
6FB
100
AcDbEntity
  8
0
100
AcDbVertex
100
AcDbPolygonMeshVertex
 10
-0.530006
 20
-5.847975
 30
0.05
 70
    64
  0
VERTEX
  5
6FC
100
AcDbEntity
  8
0
100
AcDbVertex
100
AcDbPolygonMeshVertex
 10
-0.530006
 20
-5.847975
 30
0.05
 70
    64
  0
VERTEX
  5
6FD
100
AcDbEntity
  8
0
100
AcDbVertex
100
AcDbPolygonMeshVertex
 10
-0.530006
 20
-5.647975
 30
3.05
 70
    64
  0
VERTEX
  5
6FE
100
AcDbEntity
  8
0
100
AcDbVertex
100
AcDbPolygonMeshVertex
 10
-0.530006
 20
-5.647975
 30
0.05
 70
    64
  0
VERTEX
  5
6FF
100
AcDbEntity
  8
0
100
AcDbVertex
100
AcDbPolygonMeshVertex
 10
-0.530006
 20
-5.847975
 30
0.05
 70
    64
  0
VERTEX
  5
700
100
AcDbEntity
  8
0
100
AcDbVertex
100
AcDbPolygonMeshVertex
 10
-0.430006
 20
-5.647975
 30
3.05
 70
    64
  0
VERTEX
  5
701
100
AcDbEntity
  8
0
100
AcDbVertex
100
AcDbPolygonMeshVertex
 10
-0.430006
 20
-5.647975
 30
0.05
 70
    64
  0
VERTEX
  5
702
100
AcDbEntity
  8
0
100
AcDbVertex
100
AcDbPolygonMeshVertex
 10
-0.430006
 20
-5.847975
 30
0.05
 70
    64
  0
VERTEX
  5
703
100
AcDbEntity
  8
0
100
AcDbVertex
100
AcDbPolygonMeshVertex
 10
-0.430006
 20
-5.647975
 30
3.05
 70
    64
  0
VERTEX
  5
704
100
AcDbEntity
  8
0
100
AcDbVertex
100
AcDbPolygonMeshVertex
 10
-0.430006
 20
-5.647975
 30
3.05
 70
    64
  0
VERTEX
  5
705
100
AcDbEntity
  8
0
100
AcDbVertex
100
AcDbPolygonMeshVertex
 10
-0.430006
 20
-5.847975
 30
3.05
 70
    64
  0
VERTEX
  5
706
100
AcDbEntity
  8
0
100
AcDbVertex
100
AcDbPolygonMeshVertex
 10
-0.530006
 20
-5.647975
 30
3.05
 70
    64
  0
VERTEX
  5
707
100
AcDbEntity
  8
0
100
AcDbVertex
100
AcDbPolygonMeshVertex
 10
-0.530006
 20
-5.647975
 30
3.05
 70
    64
  0
VERTEX
  5
708
100
AcDbEntity
  8
0
100
AcDbVertex
100
AcDbPolygonMeshVertex
 10
-0.530006
 20
-5.847975
 30
3.05
 70
    64
  0
SEQEND
  5
709
100
AcDbEntity
  8
0
  0
POLYLINE
  5
70A
100
AcDbEntity
  8
0
100
AcDbPolygonMesh
 66
     1
 10
0.0
 20
0.0
 30
0.0
 70
    16
 71
     6
 72
     3
  0
VERTEX
  5
70B
100
AcDbEntity
  8
0
100
AcDbVertex
100
AcDbPolygonMeshVertex
 10
1.034994
 20
-5.847975
 30
3.05
 70
    64
  0
VERTEX
  5
70C
100
AcDbEntity
  8
0
100
AcDbVertex
100
AcDbPolygonMeshVertex
 10
1.034994
 20
-5.847975
 30
0.05
 70
    64
  0
VERTEX
  5
70D
100
AcDbEntity
  8
0
100
AcDbVertex
100
AcDbPolygonMeshVertex
 10
1.034994
 20
-5.847975
 30
0.05
 70
    64
  0
VERTEX
  5
70E
100
AcDbEntity
  8
0
100
AcDbVertex
100
AcDbPolygonMeshVertex
 10
0.944994
 20
-5.847975
 30
3.05
 70
    64
  0
VERTEX
  5
70F
100
AcDbEntity
  8
0
100
AcDbVertex
100
AcDbPolygonMeshVertex
 10
0.944994
 20
-5.847975
 30
0.05
 70
    64
  0
VERTEX
  5
710
100
AcDbEntity
  8
0
100
AcDbVertex
100
AcDbPolygonMeshVertex
 10
0.944994
 20
-5.847975
 30
0.05
 70
    64
  0
VERTEX
  5
711
100
AcDbEntity
  8
0
100
AcDbVertex
100
AcDbPolygonMeshVertex
 10
0.944994
 20
-5.772975
 30
3.05
 70
    64
  0
VERTEX
  5
712
100
AcDbEntity
  8
0
100
AcDbVertex
100
AcDbPolygonMeshVertex
 10
0.944994
 20
-5.772975
 30
0.05
 70
    64
  0
VERTEX
  5
713
100
AcDbEntity
  8
0
100
AcDbVertex
100
AcDbPolygonMeshVertex
 10
0.944994
 20
-5.847975
 30
0.05
 70
    64
  0
VERTEX
  5
714
100
AcDbEntity
  8
0
100
AcDbVertex
100
AcDbPolygonMeshVertex
 10
1.034994
 20
-5.772975
 30
3.05
 70
    64
  0
VERTEX
  5
715
100
AcDbEntity
  8
0
100
AcDbVertex
100
AcDbPolygonMeshVertex
 10
1.034994
 20
-5.772975
 30
0.05
 70
    64
  0
VERTEX
  5
716
100
AcDbEntity
  8
0
100
AcDbVertex
100
AcDbPolygonMeshVertex
 10
1.034994
 20
-5.847975
 30
0.05
 70
    64
  0
VERTEX
  5
717
100
AcDbEntity
  8
0
100
AcDbVertex
100
AcDbPolygonMeshVertex
 10
1.034994
 20
-5.772975
 30
3.05
 70
    64
  0
VERTEX
  5
718
100
AcDbEntity
  8
0
100
AcDbVertex
100
AcDbPolygonMeshVertex
 10
1.034994
 20
-5.772975
 30
3.05
 70
    64
  0
VERTEX
  5
719
100
AcDbEntity
  8
0
100
AcDbVertex
100
AcDbPolygonMeshVertex
 10
1.034994
 20
-5.847975
 30
3.05
 70
    64
  0
VERTEX
  5
71A
100
AcDbEntity
  8
0
100
AcDbVertex
100
AcDbPolygonMeshVertex
 10
0.944994
 20
-5.772975
 30
3.05
 70
    64
  0
VERTEX
  5
71B
100
AcDbEntity
  8
0
100
AcDbVertex
100
AcDbPolygonMeshVertex
 10
0.944994
 20
-5.772975
 30
3.05
 70
    64
  0
VERTEX
  5
71C
100
AcDbEntity
  8
0
100
AcDbVertex
100
AcDbPolygonMeshVertex
 10
0.944994
 20
-5.847975
 30
3.05
 70
    64
  0
SEQEND
  5
71D
100
AcDbEntity
  8
0
  0
POLYLINE
  5
71E
100
AcDbEntity
  8
0
100
AcDbPolygonMesh
 66
     1
 10
0.0
 20
0.0
 30
0.0
 70
    16
 71
     6
 72
     3
  0
VERTEX
  5
71F
100
AcDbEntity
  8
0
100
AcDbVertex
100
AcDbPolygonMeshVertex
 10
1.134994
 20
-5.847975
 30
3.05
 70
    64
  0
VERTEX
  5
720
100
AcDbEntity
  8
0
100
AcDbVertex
100
AcDbPolygonMeshVertex
 10
1.134994
 20
-5.847975
 30
0.05
 70
    64
  0
VERTEX
  5
721
100
AcDbEntity
  8
0
100
AcDbVertex
100
AcDbPolygonMeshVertex
 10
1.134994
 20
-5.847975
 30
0.05
 70
    64
  0
VERTEX
  5
722
100
AcDbEntity
  8
0
100
AcDbVertex
100
AcDbPolygonMeshVertex
 10
1.034994
 20
-5.847975
 30
3.05
 70
    64
  0
VERTEX
  5
723
100
AcDbEntity
  8
0
100
AcDbVertex
100
AcDbPolygonMeshVertex
 10
1.034994
 20
-5.847975
 30
0.05
 70
    64
  0
VERTEX
  5
724
100
AcDbEntity
  8
0
100
AcDbVertex
100
AcDbPolygonMeshVertex
 10
1.034994
 20
-5.847975
 30
0.05
 70
    64
  0
VERTEX
  5
725
100
AcDbEntity
  8
0
100
AcDbVertex
100
AcDbPolygonMeshVertex
 10
1.034994
 20
-5.647975
 30
3.05
 70
    64
  0
VERTEX
  5
726
100
AcDbEntity
  8
0
100
AcDbVertex
100
AcDbPolygonMeshVertex
 10
1.034994
 20
-5.647975
 30
0.05
 70
    64
  0
VERTEX
  5
727
100
AcDbEntity
  8
0
100
AcDbVertex
100
AcDbPolygonMeshVertex
 10
1.034994
 20
-5.847975
 30
0.05
 70
    64
  0
VERTEX
  5
728
100
AcDbEntity
  8
0
100
AcDbVertex
100
AcDbPolygonMeshVertex
 10
1.134994
 20
-5.647975
 30
3.05
 70
    64
  0
VERTEX
  5
729
100
AcDbEntity
  8
0
100
AcDbVertex
100
AcDbPolygonMeshVertex
 10
1.134994
 20
-5.647975
 30
0.05
 70
    64
  0
VERTEX
  5
72A
100
AcDbEntity
  8
0
100
AcDbVertex
100
AcDbPolygonMeshVertex
 10
1.134994
 20
-5.847975
 30
0.05
 70
    64
  0
VERTEX
  5
72B
100
AcDbEntity
  8
0
100
AcDbVertex
100
AcDbPolygonMeshVertex
 10
1.134994
 20
-5.647975
 30
3.05
 70
    64
  0
VERTEX
  5
72C
100
AcDbEntity
  8
0
100
AcDbVertex
100
AcDbPolygonMeshVertex
 10
1.134994
 20
-5.647975
 30
3.05
 70
    64
  0
VERTEX
  5
72D
100
AcDbEntity
  8
0
100
AcDbVertex
100
AcDbPolygonMeshVertex
 10
1.134994
 20
-5.847975
 30
3.05
 70
    64
  0
VERTEX
  5
72E
100
AcDbEntity
  8
0
100
AcDbVertex
100
AcDbPolygonMeshVertex
 10
1.034994
 20
-5.647975
 30
3.05
 70
    64
  0
VERTEX
  5
72F
100
AcDbEntity
  8
0
100
AcDbVertex
100
AcDbPolygonMeshVertex
 10
1.034994
 20
-5.647975
 30
3.05
 70
    64
  0
VERTEX
  5
730
100
AcDbEntity
  8
0
100
AcDbVertex
100
AcDbPolygonMeshVertex
 10
1.034994
 20
-5.847975
 30
3.05
 70
    64
  0
SEQEND
  5
731
100
AcDbEntity
  8
0
  0
POLYLINE
  5
732
100
AcDbEntity
  8
0
100
AcDbPolygonMesh
 66
     1
 10
0.0
 20
0.0
 30
0.0
 70
    16
 71
     6
 72
     3
  0
VERTEX
  5
733
100
AcDbEntity
  8
0
100
AcDbVertex
100
AcDbPolygonMeshVertex
 10
0.944994
 20
-5.847975
 30
3.05
 70
    64
  0
VERTEX
  5
734
100
AcDbEntity
  8
0
100
AcDbVertex
100
AcDbPolygonMeshVertex
 10
0.944994
 20
-5.847975
 30
0.05
 70
    64
  0
VERTEX
  5
735
100
AcDbEntity
  8
0
100
AcDbVertex
100
AcDbPolygonMeshVertex
 10
0.944994
 20
-5.847975
 30
0.05
 70
    64
  0
VERTEX
  5
736
100
AcDbEntity
  8
0
100
AcDbVertex
100
AcDbPolygonMeshVertex
 10
0.844994
 20
-5.847975
 30
3.05
 70
    64
  0
VERTEX
  5
737
100
AcDbEntity
  8
0
100
AcDbVertex
100
AcDbPolygonMeshVertex
 10
0.844994
 20
-5.847975
 30
0.05
 70
    64
  0
VERTEX
  5
738
100
AcDbEntity
  8
0
100
AcDbVertex
100
AcDbPolygonMeshVertex
 10
0.844994
 20
-5.847975
 30
0.05
 70
    64
  0
VERTEX
  5
739
100
AcDbEntity
  8
0
100
AcDbVertex
100
AcDbPolygonMeshVertex
 10
0.844994
 20
-5.647975
 30
3.05
 70
    64
  0
VERTEX
  5
73A
100
AcDbEntity
  8
0
100
AcDbVertex
100
AcDbPolygonMeshVertex
 10
0.844994
 20
-5.647975
 30
0.05
 70
    64
  0
VERTEX
  5
73B
100
AcDbEntity
  8
0
100
AcDbVertex
100
AcDbPolygonMeshVertex
 10
0.844994
 20
-5.847975
 30
0.05
 70
    64
  0
VERTEX
  5
73C
100
AcDbEntity
  8
0
100
AcDbVertex
100
AcDbPolygonMeshVertex
 10
0.944994
 20
-5.647975
 30
3.05
 70
    64
  0
VERTEX
  5
73D
100
AcDbEntity
  8
0
100
AcDbVertex
100
AcDbPolygonMeshVertex
 10
0.944994
 20
-5.647975
 30
0.05
 70
    64
  0
VERTEX
  5
73E
100
AcDbEntity
  8
0
100
AcDbVertex
100
AcDbPolygonMeshVertex
 10
0.944994
 20
-5.847975
 30
0.05
 70
    64
  0
VERTEX
  5
73F
100
AcDbEntity
  8
0
100
AcDbVertex
100
AcDbPolygonMeshVertex
 10
0.944994
 20
-5.647975
 30
3.05
 70
    64
  0
VERTEX
  5
740
100
AcDbEntity
  8
0
100
AcDbVertex
100
AcDbPolygonMeshVertex
 10
0.944994
 20
-5.647975
 30
3.05
 70
    64
  0
VERTEX
  5
741
100
AcDbEntity
  8
0
100
AcDbVertex
100
AcDbPolygonMeshVertex
 10
0.944994
 20
-5.847975
 30
3.05
 70
    64
  0
VERTEX
  5
742
100
AcDbEntity
  8
0
100
AcDbVertex
100
AcDbPolygonMeshVertex
 10
0.844994
 20
-5.647975
 30
3.05
 70
    64
  0
VERTEX
  5
743
100
AcDbEntity
  8
0
100
AcDbVertex
100
AcDbPolygonMeshVertex
 10
0.844994
 20
-5.647975
 30
3.05
 70
    64
  0
VERTEX
  5
744
100
AcDbEntity
  8
0
100
AcDbVertex
100
AcDbPolygonMeshVertex
 10
0.844994
 20
-5.847975
 30
3.05
 70
    64
  0
SEQEND
  5
745
100
AcDbEntity
  8
0
  0
POLYLINE
  5
746
100
AcDbEntity
  8
0
100
AcDbPolygonMesh
 66
     1
 10
0.0
 20
0.0
 30
0.0
 70
    16
 71
     6
 72
     3
  0
VERTEX
  5
747
100
AcDbEntity
  8
0
100
AcDbVertex
100
AcDbPolygonMeshVertex
 10
-2.275903
 20
-4.018178
 30
0.425
 70
    64
  0
VERTEX
  5
748
100
AcDbEntity
  8
0
100
AcDbVertex
100
AcDbPolygonMeshVertex
 10
-2.275903
 20
-4.018178
 30
0.05
 70
    64
  0
VERTEX
  5
749
100
AcDbEntity
  8
0
100
AcDbVertex
100
AcDbPolygonMeshVertex
 10
-2.275903
 20
-4.018178
 30
0.05
 70
    64
  0
VERTEX
  5
74A
100
AcDbEntity
  8
0
100
AcDbVertex
100
AcDbPolygonMeshVertex
 10
-2.566479
 20
-4.018178
 30
0.425
 70
    64
  0
VERTEX
  5
74B
100
AcDbEntity
  8
0
100
AcDbVertex
100
AcDbPolygonMeshVertex
 10
-2.566479
 20
-4.018178
 30
0.05
 70
    64
  0
VERTEX
  5
74C
100
AcDbEntity
  8
0
100
AcDbVertex
100
AcDbPolygonMeshVertex
 10
-2.566479
 20
-4.018178
 30
0.05
 70
    64
  0
VERTEX
  5
74D
100
AcDbEntity
  8
0
100
AcDbVertex
100
AcDbPolygonMeshVertex
 10
-2.566479
 20
-3.039199
 30
0.425
 70
    64
  0
VERTEX
  5
74E
100
AcDbEntity
  8
0
100
AcDbVertex
100
AcDbPolygonMeshVertex
 10
-2.566479
 20
-3.039199
 30
0.05
 70
    64
  0
VERTEX
  5
74F
100
AcDbEntity
  8
0
100
AcDbVertex
100
AcDbPolygonMeshVertex
 10
-2.566479
 20
-4.018178
 30
0.05
 70
    64
  0
VERTEX
  5
750
100
AcDbEntity
  8
0
100
AcDbVertex
100
AcDbPolygonMeshVertex
 10
-2.275903
 20
-3.039199
 30
0.425
 70
    64
  0
VERTEX
  5
751
100
AcDbEntity
  8
0
100
AcDbVertex
100
AcDbPolygonMeshVertex
 10
-2.275903
 20
-3.039199
 30
0.05
 70
    64
  0
VERTEX
  5
752
100
AcDbEntity
  8
0
100
AcDbVertex
100
AcDbPolygonMeshVertex
 10
-2.275903
 20
-4.018178
 30
0.05
 70
    64
  0
VERTEX
  5
753
100
AcDbEntity
  8
0
100
AcDbVertex
100
AcDbPolygonMeshVertex
 10
-2.275903
 20
-3.039199
 30
0.425
 70
    64
  0
VERTEX
  5
754
100
AcDbEntity
  8
0
100
AcDbVertex
100
AcDbPolygonMeshVertex
 10
-2.275903
 20
-3.039199
 30
0.425
 70
    64
  0
VERTEX
  5
755
100
AcDbEntity
  8
0
100
AcDbVertex
100
AcDbPolygonMeshVertex
 10
-2.275903
 20
-4.018178
 30
0.425
 70
    64
  0
VERTEX
  5
756
100
AcDbEntity
  8
0
100
AcDbVertex
100
AcDbPolygonMeshVertex
 10
-2.566479
 20
-3.039199
 30
0.425
 70
    64
  0
VERTEX
  5
757
100
AcDbEntity
  8
0
100
AcDbVertex
100
AcDbPolygonMeshVertex
 10
-2.566479
 20
-3.039199
 30
0.425
 70
    64
  0
VERTEX
  5
758
100
AcDbEntity
  8
0
100
AcDbVertex
100
AcDbPolygonMeshVertex
 10
-2.566479
 20
-4.018178
 30
0.425
 70
    64
  0
SEQEND
  5
759
100
AcDbEntity
  8
0
  0
POLYLINE
  5
75A
100
AcDbEntity
  8
0
100
AcDbPolygonMesh
 66
     1
 10
0.0
 20
0.0
 30
0.0
 70
    16
 71
     6
 72
     3
  0
VERTEX
  5
75B
100
AcDbEntity
  8
0
100
AcDbVertex
100
AcDbPolygonMeshVertex
 10
-1.210458
 20
-4.911092
 30
0.425
 70
    64
  0
VERTEX
  5
75C
100
AcDbEntity
  8
0
100
AcDbVertex
100
AcDbPolygonMeshVertex
 10
-1.210458
 20
-4.911092
 30
0.05
 70
    64
  0
VERTEX
  5
75D
100
AcDbEntity
  8
0
100
AcDbVertex
100
AcDbPolygonMeshVertex
 10
-1.210458
 20
-4.911092
 30
0.05
 70
    64
  0
VERTEX
  5
75E
100
AcDbEntity
  8
0
100
AcDbVertex
100
AcDbPolygonMeshVertex
 10
-1.501034
 20
-4.911092
 30
0.425
 70
    64
  0
VERTEX
  5
75F
100
AcDbEntity
  8
0
100
AcDbVertex
100
AcDbPolygonMeshVertex
 10
-1.501034
 20
-4.911092
 30
0.05
 70
    64
  0
VERTEX
  5
760
100
AcDbEntity
  8
0
100
AcDbVertex
100
AcDbPolygonMeshVertex
 10
-1.501034
 20
-4.911092
 30
0.05
 70
    64
  0
VERTEX
  5
761
100
AcDbEntity
  8
0
100
AcDbVertex
100
AcDbPolygonMeshVertex
 10
-1.501034
 20
-3.523309
 30
0.425
 70
    64
  0
VERTEX
  5
762
100
AcDbEntity
  8
0
100
AcDbVertex
100
AcDbPolygonMeshVertex
 10
-1.501034
 20
-3.523309
 30
0.05
 70
    64
  0
VERTEX
  5
763
100
AcDbEntity
  8
0
100
AcDbVertex
100
AcDbPolygonMeshVertex
 10
-1.501034
 20
-4.911092
 30
0.05
 70
    64
  0
VERTEX
  5
764
100
AcDbEntity
  8
0
100
AcDbVertex
100
AcDbPolygonMeshVertex
 10
-1.210458
 20
-3.523309
 30
0.425
 70
    64
  0
VERTEX
  5
765
100
AcDbEntity
  8
0
100
AcDbVertex
100
AcDbPolygonMeshVertex
 10
-1.210458
 20
-3.523309
 30
0.05
 70
    64
  0
VERTEX
  5
766
100
AcDbEntity
  8
0
100
AcDbVertex
100
AcDbPolygonMeshVertex
 10
-1.210458
 20
-4.911092
 30
0.05
 70
    64
  0
VERTEX
  5
767
100
AcDbEntity
  8
0
100
AcDbVertex
100
AcDbPolygonMeshVertex
 10
-1.210458
 20
-3.523309
 30
0.425
 70
    64
  0
VERTEX
  5
768
100
AcDbEntity
  8
0
100
AcDbVertex
100
AcDbPolygonMeshVertex
 10
-1.210458
 20
-3.523309
 30
0.425
 70
    64
  0
VERTEX
  5
769
100
AcDbEntity
  8
0
100
AcDbVertex
100
AcDbPolygonMeshVertex
 10
-1.210458
 20
-4.911092
 30
0.425
 70
    64
  0
VERTEX
  5
76A
100
AcDbEntity
  8
0
100
AcDbVertex
100
AcDbPolygonMeshVertex
 10
-1.501034
 20
-3.523309
 30
0.425
 70
    64
  0
VERTEX
  5
76B
100
AcDbEntity
  8
0
100
AcDbVertex
100
AcDbPolygonMeshVertex
 10
-1.501034
 20
-3.523309
 30
0.425
 70
    64
  0
VERTEX
  5
76C
100
AcDbEntity
  8
0
100
AcDbVertex
100
AcDbPolygonMeshVertex
 10
-1.501034
 20
-4.911092
 30
0.425
 70
    64
  0
SEQEND
  5
76D
100
AcDbEntity
  8
0
  0
LINE
  5
76E
100
AcDbEntity
  8
0
100
AcDbLine
 10
-2.57
 20
-5.88
 30
0.04
 11
-2.57
 21
-5.87971
 31
0.000295
  0
POINT
  5
76F
100
AcDbEntity
  8
DIMS-MTG-HOLES
100
AcDbPoint
 10
-2.15752
 20
-5.772975
 30
0.05
  0
LINE
  5
770
100
AcDbEntity
  8
0
100
AcDbLine
 10
-2.57
 20
-0.45
 30
0.04
 11
-2.57
 21
-0.45
 31
0.0
  0
POLYLINE
  5
771
100
AcDbEntity
  8
0
100
AcDbPolygonMesh
 66
     1
 10
0.0
 20
0.0
 30
0.0
 70
    16
 71
     6
 72
     3
  0
VERTEX
  5
772
100
AcDbEntity
  8
0
100
AcDbVertex
100
AcDbPolygonMeshVertex
 10
-0.452453
 20
-4.018178
 30
0.425
 70
    64
  0
VERTEX
  5
773
100
AcDbEntity
  8
0
100
AcDbVertex
100
AcDbPolygonMeshVertex
 10
-0.452453
 20
-4.018178
 30
0.05
 70
    64
  0
VERTEX
  5
774
100
AcDbEntity
  8
0
100
AcDbVertex
100
AcDbPolygonMeshVertex
 10
-0.452453
 20
-4.018178
 30
0.05
 70
    64
  0
VERTEX
  5
775
100
AcDbEntity
  8
0
100
AcDbVertex
100
AcDbPolygonMeshVertex
 10
-0.743029
 20
-4.018178
 30
0.425
 70
    64
  0
VERTEX
  5
776
100
AcDbEntity
  8
0
100
AcDbVertex
100
AcDbPolygonMeshVertex
 10
-0.743029
 20
-4.018178
 30
0.05
 70
    64
  0
VERTEX
  5
777
100
AcDbEntity
  8
0
100
AcDbVertex
100
AcDbPolygonMeshVertex
 10
-0.743029
 20
-4.018178
 30
0.05
 70
    64
  0
VERTEX
  5
778
100
AcDbEntity
  8
0
100
AcDbVertex
100
AcDbPolygonMeshVertex
 10
-0.743029
 20
-3.039199
 30
0.425
 70
    64
  0
VERTEX
  5
779
100
AcDbEntity
  8
0
100
AcDbVertex
100
AcDbPolygonMeshVertex
 10
-0.743029
 20
-3.039199
 30
0.05
 70
    64
  0
VERTEX
  5
77A
100
AcDbEntity
  8
0
100
AcDbVertex
100
AcDbPolygonMeshVertex
 10
-0.743029
 20
-4.018178
 30
0.05
 70
    64
  0
VERTEX
  5
77B
100
AcDbEntity
  8
0
100
AcDbVertex
100
AcDbPolygonMeshVertex
 10
-0.452453
 20
-3.039199
 30
0.425
 70
    64
  0
VERTEX
  5
77C
100
AcDbEntity
  8
0
100
AcDbVertex
100
AcDbPolygonMeshVertex
 10
-0.452453
 20
-3.039199
 30
0.05
 70
    64
  0
VERTEX
  5
77D
100
AcDbEntity
  8
0
100
AcDbVertex
100
AcDbPolygonMeshVertex
 10
-0.452453
 20
-4.018178
 30
0.05
 70
    64
  0
VERTEX
  5
77E
100
AcDbEntity
  8
0
100
AcDbVertex
100
AcDbPolygonMeshVertex
 10
-0.452453
 20
-3.039199
 30
0.425
 70
    64
  0
VERTEX
  5
77F
100
AcDbEntity
  8
0
100
AcDbVertex
100
AcDbPolygonMeshVertex
 10
-0.452453
 20
-3.039199
 30
0.425
 70
    64
  0
VERTEX
  5
780
100
AcDbEntity
  8
0
100
AcDbVertex
100
AcDbPolygonMeshVertex
 10
-0.452453
 20
-4.018178
 30
0.425
 70
    64
  0
VERTEX
  5
781
100
AcDbEntity
  8
0
100
AcDbVertex
100
AcDbPolygonMeshVertex
 10
-0.743029
 20
-3.039199
 30
0.425
 70
    64
  0
VERTEX
  5
782
100
AcDbEntity
  8
0
100
AcDbVertex
100
AcDbPolygonMeshVertex
 10
-0.743029
 20
-3.039199
 30
0.425
 70
    64
  0
VERTEX
  5
783
100
AcDbEntity
  8
0
100
AcDbVertex
100
AcDbPolygonMeshVertex
 10
-0.743029
 20
-4.018178
 30
0.425
 70
    64
  0
SEQEND
  5
784
100
AcDbEntity
  8
0
  0
POLYLINE
  5
785
100
AcDbEntity
  8
0
100
AcDbPolygonMesh
 66
     1
 10
0.0
 20
0.0
 30
0.0
 70
    16
 71
     6
 72
     3
  0
VERTEX
  5
786
100
AcDbEntity
  8
0
100
AcDbVertex
100
AcDbPolygonMeshVertex
 10
0.957378
 20
-4.018178
 30
0.425
 70
    64
  0
VERTEX
  5
787
100
AcDbEntity
  8
0
100
AcDbVertex
100
AcDbPolygonMeshVertex
 10
0.957378
 20
-4.018178
 30
0.05
 70
    64
  0
VERTEX
  5
788
100
AcDbEntity
  8
0
100
AcDbVertex
100
AcDbPolygonMeshVertex
 10
0.957378
 20
-4.018178
 30
0.05
 70
    64
  0
VERTEX
  5
789
100
AcDbEntity
  8
0
100
AcDbVertex
100
AcDbPolygonMeshVertex
 10
0.666802
 20
-4.018178
 30
0.425
 70
    64
  0
VERTEX
  5
78A
100
AcDbEntity
  8
0
100
AcDbVertex
100
AcDbPolygonMeshVertex
 10
0.666802
 20
-4.018178
 30
0.05
 70
    64
  0
VERTEX
  5
78B
100
AcDbEntity
  8
0
100
AcDbVertex
100
AcDbPolygonMeshVertex
 10
0.666802
 20
-4.018178
 30
0.05
 70
    64
  0
VERTEX
  5
78C
100
AcDbEntity
  8
0
100
AcDbVertex
100
AcDbPolygonMeshVertex
 10
0.666802
 20
-3.039199
 30
0.425
 70
    64
  0
VERTEX
  5
78D
100
AcDbEntity
  8
0
100
AcDbVertex
100
AcDbPolygonMeshVertex
 10
0.666802
 20
-3.039199
 30
0.05
 70
    64
  0
VERTEX
  5
78E
100
AcDbEntity
  8
0
100
AcDbVertex
100
AcDbPolygonMeshVertex
 10
0.666802
 20
-4.018178
 30
0.05
 70
    64
  0
VERTEX
  5
78F
100
AcDbEntity
  8
0
100
AcDbVertex
100
AcDbPolygonMeshVertex
 10
0.957378
 20
-3.039199
 30
0.425
 70
    64
  0
VERTEX
  5
790
100
AcDbEntity
  8
0
100
AcDbVertex
100
AcDbPolygonMeshVertex
 10
0.957378
 20
-3.039199
 30
0.05
 70
    64
  0
VERTEX
  5
791
100
AcDbEntity
  8
0
100
AcDbVertex
100
AcDbPolygonMeshVertex
 10
0.957378
 20
-4.018178
 30
0.05
 70
    64
  0
VERTEX
  5
792
100
AcDbEntity
  8
0
100
AcDbVertex
100
AcDbPolygonMeshVertex
 10
0.957378
 20
-3.039199
 30
0.425
 70
    64
  0
VERTEX
  5
793
100
AcDbEntity
  8
0
100
AcDbVertex
100
AcDbPolygonMeshVertex
 10
0.957378
 20
-3.039199
 30
0.425
 70
    64
  0
VERTEX
  5
794
100
AcDbEntity
  8
0
100
AcDbVertex
100
AcDbPolygonMeshVertex
 10
0.957378
 20
-4.018178
 30
0.425
 70
    64
  0
VERTEX
  5
795
100
AcDbEntity
  8
0
100
AcDbVertex
100
AcDbPolygonMeshVertex
 10
0.666802
 20
-3.039199
 30
0.425
 70
    64
  0
VERTEX
  5
796
100
AcDbEntity
  8
0
100
AcDbVertex
100
AcDbPolygonMeshVertex
 10
0.666802
 20
-3.039199
 30
0.425
 70
    64
  0
VERTEX
  5
797
100
AcDbEntity
  8
0
100
AcDbVertex
100
AcDbPolygonMeshVertex
 10
0.666802
 20
-4.018178
 30
0.425
 70
    64
  0
SEQEND
  5
798
100
AcDbEntity
  8
0
  0
POLYLINE
  5
799
100
AcDbEntity
  8
0
100
AcDbPolygonMesh
 66
     1
 10
0.0
 20
0.0
 30
0.0
 70
    16
 71
     6
 72
     3
  0
VERTEX
  5
79A
100
AcDbEntity
  8
0
100
AcDbVertex
100
AcDbPolygonMeshVertex
 10
0.217
 20
-6.47
 30
0.04
 70
    64
  0
VERTEX
  5
79B
100
AcDbEntity
  8
0
100
AcDbVertex
100
AcDbPolygonMeshVertex
 10
0.217
 20
-6.47
 30
0.0
 70
    64
  0
VERTEX
  5
79C
100
AcDbEntity
  8
0
100
AcDbVertex
100
AcDbPolygonMeshVertex
 10
0.217
 20
-6.47
 30
0.0
 70
    64
  0
VERTEX
  5
79D
100
AcDbEntity
  8
0
100
AcDbVertex
100
AcDbPolygonMeshVertex
 10
-0.217
 20
-6.47
 30
0.04
 70
    64
  0
VERTEX
  5
79E
100
AcDbEntity
  8
0
100
AcDbVertex
100
AcDbPolygonMeshVertex
 10
-0.217
 20
-6.47
 30
0.0
 70
    64
  0
VERTEX
  5
79F
100
AcDbEntity
  8
0
100
AcDbVertex
100
AcDbPolygonMeshVertex
 10
-0.217
 20
-6.47
 30
0.0
 70
    64
  0
VERTEX
  5
7A0
100
AcDbEntity
  8
0
100
AcDbVertex
100
AcDbPolygonMeshVertex
 10
-0.217
 20
-5.92
 30
0.04
 70
    64
  0
VERTEX
  5
7A1
100
AcDbEntity
  8
0
100
AcDbVertex
100
AcDbPolygonMeshVertex
 10
-0.217
 20
-5.92
 30
0.0
 70
    64
  0
VERTEX
  5
7A2
100
AcDbEntity
  8
0
100
AcDbVertex
100
AcDbPolygonMeshVertex
 10
-0.217
 20
-6.47
 30
0.0
 70
    64
  0
VERTEX
  5
7A3
100
AcDbEntity
  8
0
100
AcDbVertex
100
AcDbPolygonMeshVertex
 10
0.217
 20
-5.92
 30
0.04
 70
    64
  0
VERTEX
  5
7A4
100
AcDbEntity
  8
0
100
AcDbVertex
100
AcDbPolygonMeshVertex
 10
0.217
 20
-5.92
 30
0.0
 70
    64
  0
VERTEX
  5
7A5
100
AcDbEntity
  8
0
100
AcDbVertex
100
AcDbPolygonMeshVertex
 10
0.217
 20
-6.47
 30
0.0
 70
    64
  0
VERTEX
  5
7A6
100
AcDbEntity
  8
0
100
AcDbVertex
100
AcDbPolygonMeshVertex
 10
0.217
 20
-5.92
 30
0.04
 70
    64
  0
VERTEX
  5
7A7
100
AcDbEntity
  8
0
100
AcDbVertex
100
AcDbPolygonMeshVertex
 10
0.217
 20
-5.92
 30
0.04
 70
    64
  0
VERTEX
  5
7A8
100
AcDbEntity
  8
0
100
AcDbVertex
100
AcDbPolygonMeshVertex
 10
0.217
 20
-6.47
 30
0.04
 70
    64
  0
VERTEX
  5
7A9
100
AcDbEntity
  8
0
100
AcDbVertex
100
AcDbPolygonMeshVertex
 10
-0.217
 20
-5.92
 30
0.04
 70
    64
  0
VERTEX
  5
7AA
100
AcDbEntity
  8
0
100
AcDbVertex
100
AcDbPolygonMeshVertex
 10
-0.217
 20
-5.92
 30
0.04
 70
    64
  0
VERTEX
  5
7AB
100
AcDbEntity
  8
0
100
AcDbVertex
100
AcDbPolygonMeshVertex
 10
-0.217
 20
-6.47
 30
0.04
 70
    64
  0
SEQEND
  5
7AC
100
AcDbEntity
  8
0
  0
CIRCLE
  5
7AD
100
AcDbEntity
  8
0
100
AcDbCircle
 39
0.04
 10
0.0
 20
-6.22
 30
0.0
 40
0.1085
  0
POLYLINE
  5
7AE
100
AcDbEntity
  8
0
100
AcDbPolygonMesh
 66
     1
 10
0.0
 20
0.0
 30
0.0
 70
    16
 71
     6
 72
     3
  0
VERTEX
  5
7AF
100
AcDbEntity
  8
0
100
AcDbVertex
100
AcDbPolygonMeshVertex
 10
-0.452453
 20
-4.738964
 30
0.425
 70
    64
  0
VERTEX
  5
7B0
100
AcDbEntity
  8
0
100
AcDbVertex
100
AcDbPolygonMeshVertex
 10
-0.452453
 20
-4.738964
 30
0.05
 70
    64
  0
VERTEX
  5
7B1
100
AcDbEntity
  8
0
100
AcDbVertex
100
AcDbPolygonMeshVertex
 10
-0.452453
 20
-4.738964
 30
0.05
 70
    64
  0
VERTEX
  5
7B2
100
AcDbEntity
  8
0
100
AcDbVertex
100
AcDbPolygonMeshVertex
 10
-0.743029
 20
-4.738964
 30
0.425
 70
    64
  0
VERTEX
  5
7B3
100
AcDbEntity
  8
0
100
AcDbVertex
100
AcDbPolygonMeshVertex
 10
-0.743029
 20
-4.738964
 30
0.05
 70
    64
  0
VERTEX
  5
7B4
100
AcDbEntity
  8
0
100
AcDbVertex
100
AcDbPolygonMeshVertex
 10
-0.743029
 20
-4.738964
 30
0.05
 70
    64
  0
VERTEX
  5
7B5
100
AcDbEntity
  8
0
100
AcDbVertex
100
AcDbPolygonMeshVertex
 10
-0.743029
 20
-4.06121
 30
0.425
 70
    64
  0
VERTEX
  5
7B6
100
AcDbEntity
  8
0
100
AcDbVertex
100
AcDbPolygonMeshVertex
 10
-0.743029
 20
-4.06121
 30
0.05
 70
    64
  0
VERTEX
  5
7B7
100
AcDbEntity
  8
0
100
AcDbVertex
100
AcDbPolygonMeshVertex
 10
-0.743029
 20
-4.738964
 30
0.05
 70
    64
  0
VERTEX
  5
7B8
100
AcDbEntity
  8
0
100
AcDbVertex
100
AcDbPolygonMeshVertex
 10
-0.452453
 20
-4.06121
 30
0.425
 70
    64
  0
VERTEX
  5
7B9
100
AcDbEntity
  8
0
100
AcDbVertex
100
AcDbPolygonMeshVertex
 10
-0.452453
 20
-4.06121
 30
0.05
 70
    64
  0
VERTEX
  5
7BA
100
AcDbEntity
  8
0
100
AcDbVertex
100
AcDbPolygonMeshVertex
 10
-0.452453
 20
-4.738964
 30
0.05
 70
    64
  0
VERTEX
  5
7BB
100
AcDbEntity
  8
0
100
AcDbVertex
100
AcDbPolygonMeshVertex
 10
-0.452453
 20
-4.06121
 30
0.425
 70
    64
  0
VERTEX
  5
7BC
100
AcDbEntity
  8
0
100
AcDbVertex
100
AcDbPolygonMeshVertex
 10
-0.452453
 20
-4.06121
 30
0.425
 70
    64
  0
VERTEX
  5
7BD
100
AcDbEntity
  8
0
100
AcDbVertex
100
AcDbPolygonMeshVertex
 10
-0.452453
 20
-4.738964
 30
0.425
 70
    64
  0
VERTEX
  5
7BE
100
AcDbEntity
  8
0
100
AcDbVertex
100
AcDbPolygonMeshVertex
 10
-0.743029
 20
-4.06121
 30
0.425
 70
    64
  0
VERTEX
  5
7BF
100
AcDbEntity
  8
0
100
AcDbVertex
100
AcDbPolygonMeshVertex
 10
-0.743029
 20
-4.06121
 30
0.425
 70
    64
  0
VERTEX
  5
7C0
100
AcDbEntity
  8
0
100
AcDbVertex
100
AcDbPolygonMeshVertex
 10
-0.743029
 20
-4.738964
 30
0.425
 70
    64
  0
SEQEND
  5
7C1
100
AcDbEntity
  8
0
  0
POINT
  5
7C2
100
AcDbEntity
  8
DIMS-MTG-HOLES
100
AcDbPoint
 10
-0.385006
 20
-5.772975
 30
0.05
  0
POINT
  5
7C3
100
AcDbEntity
  8
DIMS-MTG-HOLES
100
AcDbPoint
 10
0.989994
 20
-5.772975
 30
0.05
  0
ARC
  5
7C4
100
AcDbEntity
  8
0
100
AcDbCircle
 39
0.04
 10
0.0
 20
-0.193538
 30
0.0
 40
0.2165
100
AcDbArc
 50
120.024142
 51
59.975858
  0
ARC
  5
7C5
100
AcDbEntity
  8
0
100
AcDbCircle
 39
0.04
 10
0.0
 20
0.0
 30
0.0
 40
0.1085
100
AcDbArc
 50
356.782733
 51
183.217267
  0
LINE
  5
7C6
100
AcDbEntity
  8
0
100
AcDbLine
 10
-0.217
 20
0.26
 30
0.04
 11
-0.317
 21
0.26
 31
0.04
  0
LINE
  5
7C7
100
AcDbEntity
  8
0
100
AcDbLine
 10
-0.217
 20
0.26
 30
0.0
 11
-0.317
 21
0.26
 31
0.0
  0
LINE
  5
7C8
100
AcDbEntity
  8
0
100
AcDbLine
 10
0.317
 20
0.26
 30
0.0
 11
0.217
 21
0.26
 31
0.0
  0
POLYLINE
  5
7C9
100
AcDbEntity
  8
0
100
AcDbPolygonMesh
 66
     1
 10
0.0
 20
0.0
 30
0.0
 70
    16
 71
     6
 72
     3
  0
VERTEX
  5
7CA
100
AcDbEntity
  8
0
100
AcDbVertex
100
AcDbPolygonMeshVertex
 10
2.443
 20
-0.41
 30
0.04
 70
    64
  0
VERTEX
  5
7CB
100
AcDbEntity
  8
0
100
AcDbVertex
100
AcDbPolygonMeshVertex
 10
2.443
 20
-0.41
 30
0.0
 70
    64
  0
VERTEX
  5
7CC
100
AcDbEntity
  8
0
100
AcDbVertex
100
AcDbPolygonMeshVertex
 10
2.443
 20
-0.41
 30
0.0
 70
    64
  0
VERTEX
  5
7CD
100
AcDbEntity
  8
0
100
AcDbVertex
100
AcDbPolygonMeshVertex
 10
2.443
 20
0.26
 30
0.04
 70
    64
  0
VERTEX
  5
7CE
100
AcDbEntity
  8
0
100
AcDbVertex
100
AcDbPolygonMeshVertex
 10
2.443
 20
0.26
 30
0.0
 70
    64
  0
VERTEX
  5
7CF
100
AcDbEntity
  8
0
100
AcDbVertex
100
AcDbPolygonMeshVertex
 10
2.443
 20
0.26
 30
0.0
 70
    64
  0
VERTEX
  5
7D0
100
AcDbEntity
  8
0
100
AcDbVertex
100
AcDbPolygonMeshVertex
 10
3.077
 20
0.26
 30
0.04
 70
    64
  0
VERTEX
  5
7D1
100
AcDbEntity
  8
0
100
AcDbVertex
100
AcDbPolygonMeshVertex
 10
3.077
 20
0.26
 30
0.0
 70
    64
  0
VERTEX
  5
7D2
100
AcDbEntity
  8
0
100
AcDbVertex
100
AcDbPolygonMeshVertex
 10
2.443
 20
0.26
 30
0.0
 70
    64
  0
VERTEX
  5
7D3
100
AcDbEntity
  8
0
100
AcDbVertex
100
AcDbPolygonMeshVertex
 10
3.077
 20
-0.41
 30
0.04
 70
    64
  0
VERTEX
  5
7D4
100
AcDbEntity
  8
0
100
AcDbVertex
100
AcDbPolygonMeshVertex
 10
3.077
 20
-0.41
 30
0.0
 70
    64
  0
VERTEX
  5
7D5
100
AcDbEntity
  8
0
100
AcDbVertex
100
AcDbPolygonMeshVertex
 10
2.443
 20
-0.41
 30
0.0
 70
    64
  0
VERTEX
  5
7D6
100
AcDbEntity
  8
0
100
AcDbVertex
100
AcDbPolygonMeshVertex
 10
3.077
 20
-0.41
 30
0.04
 70
    64
  0
VERTEX
  5
7D7
100
AcDbEntity
  8
0
100
AcDbVertex
100
AcDbPolygonMeshVertex
 10
3.077
 20
-0.41
 30
0.04
 70
    64
  0
VERTEX
  5
7D8
100
AcDbEntity
  8
0
100
AcDbVertex
100
AcDbPolygonMeshVertex
 10
2.443
 20
-0.41
 30
0.04
 70
    64
  0
VERTEX
  5
7D9
100
AcDbEntity
  8
0
100
AcDbVertex
100
AcDbPolygonMeshVertex
 10
3.077
 20
0.26
 30
0.04
 70
    64
  0
VERTEX
  5
7DA
100
AcDbEntity
  8
0
100
AcDbVertex
100
AcDbPolygonMeshVertex
 10
3.077
 20
0.26
 30
0.04
 70
    64
  0
VERTEX
  5
7DB
100
AcDbEntity
  8
0
100
AcDbVertex
100
AcDbPolygonMeshVertex
 10
2.443
 20
0.26
 30
0.04
 70
    64
  0
SEQEND
  5
7DC
100
AcDbEntity
  8
0
  0
POLYLINE
  5
7DD
100
AcDbEntity
  8
0
100
AcDbPolygonMesh
 66
     1
 10
0.0
 20
0.0
 30
0.0
 70
    16
 71
     6
 72
     3
  0
VERTEX
  5
7DE
100
AcDbEntity
  8
0
100
AcDbVertex
100
AcDbPolygonMeshVertex
 10
2.319994
 20
-0.482025
 30
3.05
 70
    64
  0
VERTEX
  5
7DF
100
AcDbEntity
  8
0
100
AcDbVertex
100
AcDbPolygonMeshVertex
 10
2.319994
 20
-0.482025
 30
0.05
 70
    64
  0
VERTEX
  5
7E0
100
AcDbEntity
  8
0
100
AcDbVertex
100
AcDbPolygonMeshVertex
 10
2.319994
 20
-0.482025
 30
0.05
 70
    64
  0
VERTEX
  5
7E1
100
AcDbEntity
  8
0
100
AcDbVertex
100
AcDbPolygonMeshVertex
 10
2.219994
 20
-0.482025
 30
3.05
 70
    64
  0
VERTEX
  5
7E2
100
AcDbEntity
  8
0
100
AcDbVertex
100
AcDbPolygonMeshVertex
 10
2.219994
 20
-0.482025
 30
0.05
 70
    64
  0
VERTEX
  5
7E3
100
AcDbEntity
  8
0
100
AcDbVertex
100
AcDbPolygonMeshVertex
 10
2.219994
 20
-0.482025
 30
0.05
 70
    64
  0
VERTEX
  5
7E4
100
AcDbEntity
  8
0
100
AcDbVertex
100
AcDbPolygonMeshVertex
 10
2.219994
 20
-0.682025
 30
3.05
 70
    64
  0
VERTEX
  5
7E5
100
AcDbEntity
  8
0
100
AcDbVertex
100
AcDbPolygonMeshVertex
 10
2.219994
 20
-0.682025
 30
0.05
 70
    64
  0
VERTEX
  5
7E6
100
AcDbEntity
  8
0
100
AcDbVertex
100
AcDbPolygonMeshVertex
 10
2.219994
 20
-0.482025
 30
0.05
 70
    64
  0
VERTEX
  5
7E7
100
AcDbEntity
  8
0
100
AcDbVertex
100
AcDbPolygonMeshVertex
 10
2.319994
 20
-0.682025
 30
3.05
 70
    64
  0
VERTEX
  5
7E8
100
AcDbEntity
  8
0
100
AcDbVertex
100
AcDbPolygonMeshVertex
 10
2.319994
 20
-0.682025
 30
0.05
 70
    64
  0
VERTEX
  5
7E9
100
AcDbEntity
  8
0
100
AcDbVertex
100
AcDbPolygonMeshVertex
 10
2.319994
 20
-0.482025
 30
0.05
 70
    64
  0
VERTEX
  5
7EA
100
AcDbEntity
  8
0
100
AcDbVertex
100
AcDbPolygonMeshVertex
 10
2.319994
 20
-0.682025
 30
3.05
 70
    64
  0
VERTEX
  5
7EB
100
AcDbEntity
  8
0
100
AcDbVertex
100
AcDbPolygonMeshVertex
 10
2.319994
 20
-0.682025
 30
3.05
 70
    64
  0
VERTEX
  5
7EC
100
AcDbEntity
  8
0
100
AcDbVertex
100
AcDbPolygonMeshVertex
 10
2.319994
 20
-0.482025
 30
3.05
 70
    64
  0
VERTEX
  5
7ED
100
AcDbEntity
  8
0
100
AcDbVertex
100
AcDbPolygonMeshVertex
 10
2.219994
 20
-0.682025
 30
3.05
 70
    64
  0
VERTEX
  5
7EE
100
AcDbEntity
  8
0
100
AcDbVertex
100
AcDbPolygonMeshVertex
 10
2.219994
 20
-0.682025
 30
3.05
 70
    64
  0
VERTEX
  5
7EF
100
AcDbEntity
  8
0
100
AcDbVertex
100
AcDbPolygonMeshVertex
 10
2.219994
 20
-0.482025
 30
3.05
 70
    64
  0
SEQEND
  5
7F0
100
AcDbEntity
  8
0
  0
POLYLINE
  5
7F1
100
AcDbEntity
  8
0
100
AcDbPolygonMesh
 66
     1
 10
0.0
 20
0.0
 30
0.0
 70
    16
 71
     6
 72
     3
  0
VERTEX
  5
7F2
100
AcDbEntity
  8
0
100
AcDbVertex
100
AcDbPolygonMeshVertex
 10
2.509994
 20
-0.482025
 30
3.05
 70
    64
  0
VERTEX
  5
7F3
100
AcDbEntity
  8
0
100
AcDbVertex
100
AcDbPolygonMeshVertex
 10
2.509994
 20
-0.482025
 30
0.05
 70
    64
  0
VERTEX
  5
7F4
100
AcDbEntity
  8
0
100
AcDbVertex
100
AcDbPolygonMeshVertex
 10
2.509994
 20
-0.482025
 30
0.05
 70
    64
  0
VERTEX
  5
7F5
100
AcDbEntity
  8
0
100
AcDbVertex
100
AcDbPolygonMeshVertex
 10
2.409994
 20
-0.482025
 30
3.05
 70
    64
  0
VERTEX
  5
7F6
100
AcDbEntity
  8
0
100
AcDbVertex
100
AcDbPolygonMeshVertex
 10
2.409994
 20
-0.482025
 30
0.05
 70
    64
  0
VERTEX
  5
7F7
100
AcDbEntity
  8
0
100
AcDbVertex
100
AcDbPolygonMeshVertex
 10
2.409994
 20
-0.482025
 30
0.05
 70
    64
  0
VERTEX
  5
7F8
100
AcDbEntity
  8
0
100
AcDbVertex
100
AcDbPolygonMeshVertex
 10
2.409994
 20
-0.682025
 30
3.05
 70
    64
  0
VERTEX
  5
7F9
100
AcDbEntity
  8
0
100
AcDbVertex
100
AcDbPolygonMeshVertex
 10
2.409994
 20
-0.682025
 30
0.05
 70
    64
  0
VERTEX
  5
7FA
100
AcDbEntity
  8
0
100
AcDbVertex
100
AcDbPolygonMeshVertex
 10
2.409994
 20
-0.482025
 30
0.05
 70
    64
  0
VERTEX
  5
7FB
100
AcDbEntity
  8
0
100
AcDbVertex
100
AcDbPolygonMeshVertex
 10
2.509994
 20
-0.682025
 30
3.05
 70
    64
  0
VERTEX
  5
7FC
100
AcDbEntity
  8
0
100
AcDbVertex
100
AcDbPolygonMeshVertex
 10
2.509994
 20
-0.682025
 30
0.05
 70
    64
  0
VERTEX
  5
7FD
100
AcDbEntity
  8
0
100
AcDbVertex
100
AcDbPolygonMeshVertex
 10
2.509994
 20
-0.482025
 30
0.05
 70
    64
  0
VERTEX
  5
7FE
100
AcDbEntity
  8
0
100
AcDbVertex
100
AcDbPolygonMeshVertex
 10
2.509994
 20
-0.682025
 30
3.05
 70
    64
  0
VERTEX
  5
7FF
100
AcDbEntity
  8
0
100
AcDbVertex
100
AcDbPolygonMeshVertex
 10
2.509994
 20
-0.682025
 30
3.05
 70
    64
  0
VERTEX
  5
800
100
AcDbEntity
  8
0
100
AcDbVertex
100
AcDbPolygonMeshVertex
 10
2.509994
 20
-0.482025
 30
3.05
 70
    64
  0
VERTEX
  5
801
100
AcDbEntity
  8
0
100
AcDbVertex
100
AcDbPolygonMeshVertex
 10
2.409994
 20
-0.682025
 30
3.05
 70
    64
  0
VERTEX
  5
802
100
AcDbEntity
  8
0
100
AcDbVertex
100
AcDbPolygonMeshVertex
 10
2.409994
 20
-0.682025
 30
3.05
 70
    64
  0
VERTEX
  5
803
100
AcDbEntity
  8
0
100
AcDbVertex
100
AcDbPolygonMeshVertex
 10
2.409994
 20
-0.482025
 30
3.05
 70
    64
  0
SEQEND
  5
804
100
AcDbEntity
  8
0
  0
POLYLINE
  5
805
100
AcDbEntity
  8
0
100
AcDbPolygonMesh
 66
     1
 10
0.0
 20
0.0
 30
0.0
 70
    16
 71
     6
 72
     3
  0
VERTEX
  5
806
100
AcDbEntity
  8
0
100
AcDbVertex
100
AcDbPolygonMeshVertex
 10
2.409994
 20
-0.482025
 30
3.05
 70
    64
  0
VERTEX
  5
807
100
AcDbEntity
  8
0
100
AcDbVertex
100
AcDbPolygonMeshVertex
 10
2.409994
 20
-0.482025
 30
0.05
 70
    64
  0
VERTEX
  5
808
100
AcDbEntity
  8
0
100
AcDbVertex
100
AcDbPolygonMeshVertex
 10
2.409994
 20
-0.482025
 30
0.05
 70
    64
  0
VERTEX
  5
809
100
AcDbEntity
  8
0
100
AcDbVertex
100
AcDbPolygonMeshVertex
 10
2.319994
 20
-0.482025
 30
3.05
 70
    64
  0
VERTEX
  5
80A
100
AcDbEntity
  8
0
100
AcDbVertex
100
AcDbPolygonMeshVertex
 10
2.319994
 20
-0.482025
 30
0.05
 70
    64
  0
VERTEX
  5
80B
100
AcDbEntity
  8
0
100
AcDbVertex
100
AcDbPolygonMeshVertex
 10
2.319994
 20
-0.482025
 30
0.05
 70
    64
  0
VERTEX
  5
80C
100
AcDbEntity
  8
0
100
AcDbVertex
100
AcDbPolygonMeshVertex
 10
2.319994
 20
-0.557025
 30
3.05
 70
    64
  0
VERTEX
  5
80D
100
AcDbEntity
  8
0
100
AcDbVertex
100
AcDbPolygonMeshVertex
 10
2.319994
 20
-0.557025
 30
0.05
 70
    64
  0
VERTEX
  5
80E
100
AcDbEntity
  8
0
100
AcDbVertex
100
AcDbPolygonMeshVertex
 10
2.319994
 20
-0.482025
 30
0.05
 70
    64
  0
VERTEX
  5
80F
100
AcDbEntity
  8
0
100
AcDbVertex
100
AcDbPolygonMeshVertex
 10
2.409994
 20
-0.557025
 30
3.05
 70
    64
  0
VERTEX
  5
810
100
AcDbEntity
  8
0
100
AcDbVertex
100
AcDbPolygonMeshVertex
 10
2.409994
 20
-0.557025
 30
0.05
 70
    64
  0
VERTEX
  5
811
100
AcDbEntity
  8
0
100
AcDbVertex
100
AcDbPolygonMeshVertex
 10
2.409994
 20
-0.482025
 30
0.05
 70
    64
  0
VERTEX
  5
812
100
AcDbEntity
  8
0
100
AcDbVertex
100
AcDbPolygonMeshVertex
 10
2.409994
 20
-0.557025
 30
3.05
 70
    64
  0
VERTEX
  5
813
100
AcDbEntity
  8
0
100
AcDbVertex
100
AcDbPolygonMeshVertex
 10
2.409994
 20
-0.557025
 30
3.05
 70
    64
  0
VERTEX
  5
814
100
AcDbEntity
  8
0
100
AcDbVertex
100
AcDbPolygonMeshVertex
 10
2.409994
 20
-0.482025
 30
3.05
 70
    64
  0
VERTEX
  5
815
100
AcDbEntity
  8
0
100
AcDbVertex
100
AcDbPolygonMeshVertex
 10
2.319994
 20
-0.557025
 30
3.05
 70
    64
  0
VERTEX
  5
816
100
AcDbEntity
  8
0
100
AcDbVertex
100
AcDbPolygonMeshVertex
 10
2.319994
 20
-0.557025
 30
3.05
 70
    64
  0
VERTEX
  5
817
100
AcDbEntity
  8
0
100
AcDbVertex
100
AcDbPolygonMeshVertex
 10
2.319994
 20
-0.482025
 30
3.05
 70
    64
  0
SEQEND
  5
818
100
AcDbEntity
  8
0
  0
POLYLINE
  5
819
100
AcDbEntity
  8
0
100
AcDbPolygonMesh
 66
     1
 10
0.0
 20
0.0
 30
0.0
 70
    16
 71
     6
 72
     3
  0
VERTEX
  5
81A
100
AcDbEntity
  8
0
100
AcDbVertex
100
AcDbPolygonMeshVertex
 10
3.784994
 20
-0.482025
 30
3.05
 70
    64
  0
VERTEX
  5
81B
100
AcDbEntity
  8
0
100
AcDbVertex
100
AcDbPolygonMeshVertex
 10
3.784994
 20
-0.482025
 30
0.05
 70
    64
  0
VERTEX
  5
81C
100
AcDbEntity
  8
0
100
AcDbVertex
100
AcDbPolygonMeshVertex
 10
3.784994
 20
-0.482025
 30
0.05
 70
    64
  0
VERTEX
  5
81D
100
AcDbEntity
  8
0
100
AcDbVertex
100
AcDbPolygonMeshVertex
 10
3.694994
 20
-0.482025
 30
3.05
 70
    64
  0
VERTEX
  5
81E
100
AcDbEntity
  8
0
100
AcDbVertex
100
AcDbPolygonMeshVertex
 10
3.694994
 20
-0.482025
 30
0.05
 70
    64
  0
VERTEX
  5
81F
100
AcDbEntity
  8
0
100
AcDbVertex
100
AcDbPolygonMeshVertex
 10
3.694994
 20
-0.482025
 30
0.05
 70
    64
  0
VERTEX
  5
820
100
AcDbEntity
  8
0
100
AcDbVertex
100
AcDbPolygonMeshVertex
 10
3.694994
 20
-0.557025
 30
3.05
 70
    64
  0
VERTEX
  5
821
100
AcDbEntity
  8
0
100
AcDbVertex
100
AcDbPolygonMeshVertex
 10
3.694994
 20
-0.557025
 30
0.05
 70
    64
  0
VERTEX
  5
822
100
AcDbEntity
  8
0
100
AcDbVertex
100
AcDbPolygonMeshVertex
 10
3.694994
 20
-0.482025
 30
0.05
 70
    64
  0
VERTEX
  5
823
100
AcDbEntity
  8
0
100
AcDbVertex
100
AcDbPolygonMeshVertex
 10
3.784994
 20
-0.557025
 30
3.05
 70
    64
  0
VERTEX
  5
824
100
AcDbEntity
  8
0
100
AcDbVertex
100
AcDbPolygonMeshVertex
 10
3.784994
 20
-0.557025
 30
0.05
 70
    64
  0
VERTEX
  5
825
100
AcDbEntity
  8
0
100
AcDbVertex
100
AcDbPolygonMeshVertex
 10
3.784994
 20
-0.482025
 30
0.05
 70
    64
  0
VERTEX
  5
826
100
AcDbEntity
  8
0
100
AcDbVertex
100
AcDbPolygonMeshVertex
 10
3.784994
 20
-0.557025
 30
3.05
 70
    64
  0
VERTEX
  5
827
100
AcDbEntity
  8
0
100
AcDbVertex
100
AcDbPolygonMeshVertex
 10
3.784994
 20
-0.557025
 30
3.05
 70
    64
  0
VERTEX
  5
828
100
AcDbEntity
  8
0
100
AcDbVertex
100
AcDbPolygonMeshVertex
 10
3.784994
 20
-0.482025
 30
3.05
 70
    64
  0
VERTEX
  5
829
100
AcDbEntity
  8
0
100
AcDbVertex
100
AcDbPolygonMeshVertex
 10
3.694994
 20
-0.557025
 30
3.05
 70
    64
  0
VERTEX
  5
82A
100
AcDbEntity
  8
0
100
AcDbVertex
100
AcDbPolygonMeshVertex
 10
3.694994
 20
-0.557025
 30
3.05
 70
    64
  0
VERTEX
  5
82B
100
AcDbEntity
  8
0
100
AcDbVertex
100
AcDbPolygonMeshVertex
 10
3.694994
 20
-0.482025
 30
3.05
 70
    64
  0
SEQEND
  5
82C
100
AcDbEntity
  8
0
  0
POLYLINE
  5
82D
100
AcDbEntity
  8
0
100
AcDbPolygonMesh
 66
     1
 10
0.0
 20
0.0
 30
0.0
 70
    16
 71
     6
 72
     3
  0
VERTEX
  5
82E
100
AcDbEntity
  8
0
100
AcDbVertex
100
AcDbPolygonMeshVertex
 10
3.884994
 20
-0.482025
 30
3.05
 70
    64
  0
VERTEX
  5
82F
100
AcDbEntity
  8
0
100
AcDbVertex
100
AcDbPolygonMeshVertex
 10
3.884994
 20
-0.482025
 30
0.05
 70
    64
  0
VERTEX
  5
830
100
AcDbEntity
  8
0
100
AcDbVertex
100
AcDbPolygonMeshVertex
 10
3.884994
 20
-0.482025
 30
0.05
 70
    64
  0
VERTEX
  5
831
100
AcDbEntity
  8
0
100
AcDbVertex
100
AcDbPolygonMeshVertex
 10
3.784994
 20
-0.482025
 30
3.05
 70
    64
  0
VERTEX
  5
832
100
AcDbEntity
  8
0
100
AcDbVertex
100
AcDbPolygonMeshVertex
 10
3.784994
 20
-0.482025
 30
0.05
 70
    64
  0
VERTEX
  5
833
100
AcDbEntity
  8
0
100
AcDbVertex
100
AcDbPolygonMeshVertex
 10
3.784994
 20
-0.482025
 30
0.05
 70
    64
  0
VERTEX
  5
834
100
AcDbEntity
  8
0
100
AcDbVertex
100
AcDbPolygonMeshVertex
 10
3.784994
 20
-0.682025
 30
3.05
 70
    64
  0
VERTEX
  5
835
100
AcDbEntity
  8
0
100
AcDbVertex
100
AcDbPolygonMeshVertex
 10
3.784994
 20
-0.682025
 30
0.05
 70
    64
  0
VERTEX
  5
836
100
AcDbEntity
  8
0
100
AcDbVertex
100
AcDbPolygonMeshVertex
 10
3.784994
 20
-0.482025
 30
0.05
 70
    64
  0
VERTEX
  5
837
100
AcDbEntity
  8
0
100
AcDbVertex
100
AcDbPolygonMeshVertex
 10
3.884994
 20
-0.682025
 30
3.05
 70
    64
  0
VERTEX
  5
838
100
AcDbEntity
  8
0
100
AcDbVertex
100
AcDbPolygonMeshVertex
 10
3.884994
 20
-0.682025
 30
0.05
 70
    64
  0
VERTEX
  5
839
100
AcDbEntity
  8
0
100
AcDbVertex
100
AcDbPolygonMeshVertex
 10
3.884994
 20
-0.482025
 30
0.05
 70
    64
  0
VERTEX
  5
83A
100
AcDbEntity
  8
0
100
AcDbVertex
100
AcDbPolygonMeshVertex
 10
3.884994
 20
-0.682025
 30
3.05
 70
    64
  0
VERTEX
  5
83B
100
AcDbEntity
  8
0
100
AcDbVertex
100
AcDbPolygonMeshVertex
 10
3.884994
 20
-0.682025
 30
3.05
 70
    64
  0
VERTEX
  5
83C
100
AcDbEntity
  8
0
100
AcDbVertex
100
AcDbPolygonMeshVertex
 10
3.884994
 20
-0.482025
 30
3.05
 70
    64
  0
VERTEX
  5
83D
100
AcDbEntity
  8
0
100
AcDbVertex
100
AcDbPolygonMeshVertex
 10
3.784994
 20
-0.682025
 30
3.05
 70
    64
  0
VERTEX
  5
83E
100
AcDbEntity
  8
0
100
AcDbVertex
100
AcDbPolygonMeshVertex
 10
3.784994
 20
-0.682025
 30
3.05
 70
    64
  0
VERTEX
  5
83F
100
AcDbEntity
  8
0
100
AcDbVertex
100
AcDbPolygonMeshVertex
 10
3.784994
 20
-0.482025
 30
3.05
 70
    64
  0
SEQEND
  5
840
100
AcDbEntity
  8
0
  0
POLYLINE
  5
841
100
AcDbEntity
  8
0
100
AcDbPolygonMesh
 66
     1
 10
0.0
 20
0.0
 30
0.0
 70
    16
 71
     6
 72
     3
  0
VERTEX
  5
842
100
AcDbEntity
  8
0
100
AcDbVertex
100
AcDbPolygonMeshVertex
 10
3.694994
 20
-0.482025
 30
3.05
 70
    64
  0
VERTEX
  5
843
100
AcDbEntity
  8
0
100
AcDbVertex
100
AcDbPolygonMeshVertex
 10
3.694994
 20
-0.482025
 30
0.05
 70
    64
  0
VERTEX
  5
844
100
AcDbEntity
  8
0
100
AcDbVertex
100
AcDbPolygonMeshVertex
 10
3.694994
 20
-0.482025
 30
0.05
 70
    64
  0
VERTEX
  5
845
100
AcDbEntity
  8
0
100
AcDbVertex
100
AcDbPolygonMeshVertex
 10
3.594994
 20
-0.482025
 30
3.05
 70
    64
  0
VERTEX
  5
846
100
AcDbEntity
  8
0
100
AcDbVertex
100
AcDbPolygonMeshVertex
 10
3.594994
 20
-0.482025
 30
0.05
 70
    64
  0
VERTEX
  5
847
100
AcDbEntity
  8
0
100
AcDbVertex
100
AcDbPolygonMeshVertex
 10
3.594994
 20
-0.482025
 30
0.05
 70
    64
  0
VERTEX
  5
848
100
AcDbEntity
  8
0
100
AcDbVertex
100
AcDbPolygonMeshVertex
 10
3.594994
 20
-0.682025
 30
3.05
 70
    64
  0
VERTEX
  5
849
100
AcDbEntity
  8
0
100
AcDbVertex
100
AcDbPolygonMeshVertex
 10
3.594994
 20
-0.682025
 30
0.05
 70
    64
  0
VERTEX
  5
84A
100
AcDbEntity
  8
0
100
AcDbVertex
100
AcDbPolygonMeshVertex
 10
3.594994
 20
-0.482025
 30
0.05
 70
    64
  0
VERTEX
  5
84B
100
AcDbEntity
  8
0
100
AcDbVertex
100
AcDbPolygonMeshVertex
 10
3.694994
 20
-0.682025
 30
3.05
 70
    64
  0
VERTEX
  5
84C
100
AcDbEntity
  8
0
100
AcDbVertex
100
AcDbPolygonMeshVertex
 10
3.694994
 20
-0.682025
 30
0.05
 70
    64
  0
VERTEX
  5
84D
100
AcDbEntity
  8
0
100
AcDbVertex
100
AcDbPolygonMeshVertex
 10
3.694994
 20
-0.482025
 30
0.05
 70
    64
  0
VERTEX
  5
84E
100
AcDbEntity
  8
0
100
AcDbVertex
100
AcDbPolygonMeshVertex
 10
3.694994
 20
-0.682025
 30
3.05
 70
    64
  0
VERTEX
  5
84F
100
AcDbEntity
  8
0
100
AcDbVertex
100
AcDbPolygonMeshVertex
 10
3.694994
 20
-0.682025
 30
3.05
 70
    64
  0
VERTEX
  5
850
100
AcDbEntity
  8
0
100
AcDbVertex
100
AcDbPolygonMeshVertex
 10
3.694994
 20
-0.482025
 30
3.05
 70
    64
  0
VERTEX
  5
851
100
AcDbEntity
  8
0
100
AcDbVertex
100
AcDbPolygonMeshVertex
 10
3.594994
 20
-0.682025
 30
3.05
 70
    64
  0
VERTEX
  5
852
100
AcDbEntity
  8
0
100
AcDbVertex
100
AcDbPolygonMeshVertex
 10
3.594994
 20
-0.682025
 30
3.05
 70
    64
  0
VERTEX
  5
853
100
AcDbEntity
  8
0
100
AcDbVertex
100
AcDbPolygonMeshVertex
 10
3.594994
 20
-0.482025
 30
3.05
 70
    64
  0
SEQEND
  5
854
100
AcDbEntity
  8
0
  0
POLYLINE
  5
855
100
AcDbEntity
  8
0
100
AcDbPolygonMesh
 66
     1
 10
0.0
 20
0.0
 30
0.0
 70
    16
 71
     6
 72
     3
  0
VERTEX
  5
856
100
AcDbEntity
  8
0
100
AcDbVertex
100
AcDbPolygonMeshVertex
 10
4.53
 20
-5.92
 30
5.71
 70
    64
  0
VERTEX
  5
857
100
AcDbEntity
  8
0
100
AcDbVertex
100
AcDbPolygonMeshVertex
 10
4.53
 20
-5.92
 30
0.0
 70
    64
  0
VERTEX
  5
858
100
AcDbEntity
  8
0
100
AcDbVertex
100
AcDbPolygonMeshVertex
 10
4.53
 20
-5.92
 30
0.0
 70
    64
  0
VERTEX
  5
859
100
AcDbEntity
  8
0
100
AcDbVertex
100
AcDbPolygonMeshVertex
 10
4.13
 20
-5.92
 30
5.71
 70
    64
  0
VERTEX
  5
85A
100
AcDbEntity
  8
0
100
AcDbVertex
100
AcDbPolygonMeshVertex
 10
4.13
 20
-5.92
 30
0.0
 70
    64
  0
VERTEX
  5
85B
100
AcDbEntity
  8
0
100
AcDbVertex
100
AcDbPolygonMeshVertex
 10
4.13
 20
-5.92
 30
0.0
 70
    64
  0
VERTEX
  5
85C
100
AcDbEntity
  8
0
100
AcDbVertex
100
AcDbPolygonMeshVertex
 10
4.13
 20
-0.41
 30
5.71
 70
    64
  0
VERTEX
  5
85D
100
AcDbEntity
  8
0
100
AcDbVertex
100
AcDbPolygonMeshVertex
 10
4.13
 20
-0.41
 30
0.0
 70
    64
  0
VERTEX
  5
85E
100
AcDbEntity
  8
0
100
AcDbVertex
100
AcDbPolygonMeshVertex
 10
4.13
 20
-5.92
 30
0.0
 70
    64
  0
VERTEX
  5
85F
100
AcDbEntity
  8
0
100
AcDbVertex
100
AcDbPolygonMeshVertex
 10
4.53
 20
-0.41
 30
5.71
 70
    64
  0
VERTEX
  5
860
100
AcDbEntity
  8
0
100
AcDbVertex
100
AcDbPolygonMeshVertex
 10
4.53
 20
-0.41
 30
0.0
 70
    64
  0
VERTEX
  5
861
100
AcDbEntity
  8
0
100
AcDbVertex
100
AcDbPolygonMeshVertex
 10
4.53
 20
-5.92
 30
0.0
 70
    64
  0
VERTEX
  5
862
100
AcDbEntity
  8
0
100
AcDbVertex
100
AcDbPolygonMeshVertex
 10
4.53
 20
-0.41
 30
5.71
 70
    64
  0
VERTEX
  5
863
100
AcDbEntity
  8
0
100
AcDbVertex
100
AcDbPolygonMeshVertex
 10
4.53
 20
-0.41
 30
5.71
 70
    64
  0
VERTEX
  5
864
100
AcDbEntity
  8
0
100
AcDbVertex
100
AcDbPolygonMeshVertex
 10
4.53
 20
-5.92
 30
5.71
 70
    64
  0
VERTEX
  5
865
100
AcDbEntity
  8
0
100
AcDbVertex
100
AcDbPolygonMeshVertex
 10
4.13
 20
-0.41
 30
5.71
 70
    64
  0
VERTEX
  5
866
100
AcDbEntity
  8
0
100
AcDbVertex
100
AcDbPolygonMeshVertex
 10
4.13
 20
-0.41
 30
5.71
 70
    64
  0
VERTEX
  5
867
100
AcDbEntity
  8
0
100
AcDbVertex
100
AcDbPolygonMeshVertex
 10
4.13
 20
-5.92
 30
5.71
 70
    64
  0
SEQEND
  5
868
100
AcDbEntity
  8
0
  0
POLYLINE
  5
869
100
AcDbEntity
  8
0
100
AcDbPolygonMesh
 66
     1
 10
0.0
 20
0.0
 30
0.0
 70
    16
 71
     6
 72
     3
  0
VERTEX
  5
86A
100
AcDbEntity
  8
0
100
AcDbVertex
100
AcDbPolygonMeshVertex
 10
3.694994
 20
-5.847975
 30
3.05
 70
    64
  0
VERTEX
  5
86B
100
AcDbEntity
  8
0
100
AcDbVertex
100
AcDbPolygonMeshVertex
 10
3.694994
 20
-5.847975
 30
0.05
 70
    64
  0
VERTEX
  5
86C
100
AcDbEntity
  8
0
100
AcDbVertex
100
AcDbPolygonMeshVertex
 10
3.694994
 20
-5.847975
 30
0.05
 70
    64
  0
VERTEX
  5
86D
100
AcDbEntity
  8
0
100
AcDbVertex
100
AcDbPolygonMeshVertex
 10
3.594994
 20
-5.847975
 30
3.05
 70
    64
  0
VERTEX
  5
86E
100
AcDbEntity
  8
0
100
AcDbVertex
100
AcDbPolygonMeshVertex
 10
3.594994
 20
-5.847975
 30
0.05
 70
    64
  0
VERTEX
  5
86F
100
AcDbEntity
  8
0
100
AcDbVertex
100
AcDbPolygonMeshVertex
 10
3.594994
 20
-5.847975
 30
0.05
 70
    64
  0
VERTEX
  5
870
100
AcDbEntity
  8
0
100
AcDbVertex
100
AcDbPolygonMeshVertex
 10
3.594994
 20
-5.647975
 30
3.05
 70
    64
  0
VERTEX
  5
871
100
AcDbEntity
  8
0
100
AcDbVertex
100
AcDbPolygonMeshVertex
 10
3.594994
 20
-5.647975
 30
0.05
 70
    64
  0
VERTEX
  5
872
100
AcDbEntity
  8
0
100
AcDbVertex
100
AcDbPolygonMeshVertex
 10
3.594994
 20
-5.847975
 30
0.05
 70
    64
  0
VERTEX
  5
873
100
AcDbEntity
  8
0
100
AcDbVertex
100
AcDbPolygonMeshVertex
 10
3.694994
 20
-5.647975
 30
3.05
 70
    64
  0
VERTEX
  5
874
100
AcDbEntity
  8
0
100
AcDbVertex
100
AcDbPolygonMeshVertex
 10
3.694994
 20
-5.647975
 30
0.05
 70
    64
  0
VERTEX
  5
875
100
AcDbEntity
  8
0
100
AcDbVertex
100
AcDbPolygonMeshVertex
 10
3.694994
 20
-5.847975
 30
0.05
 70
    64
  0
VERTEX
  5
876
100
AcDbEntity
  8
0
100
AcDbVertex
100
AcDbPolygonMeshVertex
 10
3.694994
 20
-5.647975
 30
3.05
 70
    64
  0
VERTEX
  5
877
100
AcDbEntity
  8
0
100
AcDbVertex
100
AcDbPolygonMeshVertex
 10
3.694994
 20
-5.647975
 30
3.05
 70
    64
  0
VERTEX
  5
878
100
AcDbEntity
  8
0
100
AcDbVertex
100
AcDbPolygonMeshVertex
 10
3.694994
 20
-5.847975
 30
3.05
 70
    64
  0
VERTEX
  5
879
100
AcDbEntity
  8
0
100
AcDbVertex
100
AcDbPolygonMeshVertex
 10
3.594994
 20
-5.647975
 30
3.05
 70
    64
  0
VERTEX
  5
87A
100
AcDbEntity
  8
0
100
AcDbVertex
100
AcDbPolygonMeshVertex
 10
3.594994
 20
-5.647975
 30
3.05
 70
    64
  0
VERTEX
  5
87B
100
AcDbEntity
  8
0
100
AcDbVertex
100
AcDbPolygonMeshVertex
 10
3.594994
 20
-5.847975
 30
3.05
 70
    64
  0
SEQEND
  5
87C
100
AcDbEntity
  8
0
  0
POLYLINE
  5
87D
100
AcDbEntity
  8
0
100
AcDbPolygonMesh
 66
     1
 10
0.0
 20
0.0
 30
0.0
 70
    16
 71
     6
 72
     3
  0
VERTEX
  5
87E
100
AcDbEntity
  8
0
100
AcDbVertex
100
AcDbPolygonMeshVertex
 10
3.884994
 20
-5.847975
 30
3.05
 70
    64
  0
VERTEX
  5
87F
100
AcDbEntity
  8
0
100
AcDbVertex
100
AcDbPolygonMeshVertex
 10
3.884994
 20
-5.847975
 30
0.05
 70
    64
  0
VERTEX
  5
880
100
AcDbEntity
  8
0
100
AcDbVertex
100
AcDbPolygonMeshVertex
 10
3.884994
 20
-5.847975
 30
0.05
 70
    64
  0
VERTEX
  5
881
100
AcDbEntity
  8
0
100
AcDbVertex
100
AcDbPolygonMeshVertex
 10
3.784994
 20
-5.847975
 30
3.05
 70
    64
  0
VERTEX
  5
882
100
AcDbEntity
  8
0
100
AcDbVertex
100
AcDbPolygonMeshVertex
 10
3.784994
 20
-5.847975
 30
0.05
 70
    64
  0
VERTEX
  5
883
100
AcDbEntity
  8
0
100
AcDbVertex
100
AcDbPolygonMeshVertex
 10
3.784994
 20
-5.847975
 30
0.05
 70
    64
  0
VERTEX
  5
884
100
AcDbEntity
  8
0
100
AcDbVertex
100
AcDbPolygonMeshVertex
 10
3.784994
 20
-5.647975
 30
3.05
 70
    64
  0
VERTEX
  5
885
100
AcDbEntity
  8
0
100
AcDbVertex
100
AcDbPolygonMeshVertex
 10
3.784994
 20
-5.647975
 30
0.05
 70
    64
  0
VERTEX
  5
886
100
AcDbEntity
  8
0
100
AcDbVertex
100
AcDbPolygonMeshVertex
 10
3.784994
 20
-5.847975
 30
0.05
 70
    64
  0
VERTEX
  5
887
100
AcDbEntity
  8
0
100
AcDbVertex
100
AcDbPolygonMeshVertex
 10
3.884994
 20
-5.647975
 30
3.05
 70
    64
  0
VERTEX
  5
888
100
AcDbEntity
  8
0
100
AcDbVertex
100
AcDbPolygonMeshVertex
 10
3.884994
 20
-5.647975
 30
0.05
 70
    64
  0
VERTEX
  5
889
100
AcDbEntity
  8
0
100
AcDbVertex
100
AcDbPolygonMeshVertex
 10
3.884994
 20
-5.847975
 30
0.05
 70
    64
  0
VERTEX
  5
88A
100
AcDbEntity
  8
0
100
AcDbVertex
100
AcDbPolygonMeshVertex
 10
3.884994
 20
-5.647975
 30
3.05
 70
    64
  0
VERTEX
  5
88B
100
AcDbEntity
  8
0
100
AcDbVertex
100
AcDbPolygonMeshVertex
 10
3.884994
 20
-5.647975
 30
3.05
 70
    64
  0
VERTEX
  5
88C
100
AcDbEntity
  8
0
100
AcDbVertex
100
AcDbPolygonMeshVertex
 10
3.884994
 20
-5.847975
 30
3.05
 70
    64
  0
VERTEX
  5
88D
100
AcDbEntity
  8
0
100
AcDbVertex
100
AcDbPolygonMeshVertex
 10
3.784994
 20
-5.647975
 30
3.05
 70
    64
  0
VERTEX
  5
88E
100
AcDbEntity
  8
0
100
AcDbVertex
100
AcDbPolygonMeshVertex
 10
3.784994
 20
-5.647975
 30
3.05
 70
    64
  0
VERTEX
  5
88F
100
AcDbEntity
  8
0
100
AcDbVertex
100
AcDbPolygonMeshVertex
 10
3.784994
 20
-5.847975
 30
3.05
 70
    64
  0
SEQEND
  5
890
100
AcDbEntity
  8
0
  0
POLYLINE
  5
891
100
AcDbEntity
  8
0
100
AcDbPolygonMesh
 66
     1
 10
0.0
 20
0.0
 30
0.0
 70
    16
 71
     6
 72
     3
  0
VERTEX
  5
892
100
AcDbEntity
  8
0
100
AcDbVertex
100
AcDbPolygonMeshVertex
 10
3.784994
 20
-5.847975
 30
3.05
 70
    64
  0
VERTEX
  5
893
100
AcDbEntity
  8
0
100
AcDbVertex
100
AcDbPolygonMeshVertex
 10
3.784994
 20
-5.847975
 30
0.05
 70
    64
  0
VERTEX
  5
894
100
AcDbEntity
  8
0
100
AcDbVertex
100
AcDbPolygonMeshVertex
 10
3.784994
 20
-5.847975
 30
0.05
 70
    64
  0
VERTEX
  5
895
100
AcDbEntity
  8
0
100
AcDbVertex
100
AcDbPolygonMeshVertex
 10
3.694994
 20
-5.847975
 30
3.05
 70
    64
  0
VERTEX
  5
896
100
AcDbEntity
  8
0
100
AcDbVertex
100
AcDbPolygonMeshVertex
 10
3.694994
 20
-5.847975
 30
0.05
 70
    64
  0
VERTEX
  5
897
100
AcDbEntity
  8
0
100
AcDbVertex
100
AcDbPolygonMeshVertex
 10
3.694994
 20
-5.847975
 30
0.05
 70
    64
  0
VERTEX
  5
898
100
AcDbEntity
  8
0
100
AcDbVertex
100
AcDbPolygonMeshVertex
 10
3.694994
 20
-5.772975
 30
3.05
 70
    64
  0
VERTEX
  5
899
100
AcDbEntity
  8
0
100
AcDbVertex
100
AcDbPolygonMeshVertex
 10
3.694994
 20
-5.772975
 30
0.05
 70
    64
  0
VERTEX
  5
89A
100
AcDbEntity
  8
0
100
AcDbVertex
100
AcDbPolygonMeshVertex
 10
3.694994
 20
-5.847975
 30
0.05
 70
    64
  0
VERTEX
  5
89B
100
AcDbEntity
  8
0
100
AcDbVertex
100
AcDbPolygonMeshVertex
 10
3.784994
 20
-5.772975
 30
3.05
 70
    64
  0
VERTEX
  5
89C
100
AcDbEntity
  8
0
100
AcDbVertex
100
AcDbPolygonMeshVertex
 10
3.784994
 20
-5.772975
 30
0.05
 70
    64
  0
VERTEX
  5
89D
100
AcDbEntity
  8
0
100
AcDbVertex
100
AcDbPolygonMeshVertex
 10
3.784994
 20
-5.847975
 30
0.05
 70
    64
  0
VERTEX
  5
89E
100
AcDbEntity
  8
0
100
AcDbVertex
100
AcDbPolygonMeshVertex
 10
3.784994
 20
-5.772975
 30
3.05
 70
    64
  0
VERTEX
  5
89F
100
AcDbEntity
  8
0
100
AcDbVertex
100
AcDbPolygonMeshVertex
 10
3.784994
 20
-5.772975
 30
3.05
 70
    64
  0
VERTEX
  5
8A0
100
AcDbEntity
  8
0
100
AcDbVertex
100
AcDbPolygonMeshVertex
 10
3.784994
 20
-5.847975
 30
3.05
 70
    64
  0
VERTEX
  5
8A1
100
AcDbEntity
  8
0
100
AcDbVertex
100
AcDbPolygonMeshVertex
 10
3.694994
 20
-5.772975
 30
3.05
 70
    64
  0
VERTEX
  5
8A2
100
AcDbEntity
  8
0
100
AcDbVertex
100
AcDbPolygonMeshVertex
 10
3.694994
 20
-5.772975
 30
3.05
 70
    64
  0
VERTEX
  5
8A3
100
AcDbEntity
  8
0
100
AcDbVertex
100
AcDbPolygonMeshVertex
 10
3.694994
 20
-5.847975
 30
3.05
 70
    64
  0
SEQEND
  5
8A4
100
AcDbEntity
  8
0
  0
POLYLINE
  5
8A5
100
AcDbEntity
  8
0
100
AcDbPolygonMesh
 66
     1
 10
0.0
 20
0.0
 30
0.0
 70
    16
 71
     6
 72
     3
  0
VERTEX
  5
8A6
100
AcDbEntity
  8
0
100
AcDbVertex
100
AcDbPolygonMeshVertex
 10
2.409994
 20
-5.847975
 30
3.05
 70
    64
  0
VERTEX
  5
8A7
100
AcDbEntity
  8
0
100
AcDbVertex
100
AcDbPolygonMeshVertex
 10
2.409994
 20
-5.847975
 30
0.05
 70
    64
  0
VERTEX
  5
8A8
100
AcDbEntity
  8
0
100
AcDbVertex
100
AcDbPolygonMeshVertex
 10
2.409994
 20
-5.847975
 30
0.05
 70
    64
  0
VERTEX
  5
8A9
100
AcDbEntity
  8
0
100
AcDbVertex
100
AcDbPolygonMeshVertex
 10
2.319994
 20
-5.847975
 30
3.05
 70
    64
  0
VERTEX
  5
8AA
100
AcDbEntity
  8
0
100
AcDbVertex
100
AcDbPolygonMeshVertex
 10
2.319994
 20
-5.847975
 30
0.05
 70
    64
  0
VERTEX
  5
8AB
100
AcDbEntity
  8
0
100
AcDbVertex
100
AcDbPolygonMeshVertex
 10
2.319994
 20
-5.847975
 30
0.05
 70
    64
  0
VERTEX
  5
8AC
100
AcDbEntity
  8
0
100
AcDbVertex
100
AcDbPolygonMeshVertex
 10
2.319994
 20
-5.772975
 30
3.05
 70
    64
  0
VERTEX
  5
8AD
100
AcDbEntity
  8
0
100
AcDbVertex
100
AcDbPolygonMeshVertex
 10
2.319994
 20
-5.772975
 30
0.05
 70
    64
  0
VERTEX
  5
8AE
100
AcDbEntity
  8
0
100
AcDbVertex
100
AcDbPolygonMeshVertex
 10
2.319994
 20
-5.847975
 30
0.05
 70
    64
  0
VERTEX
  5
8AF
100
AcDbEntity
  8
0
100
AcDbVertex
100
AcDbPolygonMeshVertex
 10
2.409994
 20
-5.772975
 30
3.05
 70
    64
  0
VERTEX
  5
8B0
100
AcDbEntity
  8
0
100
AcDbVertex
100
AcDbPolygonMeshVertex
 10
2.409994
 20
-5.772975
 30
0.05
 70
    64
  0
VERTEX
  5
8B1
100
AcDbEntity
  8
0
100
AcDbVertex
100
AcDbPolygonMeshVertex
 10
2.409994
 20
-5.847975
 30
0.05
 70
    64
  0
VERTEX
  5
8B2
100
AcDbEntity
  8
0
100
AcDbVertex
100
AcDbPolygonMeshVertex
 10
2.409994
 20
-5.772975
 30
3.05
 70
    64
  0
VERTEX
  5
8B3
100
AcDbEntity
  8
0
100
AcDbVertex
100
AcDbPolygonMeshVertex
 10
2.409994
 20
-5.772975
 30
3.05
 70
    64
  0
VERTEX
  5
8B4
100
AcDbEntity
  8
0
100
AcDbVertex
100
AcDbPolygonMeshVertex
 10
2.409994
 20
-5.847975
 30
3.05
 70
    64
  0
VERTEX
  5
8B5
100
AcDbEntity
  8
0
100
AcDbVertex
100
AcDbPolygonMeshVertex
 10
2.319994
 20
-5.772975
 30
3.05
 70
    64
  0
VERTEX
  5
8B6
100
AcDbEntity
  8
0
100
AcDbVertex
100
AcDbPolygonMeshVertex
 10
2.319994
 20
-5.772975
 30
3.05
 70
    64
  0
VERTEX
  5
8B7
100
AcDbEntity
  8
0
100
AcDbVertex
100
AcDbPolygonMeshVertex
 10
2.319994
 20
-5.847975
 30
3.05
 70
    64
  0
SEQEND
  5
8B8
100
AcDbEntity
  8
0
  0
POLYLINE
  5
8B9
100
AcDbEntity
  8
0
100
AcDbPolygonMesh
 66
     1
 10
0.0
 20
0.0
 30
0.0
 70
    16
 71
     6
 72
     3
  0
VERTEX
  5
8BA
100
AcDbEntity
  8
0
100
AcDbVertex
100
AcDbPolygonMeshVertex
 10
2.509994
 20
-5.847975
 30
3.05
 70
    64
  0
VERTEX
  5
8BB
100
AcDbEntity
  8
0
100
AcDbVertex
100
AcDbPolygonMeshVertex
 10
2.509994
 20
-5.847975
 30
0.05
 70
    64
  0
VERTEX
  5
8BC
100
AcDbEntity
  8
0
100
AcDbVertex
100
AcDbPolygonMeshVertex
 10
2.509994
 20
-5.847975
 30
0.05
 70
    64
  0
VERTEX
  5
8BD
100
AcDbEntity
  8
0
100
AcDbVertex
100
AcDbPolygonMeshVertex
 10
2.409994
 20
-5.847975
 30
3.05
 70
    64
  0
VERTEX
  5
8BE
100
AcDbEntity
  8
0
100
AcDbVertex
100
AcDbPolygonMeshVertex
 10
2.409994
 20
-5.847975
 30
0.05
 70
    64
  0
VERTEX
  5
8BF
100
AcDbEntity
  8
0
100
AcDbVertex
100
AcDbPolygonMeshVertex
 10
2.409994
 20
-5.847975
 30
0.05
 70
    64
  0
VERTEX
  5
8C0
100
AcDbEntity
  8
0
100
AcDbVertex
100
AcDbPolygonMeshVertex
 10
2.409994
 20
-5.647975
 30
3.05
 70
    64
  0
VERTEX
  5
8C1
100
AcDbEntity
  8
0
100
AcDbVertex
100
AcDbPolygonMeshVertex
 10
2.409994
 20
-5.647975
 30
0.05
 70
    64
  0
VERTEX
  5
8C2
100
AcDbEntity
  8
0
100
AcDbVertex
100
AcDbPolygonMeshVertex
 10
2.409994
 20
-5.847975
 30
0.05
 70
    64
  0
VERTEX
  5
8C3
100
AcDbEntity
  8
0
100
AcDbVertex
100
AcDbPolygonMeshVertex
 10
2.509994
 20
-5.647975
 30
3.05
 70
    64
  0
VERTEX
  5
8C4
100
AcDbEntity
  8
0
100
AcDbVertex
100
AcDbPolygonMeshVertex
 10
2.509994
 20
-5.647975
 30
0.05
 70
    64
  0
VERTEX
  5
8C5
100
AcDbEntity
  8
0
100
AcDbVertex
100
AcDbPolygonMeshVertex
 10
2.509994
 20
-5.847975
 30
0.05
 70
    64
  0
VERTEX
  5
8C6
100
AcDbEntity
  8
0
100
AcDbVertex
100
AcDbPolygonMeshVertex
 10
2.509994
 20
-5.647975
 30
3.05
 70
    64
  0
VERTEX
  5
8C7
100
AcDbEntity
  8
0
100
AcDbVertex
100
AcDbPolygonMeshVertex
 10
2.509994
 20
-5.647975
 30
3.05
 70
    64
  0
VERTEX
  5
8C8
100
AcDbEntity
  8
0
100
AcDbVertex
100
AcDbPolygonMeshVertex
 10
2.509994
 20
-5.847975
 30
3.05
 70
    64
  0
VERTEX
  5
8C9
100
AcDbEntity
  8
0
100
AcDbVertex
100
AcDbPolygonMeshVertex
 10
2.409994
 20
-5.647975
 30
3.05
 70
    64
  0
VERTEX
  5
8CA
100
AcDbEntity
  8
0
100
AcDbVertex
100
AcDbPolygonMeshVertex
 10
2.409994
 20
-5.647975
 30
3.05
 70
    64
  0
VERTEX
  5
8CB
100
AcDbEntity
  8
0
100
AcDbVertex
100
AcDbPolygonMeshVertex
 10
2.409994
 20
-5.847975
 30
3.05
 70
    64
  0
SEQEND
  5
8CC
100
AcDbEntity
  8
0
  0
POLYLINE
  5
8CD
100
AcDbEntity
  8
0
100
AcDbPolygonMesh
 66
     1
 10
0.0
 20
0.0
 30
0.0
 70
    16
 71
     6
 72
     3
  0
VERTEX
  5
8CE
100
AcDbEntity
  8
0
100
AcDbVertex
100
AcDbPolygonMeshVertex
 10
2.319994
 20
-5.847975
 30
3.05
 70
    64
  0
VERTEX
  5
8CF
100
AcDbEntity
  8
0
100
AcDbVertex
100
AcDbPolygonMeshVertex
 10
2.319994
 20
-5.847975
 30
0.05
 70
    64
  0
VERTEX
  5
8D0
100
AcDbEntity
  8
0
100
AcDbVertex
100
AcDbPolygonMeshVertex
 10
2.319994
 20
-5.847975
 30
0.05
 70
    64
  0
VERTEX
  5
8D1
100
AcDbEntity
  8
0
100
AcDbVertex
100
AcDbPolygonMeshVertex
 10
2.219994
 20
-5.847975
 30
3.05
 70
    64
  0
VERTEX
  5
8D2
100
AcDbEntity
  8
0
100
AcDbVertex
100
AcDbPolygonMeshVertex
 10
2.219994
 20
-5.847975
 30
0.05
 70
    64
  0
VERTEX
  5
8D3
100
AcDbEntity
  8
0
100
AcDbVertex
100
AcDbPolygonMeshVertex
 10
2.219994
 20
-5.847975
 30
0.05
 70
    64
  0
VERTEX
  5
8D4
100
AcDbEntity
  8
0
100
AcDbVertex
100
AcDbPolygonMeshVertex
 10
2.219994
 20
-5.647975
 30
3.05
 70
    64
  0
VERTEX
  5
8D5
100
AcDbEntity
  8
0
100
AcDbVertex
100
AcDbPolygonMeshVertex
 10
2.219994
 20
-5.647975
 30
0.05
 70
    64
  0
VERTEX
  5
8D6
100
AcDbEntity
  8
0
100
AcDbVertex
100
AcDbPolygonMeshVertex
 10
2.219994
 20
-5.847975
 30
0.05
 70
    64
  0
VERTEX
  5
8D7
100
AcDbEntity
  8
0
100
AcDbVertex
100
AcDbPolygonMeshVertex
 10
2.319994
 20
-5.647975
 30
3.05
 70
    64
  0
VERTEX
  5
8D8
100
AcDbEntity
  8
0
100
AcDbVertex
100
AcDbPolygonMeshVertex
 10
2.319994
 20
-5.647975
 30
0.05
 70
    64
  0
VERTEX
  5
8D9
100
AcDbEntity
  8
0
100
AcDbVertex
100
AcDbPolygonMeshVertex
 10
2.319994
 20
-5.847975
 30
0.05
 70
    64
  0
VERTEX
  5
8DA
100
AcDbEntity
  8
0
100
AcDbVertex
100
AcDbPolygonMeshVertex
 10
2.319994
 20
-5.647975
 30
3.05
 70
    64
  0
VERTEX
  5
8DB
100
AcDbEntity
  8
0
100
AcDbVertex
100
AcDbPolygonMeshVertex
 10
2.319994
 20
-5.647975
 30
3.05
 70
    64
  0
VERTEX
  5
8DC
100
AcDbEntity
  8
0
100
AcDbVertex
100
AcDbPolygonMeshVertex
 10
2.319994
 20
-5.847975
 30
3.05
 70
    64
  0
VERTEX
  5
8DD
100
AcDbEntity
  8
0
100
AcDbVertex
100
AcDbPolygonMeshVertex
 10
2.219994
 20
-5.647975
 30
3.05
 70
    64
  0
VERTEX
  5
8DE
100
AcDbEntity
  8
0
100
AcDbVertex
100
AcDbPolygonMeshVertex
 10
2.219994
 20
-5.647975
 30
3.05
 70
    64
  0
VERTEX
  5
8DF
100
AcDbEntity
  8
0
100
AcDbVertex
100
AcDbPolygonMeshVertex
 10
2.219994
 20
-5.847975
 30
3.05
 70
    64
  0
SEQEND
  5
8E0
100
AcDbEntity
  8
0
  0
POLYLINE
  5
8E1
100
AcDbEntity
  8
0
100
AcDbPolygonMesh
 66
     1
 10
0.0
 20
0.0
 30
0.0
 70
    16
 71
     6
 72
     3
  0
VERTEX
  5
8E2
100
AcDbEntity
  8
0
100
AcDbVertex
100
AcDbPolygonMeshVertex
 10
2.36721
 20
-4.018178
 30
0.425
 70
    64
  0
VERTEX
  5
8E3
100
AcDbEntity
  8
0
100
AcDbVertex
100
AcDbPolygonMeshVertex
 10
2.36721
 20
-4.018178
 30
0.05
 70
    64
  0
VERTEX
  5
8E4
100
AcDbEntity
  8
0
100
AcDbVertex
100
AcDbPolygonMeshVertex
 10
2.36721
 20
-4.018178
 30
0.05
 70
    64
  0
VERTEX
  5
8E5
100
AcDbEntity
  8
0
100
AcDbVertex
100
AcDbPolygonMeshVertex
 10
2.076634
 20
-4.018178
 30
0.425
 70
    64
  0
VERTEX
  5
8E6
100
AcDbEntity
  8
0
100
AcDbVertex
100
AcDbPolygonMeshVertex
 10
2.076634
 20
-4.018178
 30
0.05
 70
    64
  0
VERTEX
  5
8E7
100
AcDbEntity
  8
0
100
AcDbVertex
100
AcDbPolygonMeshVertex
 10
2.076634
 20
-4.018178
 30
0.05
 70
    64
  0
VERTEX
  5
8E8
100
AcDbEntity
  8
0
100
AcDbVertex
100
AcDbPolygonMeshVertex
 10
2.076634
 20
-3.039199
 30
0.425
 70
    64
  0
VERTEX
  5
8E9
100
AcDbEntity
  8
0
100
AcDbVertex
100
AcDbPolygonMeshVertex
 10
2.076634
 20
-3.039199
 30
0.05
 70
    64
  0
VERTEX
  5
8EA
100
AcDbEntity
  8
0
100
AcDbVertex
100
AcDbPolygonMeshVertex
 10
2.076634
 20
-4.018178
 30
0.05
 70
    64
  0
VERTEX
  5
8EB
100
AcDbEntity
  8
0
100
AcDbVertex
100
AcDbPolygonMeshVertex
 10
2.36721
 20
-3.039199
 30
0.425
 70
    64
  0
VERTEX
  5
8EC
100
AcDbEntity
  8
0
100
AcDbVertex
100
AcDbPolygonMeshVertex
 10
2.36721
 20
-3.039199
 30
0.05
 70
    64
  0
VERTEX
  5
8ED
100
AcDbEntity
  8
0
100
AcDbVertex
100
AcDbPolygonMeshVertex
 10
2.36721
 20
-4.018178
 30
0.05
 70
    64
  0
VERTEX
  5
8EE
100
AcDbEntity
  8
0
100
AcDbVertex
100
AcDbPolygonMeshVertex
 10
2.36721
 20
-3.039199
 30
0.425
 70
    64
  0
VERTEX
  5
8EF
100
AcDbEntity
  8
0
100
AcDbVertex
100
AcDbPolygonMeshVertex
 10
2.36721
 20
-3.039199
 30
0.425
 70
    64
  0
VERTEX
  5
8F0
100
AcDbEntity
  8
0
100
AcDbVertex
100
AcDbPolygonMeshVertex
 10
2.36721
 20
-4.018178
 30
0.425
 70
    64
  0
VERTEX
  5
8F1
100
AcDbEntity
  8
0
100
AcDbVertex
100
AcDbPolygonMeshVertex
 10
2.076634
 20
-3.039199
 30
0.425
 70
    64
  0
VERTEX
  5
8F2
100
AcDbEntity
  8
0
100
AcDbVertex
100
AcDbPolygonMeshVertex
 10
2.076634
 20
-3.039199
 30
0.425
 70
    64
  0
VERTEX
  5
8F3
100
AcDbEntity
  8
0
100
AcDbVertex
100
AcDbPolygonMeshVertex
 10
2.076634
 20
-4.018178
 30
0.425
 70
    64
  0
SEQEND
  5
8F4
100
AcDbEntity
  8
0
  0
POLYLINE
  5
8F5
100
AcDbEntity
  8
0
100
AcDbPolygonMesh
 66
     1
 10
0.0
 20
0.0
 30
0.0
 70
    16
 71
     6
 72
     3
  0
VERTEX
  5
8F6
100
AcDbEntity
  8
0
100
AcDbVertex
100
AcDbPolygonMeshVertex
 10
3.680851
 20
-4.018178
 30
0.425
 70
    64
  0
VERTEX
  5
8F7
100
AcDbEntity
  8
0
100
AcDbVertex
100
AcDbPolygonMeshVertex
 10
3.680851
 20
-4.018178
 30
0.05
 70
    64
  0
VERTEX
  5
8F8
100
AcDbEntity
  8
0
100
AcDbVertex
100
AcDbPolygonMeshVertex
 10
3.680851
 20
-4.018178
 30
0.05
 70
    64
  0
VERTEX
  5
8F9
100
AcDbEntity
  8
0
100
AcDbVertex
100
AcDbPolygonMeshVertex
 10
3.390275
 20
-4.018178
 30
0.425
 70
    64
  0
VERTEX
  5
8FA
100
AcDbEntity
  8
0
100
AcDbVertex
100
AcDbPolygonMeshVertex
 10
3.390275
 20
-4.018178
 30
0.05
 70
    64
  0
VERTEX
  5
8FB
100
AcDbEntity
  8
0
100
AcDbVertex
100
AcDbPolygonMeshVertex
 10
3.390275
 20
-4.018178
 30
0.05
 70
    64
  0
VERTEX
  5
8FC
100
AcDbEntity
  8
0
100
AcDbVertex
100
AcDbPolygonMeshVertex
 10
3.390275
 20
-3.039199
 30
0.425
 70
    64
  0
VERTEX
  5
8FD
100
AcDbEntity
  8
0
100
AcDbVertex
100
AcDbPolygonMeshVertex
 10
3.390275
 20
-3.039199
 30
0.05
 70
    64
  0
VERTEX
  5
8FE
100
AcDbEntity
  8
0
100
AcDbVertex
100
AcDbPolygonMeshVertex
 10
3.390275
 20
-4.018178
 30
0.05
 70
    64
  0
VERTEX
  5
8FF
100
AcDbEntity
  8
0
100
AcDbVertex
100
AcDbPolygonMeshVertex
 10
3.680851
 20
-3.039199
 30
0.425
 70
    64
  0
VERTEX
  5
900
100
AcDbEntity
  8
0
100
AcDbVertex
100
AcDbPolygonMeshVertex
 10
3.680851
 20
-3.039199
 30
0.05
 70
    64
  0
VERTEX
  5
901
100
AcDbEntity
  8
0
100
AcDbVertex
100
AcDbPolygonMeshVertex
 10
3.680851
 20
-4.018178
 30
0.05
 70
    64
  0
VERTEX
  5
902
100
AcDbEntity
  8
0
100
AcDbVertex
100
AcDbPolygonMeshVertex
 10
3.680851
 20
-3.039199
 30
0.425
 70
    64
  0
VERTEX
  5
903
100
AcDbEntity
  8
0
100
AcDbVertex
100
AcDbPolygonMeshVertex
 10
3.680851
 20
-3.039199
 30
0.425
 70
    64
  0
VERTEX
  5
904
100
AcDbEntity
  8
0
100
AcDbVertex
100
AcDbPolygonMeshVertex
 10
3.680851
 20
-4.018178
 30
0.425
 70
    64
  0
VERTEX
  5
905
100
AcDbEntity
  8
0
100
AcDbVertex
100
AcDbPolygonMeshVertex
 10
3.390275
 20
-3.039199
 30
0.425
 70
    64
  0
VERTEX
  5
906
100
AcDbEntity
  8
0
100
AcDbVertex
100
AcDbPolygonMeshVertex
 10
3.390275
 20
-3.039199
 30
0.425
 70
    64
  0
VERTEX
  5
907
100
AcDbEntity
  8
0
100
AcDbVertex
100
AcDbPolygonMeshVertex
 10
3.390275
 20
-4.018178
 30
0.425
 70
    64
  0
SEQEND
  5
908
100
AcDbEntity
  8
0
  0
POLYLINE
  5
909
100
AcDbEntity
  8
0
100
AcDbPolygonMesh
 66
     1
 10
0.0
 20
0.0
 30
0.0
 70
    16
 71
     6
 72
     3
  0
VERTEX
  5
90A
100
AcDbEntity
  8
0
100
AcDbVertex
100
AcDbPolygonMeshVertex
 10
2.977
 20
-6.47
 30
0.04
 70
    64
  0
VERTEX
  5
90B
100
AcDbEntity
  8
0
100
AcDbVertex
100
AcDbPolygonMeshVertex
 10
2.977
 20
-6.47
 30
0.0
 70
    64
  0
VERTEX
  5
90C
100
AcDbEntity
  8
0
100
AcDbVertex
100
AcDbPolygonMeshVertex
 10
2.977
 20
-6.47
 30
0.0
 70
    64
  0
VERTEX
  5
90D
100
AcDbEntity
  8
0
100
AcDbVertex
100
AcDbPolygonMeshVertex
 10
2.543
 20
-6.47
 30
0.04
 70
    64
  0
VERTEX
  5
90E
100
AcDbEntity
  8
0
100
AcDbVertex
100
AcDbPolygonMeshVertex
 10
2.543
 20
-6.47
 30
0.0
 70
    64
  0
VERTEX
  5
90F
100
AcDbEntity
  8
0
100
AcDbVertex
100
AcDbPolygonMeshVertex
 10
2.543
 20
-6.47
 30
0.0
 70
    64
  0
VERTEX
  5
910
100
AcDbEntity
  8
0
100
AcDbVertex
100
AcDbPolygonMeshVertex
 10
2.543
 20
-5.92
 30
0.04
 70
    64
  0
VERTEX
  5
911
100
AcDbEntity
  8
0
100
AcDbVertex
100
AcDbPolygonMeshVertex
 10
2.543
 20
-5.92
 30
0.0
 70
    64
  0
VERTEX
  5
912
100
AcDbEntity
  8
0
100
AcDbVertex
100
AcDbPolygonMeshVertex
 10
2.543
 20
-6.47
 30
0.0
 70
    64
  0
VERTEX
  5
913
100
AcDbEntity
  8
0
100
AcDbVertex
100
AcDbPolygonMeshVertex
 10
2.977
 20
-5.92
 30
0.04
 70
    64
  0
VERTEX
  5
914
100
AcDbEntity
  8
0
100
AcDbVertex
100
AcDbPolygonMeshVertex
 10
2.977
 20
-5.92
 30
0.0
 70
    64
  0
VERTEX
  5
915
100
AcDbEntity
  8
0
100
AcDbVertex
100
AcDbPolygonMeshVertex
 10
2.977
 20
-6.47
 30
0.0
 70
    64
  0
VERTEX
  5
916
100
AcDbEntity
  8
0
100
AcDbVertex
100
AcDbPolygonMeshVertex
 10
2.977
 20
-5.92
 30
0.04
 70
    64
  0
VERTEX
  5
917
100
AcDbEntity
  8
0
100
AcDbVertex
100
AcDbPolygonMeshVertex
 10
2.977
 20
-5.92
 30
0.04
 70
    64
  0
VERTEX
  5
918
100
AcDbEntity
  8
0
100
AcDbVertex
100
AcDbPolygonMeshVertex
 10
2.977
 20
-6.47
 30
0.04
 70
    64
  0
VERTEX
  5
919
100
AcDbEntity
  8
0
100
AcDbVertex
100
AcDbPolygonMeshVertex
 10
2.543
 20
-5.92
 30
0.04
 70
    64
  0
VERTEX
  5
91A
100
AcDbEntity
  8
0
100
AcDbVertex
100
AcDbPolygonMeshVertex
 10
2.543
 20
-5.92
 30
0.04
 70
    64
  0
VERTEX
  5
91B
100
AcDbEntity
  8
0
100
AcDbVertex
100
AcDbPolygonMeshVertex
 10
2.543
 20
-6.47
 30
0.04
 70
    64
  0
SEQEND
  5
91C
100
AcDbEntity
  8
0
  0
CIRCLE
  5
91D
100
AcDbEntity
  8
0
100
AcDbCircle
 39
0.04
 10
2.76
 20
-6.22
 30
0.0
 40
0.1085
  0
POINT
  5
91E
100
AcDbEntity
  8
DIMS-MTG-HOLES
100
AcDbPoint
 10
2.364994
 20
-5.772975
 30
0.05
  0
POINT
  5
91F
100
AcDbEntity
  8
DIMS-MTG-HOLES
100
AcDbPoint
 10
3.739994
 20
-5.772975
 30
0.05
  0
ARC
  5
920
100
AcDbEntity
  8
0
100
AcDbCircle
 39
0.04
 10
2.76
 20
0.0
 30
0.0
 40
0.1085
100
AcDbArc
 50
356.782733
 51
183.217267
  0
ARC
  5
921
100
AcDbEntity
  8
0
100
AcDbCircle
 39
0.04
 10
2.76
 20
-0.193538
 30
0.0
 40
0.2165
100
AcDbArc
 50
120.024142
 51
59.975858
  0
LINE
  5
922
100
AcDbEntity
  8
0
100
AcDbLine
 10
2.543
 20
0.26
 30
0.0
 11
2.443
 21
0.26
 31
0.0
  0
LINE
  5
923
100
AcDbEntity
  8
0
100
AcDbLine
 10
2.543
 20
0.26
 30
0.04
 11
2.443
 21
0.26
 31
0.04
  0
LINE
  5
924
100
AcDbEntity
  8
0
100
AcDbLine
 10
3.077
 20
0.26
 30
0.0
 11
2.977
 21
0.26
 31
0.0
  0
POINT
  5
925
100
AcDbEntity
  8
DIMS-MTG-HOLES
100
AcDbPoint
 10
0.0
 20
0.0
 30
0.0
  0
POINT
  5
926
100
AcDbEntity
  8
DIMS-MTG-HOLES
100
AcDbPoint
 10
0.0
 20
-6.22
 30
0.0
  0
POINT
  5
927
100
AcDbEntity
  8
DIMS-MTG-HOLES
100
AcDbPoint
 10
2.76
 20
-6.22
 30
0.0
  0
POINT
  5
928
100
AcDbEntity
  8
DIMS-MTG-HOLES
100
AcDbPoint
 10
2.76
 20
0.0
 30
0.0
  0
DIMENSION
  5
929
100
AcDbEntity
  8
AREA1
100
AcDbDimension
  2
*D1
 10
5.627967
 20
0.26
 30
0.0
 11
5.627967
 21
-3.105
 31
0.0
 70
    32
  3
ABECAD_3D
100
AcDbAlignedDimension
 13
2.977
 23
-6.47
 33
0.0
 14
2.977
 24
0.26
 34
0.0
 50
90.0
100
AcDbRotatedDimension
  0
DIMENSION
  5
92A
100
AcDbEntity
  8
AREA1
100
AcDbDimension
  2
*D2
 10
-2.57
 20
1.034043
 30
0.0
 11
0.98
 21
1.034043
 31
0.0
 70
    32
  3
ABECAD_3D
100
AcDbAlignedDimension
 13
4.53
 23
-0.41
 33
0.0
 14
-2.57
 24
-0.41
 34
0.0
100
AcDbRotatedDimension
  0
ENDBLK
  5
92C
100
AcDbEntity
  8
0
100
AcDbBlockEnd
  0
BLOCK
  5
D5B
100
AcDbEntity
  8
0
100
AcDbBlockBegin
  2
*D4
 70
     1
 10
0.0
 20
0.0
 30
0.0
  3
*D4
  1

  0
LINE
  5
D6A
100
AcDbEntity
  8
AREA1
 62
     0
100
AcDbLine
 10
3.0395
 20
-6.47
 30
0.0
 11
5.807967
 21
-6.47
 31
0.0
1001
ACAD
1000
RTLwPs
1070
   158
  0
LINE
  5
D6B
100
AcDbEntity
  8
AREA1
 62
     0
100
AcDbLine
 10
3.0395
 20
0.26
 30
0.0
 11
5.807967
 21
0.26
 31
0.0
1001
ACAD
1000
RTLwPs
1070
   158
  0
LINE
  5
D6C
100
AcDbEntity
  8
AREA1
 62
     0
100
AcDbLine
 10
5.627967
 20
-6.29
 30
0.0
 11
5.627967
 21
-4.35
 31
0.0
1001
ACAD
1000
RTLwPs
1070
   158
  0
LINE
  5
D6D
100
AcDbEntity
  8
AREA1
 62
     0
100
AcDbLine
 10
5.627967
 20
0.08
 30
0.0
 11
5.627967
 21
-1.86
 31
0.0
1001
ACAD
1000
RTLwPs
1070
   158
  0
SOLID
  5
D6E
100
AcDbEntity
  8
AREA1
 62
     0
100
AcDbTrace
 10
5.597967
 20
-6.29
 30
0.0
 11
5.657967
 21
-6.29
 31
0.0
 12
5.627967
 22
-6.47
 32
0.0
 13
5.627967
 23
-6.47
 33
0.0
  0
SOLID
  5
D6F
100
AcDbEntity
  8
AREA1
 62
     0
100
AcDbTrace
 10
5.597967
 20
0.08
 30
0.0
 11
5.657967
 21
0.08
 31
0.0
 12
5.627967
 22
0.26
 32
0.0
 13
5.627967
 23
0.26
 33
0.0
  0
MTEXT
  5
D70
100
AcDbEntity
  8
AREA1
 62
     0
100
AcDbMText
 10
5.627967
 20
-3.105
 30
0.0
 40
0.18
 41
0.0
 71
     5
 72
     1
  1
\A1;6 47/64 [170.9]
 11
0.0
 21
1.0
 31
0.0
1001
ACAD
1000
MTEXTBEGIN
1070
    73
1070
     1
1070
    44
1040
1.0
1070
    74
1070
     0
1000
MTEXTEND
1000
MTEXTBEGIN
1070
    73
1070
     1
1070
    44
1040
1.0
1070
    74
1070
     0
1000
MTEXTEND
1000
MTEXTBEGIN
1070
    73
1070
     1
1070
    44
1040
1.0
1070
    74
1070
     0
1000
MTEXTEND
1000
MTEXTBEGIN
1070
    73
1070
     1
1070
    44
1040
1.0
1070
    74
1070
     0
1000
MTEXTEND
1000
MTEXTBEGIN
1070
    73
1070
     1
1070
    44
1040
1.0
1070
    74
1070
     0
1000
MTEXTEND
1000
MTEXTBEGIN
1070
    73
1070
     1
1070
    44
1040
1.0
1070
    74
1070
     0
1000
MTEXTEND
1000
MTEXTBEGIN
1070
    73
1070
     1
1070
    44
1040
1.0
1070
    74
1070
     0
1000
MTEXTEND
1000
MTEXTBEGIN
1070
    73
1070
     1
1070
    44
1040
1.0
1070
    74
1070
     0
1000
MTEXTEND
  0
POINT
  5
D71
100
AcDbEntity
  8
DEFPOINTS
 62
     0
100
AcDbPoint
 10
2.977
 20
-6.47
 30
0.0
  0
POINT
  5
D72
100
AcDbEntity
  8
DEFPOINTS
 62
     0
100
AcDbPoint
 10
2.977
 20
0.26
 30
0.0
  0
POINT
  5
D73
100
AcDbEntity
  8
DEFPOINTS
 62
     0
100
AcDbPoint
 10
5.627967
 20
0.26
 30
0.0
  0
ENDBLK
  5
D5C
100
AcDbEntity
  8
0
100
AcDbBlockEnd
  0
BLOCK
  5
D68
100
AcDbEntity
  8
0
100
AcDbBlockBegin
  2
*D5
 70
     1
 10
0.0
 20
0.0
 30
0.0
  3
*D5
  1

  0
LINE
  5
D74
100
AcDbEntity
  8
AREA1
 62
     0
100
AcDbLine
 10
4.53
 20
-0.3475
 30
0.0
 11
4.53
 21
1.214043
 31
0.0
1001
ACAD
1000
RTLwPs
1070
   158
  0
LINE
  5
D75
100
AcDbEntity
  8
AREA1
 62
     0
100
AcDbLine
 10
-2.57
 20
-0.3475
 30
0.0
 11
-2.57
 21
1.214043
 31
0.0
1001
ACAD
1000
RTLwPs
1070
   158
  0
LINE
  5
D76
100
AcDbEntity
  8
AREA1
 62
     0
100
AcDbLine
 10
4.35
 20
1.034043
 30
0.0
 11
2.135
 21
1.034043
 31
0.0
1001
ACAD
1000
RTLwPs
1070
   158
  0
LINE
  5
D77
100
AcDbEntity
  8
AREA1
 62
     0
100
AcDbLine
 10
-2.39
 20
1.034043
 30
0.0
 11
-0.175
 21
1.034043
 31
0.0
1001
ACAD
1000
RTLwPs
1070
   158
  0
SOLID
  5
D78
100
AcDbEntity
  8
AREA1
 62
     0
100
AcDbTrace
 10
4.35
 20
1.064043
 30
0.0
 11
4.35
 21
1.004043
 31
0.0
 12
4.53
 22
1.034043
 32
0.0
 13
4.53
 23
1.034043
 33
0.0
  0
SOLID
  5
D79
100
AcDbEntity
  8
AREA1
 62
     0
100
AcDbTrace
 10
-2.39
 20
1.064043
 30
0.0
 11
-2.39
 21
1.004043
 31
0.0
 12
-2.57
 22
1.034043
 32
0.0
 13
-2.57
 23
1.034043
 33
0.0
  0
MTEXT
  5
D7A
100
AcDbEntity
  8
AREA1
 62
     0
100
AcDbMText
 10
0.98
 20
1.034043
 30
0.0
 40
0.18
 41
0.0
 71
     5
 72
     1
  1
\A1;7 3/32 [180.3]
1001
ACAD
1000
MTEXTBEGIN
1070
    73
1070
     1
1070
    44
1040
1.0
1070
    74
1070
     0
1000
MTEXTEND
1000
MTEXTBEGIN
1070
    73
1070
     1
1070
    44
1040
1.0
1070
    74
1070
     0
1000
MTEXTEND
1000
MTEXTBEGIN
1070
    73
1070
     1
1070
    44
1040
1.0
1070
    74
1070
     0
1000
MTEXTEND
1000
MTEXTBEGIN
1070
    73
1070
     1
1070
    44
1040
1.0
1070
    74
1070
     0
1000
MTEXTEND
1000
MTEXTBEGIN
1070
    73
1070
     1
1070
    44
1040
1.0
1070
    74
1070
     0
1000
MTEXTEND
1000
MTEXTBEGIN
1070
    73
1070
     1
1070
    44
1040
1.0
1070
    74
1070
     0
1000
MTEXTEND
1000
MTEXTBEGIN
1070
    73
1070
     1
1070
    44
1040
1.0
1070
    74
1070
     0
1000
MTEXTEND
1000
MTEXTBEGIN
1070
    73
1070
     1
1070
    44
1040
1.0
1070
    74
1070
     0
1000
MTEXTEND
  0
POINT
  5
D7B
100
AcDbEntity
  8
DEFPOINTS
 62
     0
100
AcDbPoint
 10
4.53
 20
-0.41
 30
0.0
  0
POINT
  5
D7C
100
AcDbEntity
  8
DEFPOINTS
 62
     0
100
AcDbPoint
 10
-2.57
 20
-0.41
 30
0.0
  0
POINT
  5
D7D
100
AcDbEntity
  8
DEFPOINTS
 62
     0
100
AcDbPoint
 10
-2.57
 20
1.034043
 30
0.0
  0
ENDBLK
  5
D69
100
AcDbEntity
  8
0
100
AcDbBlockEnd
  0
ENDSEC
  0
SECTION
  2
ENTITIES
  0
LINE
  5
98E
100
AcDbEntity
  8
AREA2
100
AcDbLine
 10
4.0675
 20
0.0
 30
5.71
 11
-3.751954
 21
0.0
 31
5.71
210
0.0
220
-1.0
230
0.0
  0
LINE
  5
98F
100
AcDbEntity
  8
AREA2
100
AcDbLine
 10
-2.6325
 20
0.0
 30
0.0
 11
-3.751954
 21
0.0
 31
0.0
210
0.0
220
-1.0
230
0.0
  0
LINE
  5
990
100
AcDbEntity
  8
AREA2
100
AcDbLine
 10
-3.572266
 20
0.0
 30
5.530313
 11
-3.572266
 21
0.0
 31
3.750833
210
0.0
220
-1.0
230
0.0
  0
LINE
  5
991
100
AcDbEntity
  8
AREA2
100
AcDbLine
 10
-3.572266
 20
0.0
 30
0.179688
 11
-3.572266
 21
0.0
 31
1.959167
210
0.0
220
-1.0
230
0.0
  0
SOLID
  5
992
100
AcDbEntity
  8
AREA2
100
AcDbTrace
 10
-3.602214
 20
5.530313
 30
0.0
 11
-3.542319
 21
5.530313
 31
0.0
 12
-3.572266
 22
5.71
 32
0.0
 13
-3.572266
 23
5.71
 33
0.0
210
0.0
220
-1.0
230
0.0
  0
SOLID
  5
993
100
AcDbEntity
  8
AREA2
100
AcDbTrace
 10
-3.602214
 20
0.179688
 30
0.0
 11
-3.542319
 21
0.179688
 31
0.0
 12
-3.572266
 22
0.0
 32
0.0
 13
-3.572266
 23
0.0
 33
0.0
210
0.0
220
-1.0
230
0.0
  0
MTEXT
  5
994
100
AcDbEntity
  8
AREA2
100
AcDbMText
 10
-3.572266
 20
0.0
 30
2.855
 40
0.125
 41
0.0
 71
     5
 72
     1
  1
\A1;5 45/64 [145.0]
210
0.0
220
-1.0
230
0.0
 11
0.0
 21
0.0
 31
1.0
1001
ACAD
1000
MTEXTBEGIN
1070
    73
1070
     1
1070
    44
1040
1.0
1070
    74
1070
     0
1000
MTEXTEND
1000
MTEXTBEGIN
1070
    73
1070
     1
1070
    44
1040
1.0
1070
    74
1070
     0
1000
MTEXTEND
1000
MTEXTBEGIN
1070
    73
1070
     1
1070
    44
1040
1.0
1070
    74
1070
     0
1000
MTEXTEND
1000
MTEXTBEGIN
1070
    73
1070
     1
1070
    44
1040
1.0
1070
    74
1070
     0
1000
MTEXTEND
1000
MTEXTBEGIN
1070
    73
1070
     1
1070
    44
1040
1.0
1070
    74
1070
     0
1000
MTEXTEND
1000
MTEXTBEGIN
1070
    73
1070
     1
1070
    44
1040
1.0
1070
    74
1070
     0
1000
MTEXTEND
1000
MTEXTBEGIN
1070
    73
1070
     1
1070
    44
1040
1.0
1070
    74
1070
     0
1000
MTEXTEND
1000
MTEXTBEGIN
1070
    73
1070
     1
1070
    44
1040
1.0
1070
    74
1070
     0
1000
MTEXTEND
1000
MTEXTBEGIN
1070
    73
1070
     1
1070
    44
1040
1.0
1070
    74
1070
     0
1000
MTEXTEND
  0
ATTDEF
  5
995
100
AcDbEntity
  8
ATTRIBUTES
100
AcDbText
 10
-2.47415
 20
-2.749086
 30
0.0
 40
0.18
  1
ALLEN-BRADLEY
100
AcDbAttributeDefinition
  3
MANUFACTURER NAME?
  2
AC_VND_LABEL
 70
     1
  0
ATTDEF
  5
996
100
AcDbEntity
  8
ATTRIBUTES
100
AcDbText
 10
-2.47415
 20
-3.124086
 30
0.0
 40
0.18
  1
1746-A4
100
AcDbAttributeDefinition
  3
CATALOG NUMBER?
  2
AC_PART_NO
 70
     1
  0
ATTDEF
  5
997
100
AcDbEntity
  8
ATTRIBUTES
100
AcDbText
 10
-2.47415
 20
-3.499086
 30
0.0
 40
0.18
  1
1746-A4:4-SLOT RACK, MODULAR HARDWARE STYLE
100
AcDbAttributeDefinition
  3
PART DESCRIPTION?
  2
AC_DESCRIPTION
 70
     1
  0
ATTDEF
  5
998
100
AcDbEntity
  8
ATTRIBUTES
100
AcDbText
 10
-2.47415
 20
-3.874086
 30
0.0
 40
0.18
  1

100
AcDbAttributeDefinition
  3
DEVICE ID?
  2
DEVICE_ID
 70
     1
  0
ATTDEF
  5
999
100
AcDbEntity
  8
ATTRIBUTES
100
AcDbText
 10
-2.47415
 20
-4.249086
 30
0.0
 40
0.18
  1

100
AcDbAttributeDefinition
  3
CUSTOMER PART NUMBER?
  2
AC_CPART_NO
 70
     1
  0
ATTDEF
  5
99A
100
AcDbEntity
  8
ATTRIBUTES
100
AcDbText
 10
-2.47415
 20
-4.624086
 30
0.0
 40
0.18
  1

100
AcDbAttributeDefinition
  3
CUSTOMER NOTE?
  2
AC_NOTE
 70
     1
  0
ATTDEF
  5
99B
100
AcDbEntity
  8
ATTRIBUTES
100
AcDbText
 10
-2.47415
 20
-4.999086
 30
0.0
 40
0.18
  1

100
AcDbAttributeDefinition
  3
FASTENER DATA?
  2
FASTENER
 70
     1
  0
ATTDEF
  5
99C
100
AcDbEntity
  8
ATTRIBUTES
100
AcDbText
 10
-2.47415
 20
-5.374086
 30
0.0
 40
0.18
  1
INCH
100
AcDbAttributeDefinition
  3
UNIT OF SCALE?
  2
AC_SCALE_UNIT
 70
     1
  0
ATTDEF
  5
99D
100
AcDbEntity
  8
ATTRIBUTES
100
AcDbText
 10
-2.47415
 20
-5.749086
 30
0.0
 40
0.18
  1
0
100
AcDbAttributeDefinition
  3
VIEW CODE?
  2
AC_VIEW_CODE
 70
     1
  0
INSERT
  5
99E
100
AcDbEntity
  8
SCALE
100
AcDbBlockReference
  2
SCALE
 10
-2.540908
 20
-6.297241
 30
0.0
  0
POLYLINE
  5
99F
100
AcDbEntity
  8
0
100
AcDbPolygonMesh
 66
     1
 10
0.0
 20
0.0
 30
0.0
 70
    16
 71
     6
 72
     3
  0
VERTEX
  5
9A0
100
AcDbEntity
  8
0
100
AcDbVertex
100
AcDbPolygonMeshVertex
 10
4.13
 20
-0.41
 30
3.85
 70
    64
  0
VERTEX
  5
9A1
100
AcDbEntity
  8
0
100
AcDbVertex
100
AcDbPolygonMeshVertex
 10
4.13
 20
-0.41
 30
0.0
 70
    64
  0
VERTEX
  5
9A2
100
AcDbEntity
  8
0
100
AcDbVertex
100
AcDbPolygonMeshVertex
 10
4.13
 20
-0.41
 30
0.0
 70
    64
  0
VERTEX
  5
9A3
100
AcDbEntity
  8
0
100
AcDbVertex
100
AcDbPolygonMeshVertex
 10
-2.57
 20
-0.41
 30
3.85
 70
    64
  0
VERTEX
  5
9A4
100
AcDbEntity
  8
0
100
AcDbVertex
100
AcDbPolygonMeshVertex
 10
-2.57
 20
-0.41
 30
0.0
 70
    64
  0
VERTEX
  5
9A5
100
AcDbEntity
  8
0
100
AcDbVertex
100
AcDbPolygonMeshVertex
 10
-2.57
 20
-0.41
 30
0.0
 70
    64
  0
VERTEX
  5
9A6
100
AcDbEntity
  8
0
100
AcDbVertex
100
AcDbPolygonMeshVertex
 10
-2.57
 20
-0.450291
 30
3.85
 70
    64
  0
VERTEX
  5
9A7
100
AcDbEntity
  8
0
100
AcDbVertex
100
AcDbPolygonMeshVertex
 10
-2.57
 20
-0.450291
 30
0.0
 70
    64
  0
VERTEX
  5
9A8
100
AcDbEntity
  8
0
100
AcDbVertex
100
AcDbPolygonMeshVertex
 10
-2.57
 20
-0.41
 30
0.0
 70
    64
  0
VERTEX
  5
9A9
100
AcDbEntity
  8
0
100
AcDbVertex
100
AcDbPolygonMeshVertex
 10
4.13
 20
-0.450291
 30
3.85
 70
    64
  0
VERTEX
  5
9AA
100
AcDbEntity
  8
0
100
AcDbVertex
100
AcDbPolygonMeshVertex
 10
4.13
 20
-0.450291
 30
0.0
 70
    64
  0
VERTEX
  5
9AB
100
AcDbEntity
  8
0
100
AcDbVertex
100
AcDbPolygonMeshVertex
 10
4.13
 20
-0.41
 30
0.0
 70
    64
  0
VERTEX
  5
9AC
100
AcDbEntity
  8
0
100
AcDbVertex
100
AcDbPolygonMeshVertex
 10
4.13
 20
-0.450291
 30
3.85
 70
    64
  0
VERTEX
  5
9AD
100
AcDbEntity
  8
0
100
AcDbVertex
100
AcDbPolygonMeshVertex
 10
4.13
 20
-0.450291
 30
3.85
 70
    64
  0
VERTEX
  5
9AE
100
AcDbEntity
  8
0
100
AcDbVertex
100
AcDbPolygonMeshVertex
 10
4.13
 20
-0.41
 30
3.85
 70
    64
  0
VERTEX
  5
9AF
100
AcDbEntity
  8
0
100
AcDbVertex
100
AcDbPolygonMeshVertex
 10
-2.57
 20
-0.450291
 30
3.85
 70
    64
  0
VERTEX
  5
9B0
100
AcDbEntity
  8
0
100
AcDbVertex
100
AcDbPolygonMeshVertex
 10
-2.57
 20
-0.450291
 30
3.85
 70
    64
  0
VERTEX
  5
9B1
100
AcDbEntity
  8
0
100
AcDbVertex
100
AcDbPolygonMeshVertex
 10
-2.57
 20
-0.41
 30
3.85
 70
    64
  0
SEQEND
  5
9B2
100
AcDbEntity
  8
0
  0
POLYLINE
  5
9B3
100
AcDbEntity
  8
0
100
AcDbPolygonMesh
 66
     1
 10
0.0
 20
0.0
 30
0.0
 70
    16
 71
     6
 72
     3
  0
VERTEX
  5
9B4
100
AcDbEntity
  8
0
100
AcDbVertex
100
AcDbPolygonMeshVertex
 10
4.13
 20
-5.879709
 30
0.040001
 70
    64
  0
VERTEX
  5
9B5
100
AcDbEntity
  8
0
100
AcDbVertex
100
AcDbPolygonMeshVertex
 10
4.13
 20
-5.879709
 30
0.0
 70
    64
  0
VERTEX
  5
9B6
100
AcDbEntity
  8
0
100
AcDbVertex
100
AcDbPolygonMeshVertex
 10
4.13
 20
-5.879709
 30
0.0
 70
    64
  0
VERTEX
  5
9B7
100
AcDbEntity
  8
0
100
AcDbVertex
100
AcDbPolygonMeshVertex
 10
-2.57
 20
-5.879709
 30
0.040001
 70
    64
  0
VERTEX
  5
9B8
100
AcDbEntity
  8
0
100
AcDbVertex
100
AcDbPolygonMeshVertex
 10
-2.57
 20
-5.879709
 30
0.0
 70
    64
  0
VERTEX
  5
9B9
100
AcDbEntity
  8
0
100
AcDbVertex
100
AcDbPolygonMeshVertex
 10
-2.57
 20
-5.879709
 30
0.0
 70
    64
  0
VERTEX
  5
9BA
100
AcDbEntity
  8
0
100
AcDbVertex
100
AcDbPolygonMeshVertex
 10
-2.57
 20
-0.45
 30
0.040001
 70
    64
  0
VERTEX
  5
9BB
100
AcDbEntity
  8
0
100
AcDbVertex
100
AcDbPolygonMeshVertex
 10
-2.57
 20
-0.45
 30
0.0
 70
    64
  0
VERTEX
  5
9BC
100
AcDbEntity
  8
0
100
AcDbVertex
100
AcDbPolygonMeshVertex
 10
-2.57
 20
-5.879709
 30
0.0
 70
    64
  0
VERTEX
  5
9BD
100
AcDbEntity
  8
0
100
AcDbVertex
100
AcDbPolygonMeshVertex
 10
4.13
 20
-0.45
 30
0.040001
 70
    64
  0
VERTEX
  5
9BE
100
AcDbEntity
  8
0
100
AcDbVertex
100
AcDbPolygonMeshVertex
 10
4.13
 20
-0.45
 30
0.0
 70
    64
  0
VERTEX
  5
9BF
100
AcDbEntity
  8
0
100
AcDbVertex
100
AcDbPolygonMeshVertex
 10
4.13
 20
-5.879709
 30
0.0
 70
    64
  0
VERTEX
  5
9C0
100
AcDbEntity
  8
0
100
AcDbVertex
100
AcDbPolygonMeshVertex
 10
4.13
 20
-0.45
 30
0.040001
 70
    64
  0
VERTEX
  5
9C1
100
AcDbEntity
  8
0
100
AcDbVertex
100
AcDbPolygonMeshVertex
 10
4.13
 20
-0.45
 30
0.040001
 70
    64
  0
VERTEX
  5
9C2
100
AcDbEntity
  8
0
100
AcDbVertex
100
AcDbPolygonMeshVertex
 10
4.13
 20
-5.879709
 30
0.040001
 70
    64
  0
VERTEX
  5
9C3
100
AcDbEntity
  8
0
100
AcDbVertex
100
AcDbPolygonMeshVertex
 10
-2.57
 20
-0.45
 30
0.040001
 70
    64
  0
VERTEX
  5
9C4
100
AcDbEntity
  8
0
100
AcDbVertex
100
AcDbPolygonMeshVertex
 10
-2.57
 20
-0.45
 30
0.040001
 70
    64
  0
VERTEX
  5
9C5
100
AcDbEntity
  8
0
100
AcDbVertex
100
AcDbPolygonMeshVertex
 10
-2.57
 20
-5.879709
 30
0.040001
 70
    64
  0
SEQEND
  5
9C6
100
AcDbEntity
  8
0
  0
POLYLINE
  5
9C7
100
AcDbEntity
  8
0
100
AcDbPolygonMesh
 66
     1
 10
0.0
 20
0.0
 30
0.0
 70
    16
 71
     6
 72
     3
  0
VERTEX
  5
9C8
100
AcDbEntity
  8
0
100
AcDbVertex
100
AcDbPolygonMeshVertex
 10
4.13
 20
-5.92
 30
3.85
 70
    64
  0
VERTEX
  5
9C9
100
AcDbEntity
  8
0
100
AcDbVertex
100
AcDbPolygonMeshVertex
 10
4.13
 20
-5.92
 30
0.0
 70
    64
  0
VERTEX
  5
9CA
100
AcDbEntity
  8
0
100
AcDbVertex
100
AcDbPolygonMeshVertex
 10
4.13
 20
-5.92
 30
0.0
 70
    64
  0
VERTEX
  5
9CB
100
AcDbEntity
  8
0
100
AcDbVertex
100
AcDbPolygonMeshVertex
 10
-2.57
 20
-5.92
 30
3.85
 70
    64
  0
VERTEX
  5
9CC
100
AcDbEntity
  8
0
100
AcDbVertex
100
AcDbPolygonMeshVertex
 10
-2.57
 20
-5.92
 30
0.0
 70
    64
  0
VERTEX
  5
9CD
100
AcDbEntity
  8
0
100
AcDbVertex
100
AcDbPolygonMeshVertex
 10
-2.57
 20
-5.92
 30
0.0
 70
    64
  0
VERTEX
  5
9CE
100
AcDbEntity
  8
0
100
AcDbVertex
100
AcDbPolygonMeshVertex
 10
-2.57
 20
-5.879709
 30
3.85
 70
    64
  0
VERTEX
  5
9CF
100
AcDbEntity
  8
0
100
AcDbVertex
100
AcDbPolygonMeshVertex
 10
-2.57
 20
-5.879709
 30
0.0
 70
    64
  0
VERTEX
  5
9D0
100
AcDbEntity
  8
0
100
AcDbVertex
100
AcDbPolygonMeshVertex
 10
-2.57
 20
-5.92
 30
0.0
 70
    64
  0
VERTEX
  5
9D1
100
AcDbEntity
  8
0
100
AcDbVertex
100
AcDbPolygonMeshVertex
 10
4.13
 20
-5.879709
 30
3.85
 70
    64
  0
VERTEX
  5
9D2
100
AcDbEntity
  8
0
100
AcDbVertex
100
AcDbPolygonMeshVertex
 10
4.13
 20
-5.879709
 30
0.0
 70
    64
  0
VERTEX
  5
9D3
100
AcDbEntity
  8
0
100
AcDbVertex
100
AcDbPolygonMeshVertex
 10
4.13
 20
-5.92
 30
0.0
 70
    64
  0
VERTEX
  5
9D4
100
AcDbEntity
  8
0
100
AcDbVertex
100
AcDbPolygonMeshVertex
 10
4.13
 20
-5.879709
 30
3.85
 70
    64
  0
VERTEX
  5
9D5
100
AcDbEntity
  8
0
100
AcDbVertex
100
AcDbPolygonMeshVertex
 10
4.13
 20
-5.879709
 30
3.85
 70
    64
  0
VERTEX
  5
9D6
100
AcDbEntity
  8
0
100
AcDbVertex
100
AcDbPolygonMeshVertex
 10
4.13
 20
-5.92
 30
3.85
 70
    64
  0
VERTEX
  5
9D7
100
AcDbEntity
  8
0
100
AcDbVertex
100
AcDbPolygonMeshVertex
 10
-2.57
 20
-5.879709
 30
3.85
 70
    64
  0
VERTEX
  5
9D8
100
AcDbEntity
  8
0
100
AcDbVertex
100
AcDbPolygonMeshVertex
 10
-2.57
 20
-5.879709
 30
3.85
 70
    64
  0
VERTEX
  5
9D9
100
AcDbEntity
  8
0
100
AcDbVertex
100
AcDbPolygonMeshVertex
 10
-2.57
 20
-5.92
 30
3.85
 70
    64
  0
SEQEND
  5
9DA
100
AcDbEntity
  8
0
  0
POLYLINE
  5
9DB
100
AcDbEntity
  8
0
100
AcDbPolygonMesh
 66
     1
 10
0.0
 20
0.0
 30
0.0
 70
    16
 71
     6
 72
     3
  0
VERTEX
  5
9DC
100
AcDbEntity
  8
0
100
AcDbVertex
100
AcDbPolygonMeshVertex
 10
-0.317
 20
-0.41
 30
0.04
 70
    64
  0
VERTEX
  5
9DD
100
AcDbEntity
  8
0
100
AcDbVertex
100
AcDbPolygonMeshVertex
 10
-0.317
 20
-0.41
 30
0.0
 70
    64
  0
VERTEX
  5
9DE
100
AcDbEntity
  8
0
100
AcDbVertex
100
AcDbPolygonMeshVertex
 10
-0.317
 20
-0.41
 30
0.0
 70
    64
  0
VERTEX
  5
9DF
100
AcDbEntity
  8
0
100
AcDbVertex
100
AcDbPolygonMeshVertex
 10
-0.317
 20
0.26
 30
0.04
 70
    64
  0
VERTEX
  5
9E0
100
AcDbEntity
  8
0
100
AcDbVertex
100
AcDbPolygonMeshVertex
 10
-0.317
 20
0.26
 30
0.0
 70
    64
  0
VERTEX
  5
9E1
100
AcDbEntity
  8
0
100
AcDbVertex
100
AcDbPolygonMeshVertex
 10
-0.317
 20
0.26
 30
0.0
 70
    64
  0
VERTEX
  5
9E2
100
AcDbEntity
  8
0
100
AcDbVertex
100
AcDbPolygonMeshVertex
 10
0.317
 20
0.26
 30
0.04
 70
    64
  0
VERTEX
  5
9E3
100
AcDbEntity
  8
0
100
AcDbVertex
100
AcDbPolygonMeshVertex
 10
0.317
 20
0.26
 30
0.0
 70
    64
  0
VERTEX
  5
9E4
100
AcDbEntity
  8
0
100
AcDbVertex
100
AcDbPolygonMeshVertex
 10
-0.317
 20
0.26
 30
0.0
 70
    64
  0
VERTEX
  5
9E5
100
AcDbEntity
  8
0
100
AcDbVertex
100
AcDbPolygonMeshVertex
 10
0.317
 20
-0.41
 30
0.04
 70
    64
  0
VERTEX
  5
9E6
100
AcDbEntity
  8
0
100
AcDbVertex
100
AcDbPolygonMeshVertex
 10
0.317
 20
-0.41
 30
0.0
 70
    64
  0
VERTEX
  5
9E7
100
AcDbEntity
  8
0
100
AcDbVertex
100
AcDbPolygonMeshVertex
 10
-0.317
 20
-0.41
 30
0.0
 70
    64
  0
VERTEX
  5
9E8
100
AcDbEntity
  8
0
100
AcDbVertex
100
AcDbPolygonMeshVertex
 10
0.317
 20
-0.41
 30
0.04
 70
    64
  0
VERTEX
  5
9E9
100
AcDbEntity
  8
0
100
AcDbVertex
100
AcDbPolygonMeshVertex
 10
0.317
 20
-0.41
 30
0.04
 70
    64
  0
VERTEX
  5
9EA
100
AcDbEntity
  8
0
100
AcDbVertex
100
AcDbPolygonMeshVertex
 10
-0.317
 20
-0.41
 30
0.04
 70
    64
  0
VERTEX
  5
9EB
100
AcDbEntity
  8
0
100
AcDbVertex
100
AcDbPolygonMeshVertex
 10
0.317
 20
0.26
 30
0.04
 70
    64
  0
VERTEX
  5
9EC
100
AcDbEntity
  8
0
100
AcDbVertex
100
AcDbPolygonMeshVertex
 10
0.317
 20
0.26
 30
0.04
 70
    64
  0
VERTEX
  5
9ED
100
AcDbEntity
  8
0
100
AcDbVertex
100
AcDbPolygonMeshVertex
 10
-0.317
 20
0.26
 30
0.04
 70
    64
  0
SEQEND
  5
9EE
100
AcDbEntity
  8
0
  0
POLYLINE
  5
9EF
100
AcDbEntity
  8
0
100
AcDbPolygonMesh
 66
     1
 10
0.0
 20
0.0
 30
0.0
 70
    16
 71
     6
 72
     3
  0
VERTEX
  5
9F0
100
AcDbEntity
  8
0
100
AcDbVertex
100
AcDbPolygonMeshVertex
 10
-2.20252
 20
-0.482025
 30
3.05
 70
    64
  0
VERTEX
  5
9F1
100
AcDbEntity
  8
0
100
AcDbVertex
100
AcDbPolygonMeshVertex
 10
-2.20252
 20
-0.482025
 30
0.05
 70
    64
  0
VERTEX
  5
9F2
100
AcDbEntity
  8
0
100
AcDbVertex
100
AcDbPolygonMeshVertex
 10
-2.20252
 20
-0.482025
 30
0.05
 70
    64
  0
VERTEX
  5
9F3
100
AcDbEntity
  8
0
100
AcDbVertex
100
AcDbPolygonMeshVertex
 10
-2.30252
 20
-0.482025
 30
3.05
 70
    64
  0
VERTEX
  5
9F4
100
AcDbEntity
  8
0
100
AcDbVertex
100
AcDbPolygonMeshVertex
 10
-2.30252
 20
-0.482025
 30
0.05
 70
    64
  0
VERTEX
  5
9F5
100
AcDbEntity
  8
0
100
AcDbVertex
100
AcDbPolygonMeshVertex
 10
-2.30252
 20
-0.482025
 30
0.05
 70
    64
  0
VERTEX
  5
9F6
100
AcDbEntity
  8
0
100
AcDbVertex
100
AcDbPolygonMeshVertex
 10
-2.30252
 20
-0.682025
 30
3.05
 70
    64
  0
VERTEX
  5
9F7
100
AcDbEntity
  8
0
100
AcDbVertex
100
AcDbPolygonMeshVertex
 10
-2.30252
 20
-0.682025
 30
0.05
 70
    64
  0
VERTEX
  5
9F8
100
AcDbEntity
  8
0
100
AcDbVertex
100
AcDbPolygonMeshVertex
 10
-2.30252
 20
-0.482025
 30
0.05
 70
    64
  0
VERTEX
  5
9F9
100
AcDbEntity
  8
0
100
AcDbVertex
100
AcDbPolygonMeshVertex
 10
-2.20252
 20
-0.682025
 30
3.05
 70
    64
  0
VERTEX
  5
9FA
100
AcDbEntity
  8
0
100
AcDbVertex
100
AcDbPolygonMeshVertex
 10
-2.20252
 20
-0.682025
 30
0.05
 70
    64
  0
VERTEX
  5
9FB
100
AcDbEntity
  8
0
100
AcDbVertex
100
AcDbPolygonMeshVertex
 10
-2.20252
 20
-0.482025
 30
0.05
 70
    64
  0
VERTEX
  5
9FC
100
AcDbEntity
  8
0
100
AcDbVertex
100
AcDbPolygonMeshVertex
 10
-2.20252
 20
-0.682025
 30
3.05
 70
    64
  0
VERTEX
  5
9FD
100
AcDbEntity
  8
0
100
AcDbVertex
100
AcDbPolygonMeshVertex
 10
-2.20252
 20
-0.682025
 30
3.05
 70
    64
  0
VERTEX
  5
9FE
100
AcDbEntity
  8
0
100
AcDbVertex
100
AcDbPolygonMeshVertex
 10
-2.20252
 20
-0.482025
 30
3.05
 70
    64
  0
VERTEX
  5
9FF
100
AcDbEntity
  8
0
100
AcDbVertex
100
AcDbPolygonMeshVertex
 10
-2.30252
 20
-0.682025
 30
3.05
 70
    64
  0
VERTEX
  5
A00
100
AcDbEntity
  8
0
100
AcDbVertex
100
AcDbPolygonMeshVertex
 10
-2.30252
 20
-0.682025
 30
3.05
 70
    64
  0
VERTEX
  5
A01
100
AcDbEntity
  8
0
100
AcDbVertex
100
AcDbPolygonMeshVertex
 10
-2.30252
 20
-0.482025
 30
3.05
 70
    64
  0
SEQEND
  5
A02
100
AcDbEntity
  8
0
  0
POLYLINE
  5
A03
100
AcDbEntity
  8
0
100
AcDbPolygonMesh
 66
     1
 10
0.0
 20
0.0
 30
0.0
 70
    16
 71
     6
 72
     3
  0
VERTEX
  5
A04
100
AcDbEntity
  8
0
100
AcDbVertex
100
AcDbPolygonMeshVertex
 10
-2.01252
 20
-0.482025
 30
3.05
 70
    64
  0
VERTEX
  5
A05
100
AcDbEntity
  8
0
100
AcDbVertex
100
AcDbPolygonMeshVertex
 10
-2.01252
 20
-0.482025
 30
0.05
 70
    64
  0
VERTEX
  5
A06
100
AcDbEntity
  8
0
100
AcDbVertex
100
AcDbPolygonMeshVertex
 10
-2.01252
 20
-0.482025
 30
0.05
 70
    64
  0
VERTEX
  5
A07
100
AcDbEntity
  8
0
100
AcDbVertex
100
AcDbPolygonMeshVertex
 10
-2.11252
 20
-0.482025
 30
3.05
 70
    64
  0
VERTEX
  5
A08
100
AcDbEntity
  8
0
100
AcDbVertex
100
AcDbPolygonMeshVertex
 10
-2.11252
 20
-0.482025
 30
0.05
 70
    64
  0
VERTEX
  5
A09
100
AcDbEntity
  8
0
100
AcDbVertex
100
AcDbPolygonMeshVertex
 10
-2.11252
 20
-0.482025
 30
0.05
 70
    64
  0
VERTEX
  5
A0A
100
AcDbEntity
  8
0
100
AcDbVertex
100
AcDbPolygonMeshVertex
 10
-2.11252
 20
-0.682025
 30
3.05
 70
    64
  0
VERTEX
  5
A0B
100
AcDbEntity
  8
0
100
AcDbVertex
100
AcDbPolygonMeshVertex
 10
-2.11252
 20
-0.682025
 30
0.05
 70
    64
  0
VERTEX
  5
A0C
100
AcDbEntity
  8
0
100
AcDbVertex
100
AcDbPolygonMeshVertex
 10
-2.11252
 20
-0.482025
 30
0.05
 70
    64
  0
VERTEX
  5
A0D
100
AcDbEntity
  8
0
100
AcDbVertex
100
AcDbPolygonMeshVertex
 10
-2.01252
 20
-0.682025
 30
3.05
 70
    64
  0
VERTEX
  5
A0E
100
AcDbEntity
  8
0
100
AcDbVertex
100
AcDbPolygonMeshVertex
 10
-2.01252
 20
-0.682025
 30
0.05
 70
    64
  0
VERTEX
  5
A0F
100
AcDbEntity
  8
0
100
AcDbVertex
100
AcDbPolygonMeshVertex
 10
-2.01252
 20
-0.482025
 30
0.05
 70
    64
  0
VERTEX
  5
A10
100
AcDbEntity
  8
0
100
AcDbVertex
100
AcDbPolygonMeshVertex
 10
-2.01252
 20
-0.682025
 30
3.05
 70
    64
  0
VERTEX
  5
A11
100
AcDbEntity
  8
0
100
AcDbVertex
100
AcDbPolygonMeshVertex
 10
-2.01252
 20
-0.682025
 30
3.05
 70
    64
  0
VERTEX
  5
A12
100
AcDbEntity
  8
0
100
AcDbVertex
100
AcDbPolygonMeshVertex
 10
-2.01252
 20
-0.482025
 30
3.05
 70
    64
  0
VERTEX
  5
A13
100
AcDbEntity
  8
0
100
AcDbVertex
100
AcDbPolygonMeshVertex
 10
-2.11252
 20
-0.682025
 30
3.05
 70
    64
  0
VERTEX
  5
A14
100
AcDbEntity
  8
0
100
AcDbVertex
100
AcDbPolygonMeshVertex
 10
-2.11252
 20
-0.682025
 30
3.05
 70
    64
  0
VERTEX
  5
A15
100
AcDbEntity
  8
0
100
AcDbVertex
100
AcDbPolygonMeshVertex
 10
-2.11252
 20
-0.482025
 30
3.05
 70
    64
  0
SEQEND
  5
A16
100
AcDbEntity
  8
0
  0
POLYLINE
  5
A17
100
AcDbEntity
  8
0
100
AcDbPolygonMesh
 66
     1
 10
0.0
 20
0.0
 30
0.0
 70
    16
 71
     6
 72
     3
  0
VERTEX
  5
A18
100
AcDbEntity
  8
0
100
AcDbVertex
100
AcDbPolygonMeshVertex
 10
-2.11252
 20
-0.482025
 30
3.05
 70
    64
  0
VERTEX
  5
A19
100
AcDbEntity
  8
0
100
AcDbVertex
100
AcDbPolygonMeshVertex
 10
-2.11252
 20
-0.482025
 30
0.05
 70
    64
  0
VERTEX
  5
A1A
100
AcDbEntity
  8
0
100
AcDbVertex
100
AcDbPolygonMeshVertex
 10
-2.11252
 20
-0.482025
 30
0.05
 70
    64
  0
VERTEX
  5
A1B
100
AcDbEntity
  8
0
100
AcDbVertex
100
AcDbPolygonMeshVertex
 10
-2.20252
 20
-0.482025
 30
3.05
 70
    64
  0
VERTEX
  5
A1C
100
AcDbEntity
  8
0
100
AcDbVertex
100
AcDbPolygonMeshVertex
 10
-2.20252
 20
-0.482025
 30
0.05
 70
    64
  0
VERTEX
  5
A1D
100
AcDbEntity
  8
0
100
AcDbVertex
100
AcDbPolygonMeshVertex
 10
-2.20252
 20
-0.482025
 30
0.05
 70
    64
  0
VERTEX
  5
A1E
100
AcDbEntity
  8
0
100
AcDbVertex
100
AcDbPolygonMeshVertex
 10
-2.20252
 20
-0.557025
 30
3.05
 70
    64
  0
VERTEX
  5
A1F
100
AcDbEntity
  8
0
100
AcDbVertex
100
AcDbPolygonMeshVertex
 10
-2.20252
 20
-0.557025
 30
0.05
 70
    64
  0
VERTEX
  5
A20
100
AcDbEntity
  8
0
100
AcDbVertex
100
AcDbPolygonMeshVertex
 10
-2.20252
 20
-0.482025
 30
0.05
 70
    64
  0
VERTEX
  5
A21
100
AcDbEntity
  8
0
100
AcDbVertex
100
AcDbPolygonMeshVertex
 10
-2.11252
 20
-0.557025
 30
3.05
 70
    64
  0
VERTEX
  5
A22
100
AcDbEntity
  8
0
100
AcDbVertex
100
AcDbPolygonMeshVertex
 10
-2.11252
 20
-0.557025
 30
0.05
 70
    64
  0
VERTEX
  5
A23
100
AcDbEntity
  8
0
100
AcDbVertex
100
AcDbPolygonMeshVertex
 10
-2.11252
 20
-0.482025
 30
0.05
 70
    64
  0
VERTEX
  5
A24
100
AcDbEntity
  8
0
100
AcDbVertex
100
AcDbPolygonMeshVertex
 10
-2.11252
 20
-0.557025
 30
3.05
 70
    64
  0
VERTEX
  5
A25
100
AcDbEntity
  8
0
100
AcDbVertex
100
AcDbPolygonMeshVertex
 10
-2.11252
 20
-0.557025
 30
3.05
 70
    64
  0
VERTEX
  5
A26
100
AcDbEntity
  8
0
100
AcDbVertex
100
AcDbPolygonMeshVertex
 10
-2.11252
 20
-0.482025
 30
3.05
 70
    64
  0
VERTEX
  5
A27
100
AcDbEntity
  8
0
100
AcDbVertex
100
AcDbPolygonMeshVertex
 10
-2.20252
 20
-0.557025
 30
3.05
 70
    64
  0
VERTEX
  5
A28
100
AcDbEntity
  8
0
100
AcDbVertex
100
AcDbPolygonMeshVertex
 10
-2.20252
 20
-0.557025
 30
3.05
 70
    64
  0
VERTEX
  5
A29
100
AcDbEntity
  8
0
100
AcDbVertex
100
AcDbPolygonMeshVertex
 10
-2.20252
 20
-0.482025
 30
3.05
 70
    64
  0
SEQEND
  5
A2A
100
AcDbEntity
  8
0
  0
POLYLINE
  5
A2B
100
AcDbEntity
  8
0
100
AcDbPolygonMesh
 66
     1
 10
0.0
 20
0.0
 30
0.0
 70
    16
 71
     6
 72
     3
  0
VERTEX
  5
A2C
100
AcDbEntity
  8
0
100
AcDbVertex
100
AcDbPolygonMeshVertex
 10
-0.430006
 20
-0.482025
 30
3.05
 70
    64
  0
VERTEX
  5
A2D
100
AcDbEntity
  8
0
100
AcDbVertex
100
AcDbPolygonMeshVertex
 10
-0.430006
 20
-0.482025
 30
0.05
 70
    64
  0
VERTEX
  5
A2E
100
AcDbEntity
  8
0
100
AcDbVertex
100
AcDbPolygonMeshVertex
 10
-0.430006
 20
-0.482025
 30
0.05
 70
    64
  0
VERTEX
  5
A2F
100
AcDbEntity
  8
0
100
AcDbVertex
100
AcDbPolygonMeshVertex
 10
-0.530006
 20
-0.482025
 30
3.05
 70
    64
  0
VERTEX
  5
A30
100
AcDbEntity
  8
0
100
AcDbVertex
100
AcDbPolygonMeshVertex
 10
-0.530006
 20
-0.482025
 30
0.05
 70
    64
  0
VERTEX
  5
A31
100
AcDbEntity
  8
0
100
AcDbVertex
100
AcDbPolygonMeshVertex
 10
-0.530006
 20
-0.482025
 30
0.05
 70
    64
  0
VERTEX
  5
A32
100
AcDbEntity
  8
0
100
AcDbVertex
100
AcDbPolygonMeshVertex
 10
-0.530006
 20
-0.682025
 30
3.05
 70
    64
  0
VERTEX
  5
A33
100
AcDbEntity
  8
0
100
AcDbVertex
100
AcDbPolygonMeshVertex
 10
-0.530006
 20
-0.682025
 30
0.05
 70
    64
  0
VERTEX
  5
A34
100
AcDbEntity
  8
0
100
AcDbVertex
100
AcDbPolygonMeshVertex
 10
-0.530006
 20
-0.482025
 30
0.05
 70
    64
  0
VERTEX
  5
A35
100
AcDbEntity
  8
0
100
AcDbVertex
100
AcDbPolygonMeshVertex
 10
-0.430006
 20
-0.682025
 30
3.05
 70
    64
  0
VERTEX
  5
A36
100
AcDbEntity
  8
0
100
AcDbVertex
100
AcDbPolygonMeshVertex
 10
-0.430006
 20
-0.682025
 30
0.05
 70
    64
  0
VERTEX
  5
A37
100
AcDbEntity
  8
0
100
AcDbVertex
100
AcDbPolygonMeshVertex
 10
-0.430006
 20
-0.482025
 30
0.05
 70
    64
  0
VERTEX
  5
A38
100
AcDbEntity
  8
0
100
AcDbVertex
100
AcDbPolygonMeshVertex
 10
-0.430006
 20
-0.682025
 30
3.05
 70
    64
  0
VERTEX
  5
A39
100
AcDbEntity
  8
0
100
AcDbVertex
100
AcDbPolygonMeshVertex
 10
-0.430006
 20
-0.682025
 30
3.05
 70
    64
  0
VERTEX
  5
A3A
100
AcDbEntity
  8
0
100
AcDbVertex
100
AcDbPolygonMeshVertex
 10
-0.430006
 20
-0.482025
 30
3.05
 70
    64
  0
VERTEX
  5
A3B
100
AcDbEntity
  8
0
100
AcDbVertex
100
AcDbPolygonMeshVertex
 10
-0.530006
 20
-0.682025
 30
3.05
 70
    64
  0
VERTEX
  5
A3C
100
AcDbEntity
  8
0
100
AcDbVertex
100
AcDbPolygonMeshVertex
 10
-0.530006
 20
-0.682025
 30
3.05
 70
    64
  0
VERTEX
  5
A3D
100
AcDbEntity
  8
0
100
AcDbVertex
100
AcDbPolygonMeshVertex
 10
-0.530006
 20
-0.482025
 30
3.05
 70
    64
  0
SEQEND
  5
A3E
100
AcDbEntity
  8
0
  0
POLYLINE
  5
A3F
100
AcDbEntity
  8
0
100
AcDbPolygonMesh
 66
     1
 10
0.0
 20
0.0
 30
0.0
 70
    16
 71
     6
 72
     3
  0
VERTEX
  5
A40
100
AcDbEntity
  8
0
100
AcDbVertex
100
AcDbPolygonMeshVertex
 10
-0.240006
 20
-0.482025
 30
3.05
 70
    64
  0
VERTEX
  5
A41
100
AcDbEntity
  8
0
100
AcDbVertex
100
AcDbPolygonMeshVertex
 10
-0.240006
 20
-0.482025
 30
0.05
 70
    64
  0
VERTEX
  5
A42
100
AcDbEntity
  8
0
100
AcDbVertex
100
AcDbPolygonMeshVertex
 10
-0.240006
 20
-0.482025
 30
0.05
 70
    64
  0
VERTEX
  5
A43
100
AcDbEntity
  8
0
100
AcDbVertex
100
AcDbPolygonMeshVertex
 10
-0.340006
 20
-0.482025
 30
3.05
 70
    64
  0
VERTEX
  5
A44
100
AcDbEntity
  8
0
100
AcDbVertex
100
AcDbPolygonMeshVertex
 10
-0.340006
 20
-0.482025
 30
0.05
 70
    64
  0
VERTEX
  5
A45
100
AcDbEntity
  8
0
100
AcDbVertex
100
AcDbPolygonMeshVertex
 10
-0.340006
 20
-0.482025
 30
0.05
 70
    64
  0
VERTEX
  5
A46
100
AcDbEntity
  8
0
100
AcDbVertex
100
AcDbPolygonMeshVertex
 10
-0.340006
 20
-0.682025
 30
3.05
 70
    64
  0
VERTEX
  5
A47
100
AcDbEntity
  8
0
100
AcDbVertex
100
AcDbPolygonMeshVertex
 10
-0.340006
 20
-0.682025
 30
0.05
 70
    64
  0
VERTEX
  5
A48
100
AcDbEntity
  8
0
100
AcDbVertex
100
AcDbPolygonMeshVertex
 10
-0.340006
 20
-0.482025
 30
0.05
 70
    64
  0
VERTEX
  5
A49
100
AcDbEntity
  8
0
100
AcDbVertex
100
AcDbPolygonMeshVertex
 10
-0.240006
 20
-0.682025
 30
3.05
 70
    64
  0
VERTEX
  5
A4A
100
AcDbEntity
  8
0
100
AcDbVertex
100
AcDbPolygonMeshVertex
 10
-0.240006
 20
-0.682025
 30
0.05
 70
    64
  0
VERTEX
  5
A4B
100
AcDbEntity
  8
0
100
AcDbVertex
100
AcDbPolygonMeshVertex
 10
-0.240006
 20
-0.482025
 30
0.05
 70
    64
  0
VERTEX
  5
A4C
100
AcDbEntity
  8
0
100
AcDbVertex
100
AcDbPolygonMeshVertex
 10
-0.240006
 20
-0.682025
 30
3.05
 70
    64
  0
VERTEX
  5
A4D
100
AcDbEntity
  8
0
100
AcDbVertex
100
AcDbPolygonMeshVertex
 10
-0.240006
 20
-0.682025
 30
3.05
 70
    64
  0
VERTEX
  5
A4E
100
AcDbEntity
  8
0
100
AcDbVertex
100
AcDbPolygonMeshVertex
 10
-0.240006
 20
-0.482025
 30
3.05
 70
    64
  0
VERTEX
  5
A4F
100
AcDbEntity
  8
0
100
AcDbVertex
100
AcDbPolygonMeshVertex
 10
-0.340006
 20
-0.682025
 30
3.05
 70
    64
  0
VERTEX
  5
A50
100
AcDbEntity
  8
0
100
AcDbVertex
100
AcDbPolygonMeshVertex
 10
-0.340006
 20
-0.682025
 30
3.05
 70
    64
  0
VERTEX
  5
A51
100
AcDbEntity
  8
0
100
AcDbVertex
100
AcDbPolygonMeshVertex
 10
-0.340006
 20
-0.482025
 30
3.05
 70
    64
  0
SEQEND
  5
A52
100
AcDbEntity
  8
0
  0
POLYLINE
  5
A53
100
AcDbEntity
  8
0
100
AcDbPolygonMesh
 66
     1
 10
0.0
 20
0.0
 30
0.0
 70
    16
 71
     6
 72
     3
  0
VERTEX
  5
A54
100
AcDbEntity
  8
0
100
AcDbVertex
100
AcDbPolygonMeshVertex
 10
-0.340006
 20
-0.482025
 30
3.05
 70
    64
  0
VERTEX
  5
A55
100
AcDbEntity
  8
0
100
AcDbVertex
100
AcDbPolygonMeshVertex
 10
-0.340006
 20
-0.482025
 30
0.05
 70
    64
  0
VERTEX
  5
A56
100
AcDbEntity
  8
0
100
AcDbVertex
100
AcDbPolygonMeshVertex
 10
-0.340006
 20
-0.482025
 30
0.05
 70
    64
  0
VERTEX
  5
A57
100
AcDbEntity
  8
0
100
AcDbVertex
100
AcDbPolygonMeshVertex
 10
-0.430006
 20
-0.482025
 30
3.05
 70
    64
  0
VERTEX
  5
A58
100
AcDbEntity
  8
0
100
AcDbVertex
100
AcDbPolygonMeshVertex
 10
-0.430006
 20
-0.482025
 30
0.05
 70
    64
  0
VERTEX
  5
A59
100
AcDbEntity
  8
0
100
AcDbVertex
100
AcDbPolygonMeshVertex
 10
-0.430006
 20
-0.482025
 30
0.05
 70
    64
  0
VERTEX
  5
A5A
100
AcDbEntity
  8
0
100
AcDbVertex
100
AcDbPolygonMeshVertex
 10
-0.430006
 20
-0.557025
 30
3.05
 70
    64
  0
VERTEX
  5
A5B
100
AcDbEntity
  8
0
100
AcDbVertex
100
AcDbPolygonMeshVertex
 10
-0.430006
 20
-0.557025
 30
0.05
 70
    64
  0
VERTEX
  5
A5C
100
AcDbEntity
  8
0
100
AcDbVertex
100
AcDbPolygonMeshVertex
 10
-0.430006
 20
-0.482025
 30
0.05
 70
    64
  0
VERTEX
  5
A5D
100
AcDbEntity
  8
0
100
AcDbVertex
100
AcDbPolygonMeshVertex
 10
-0.340006
 20
-0.557025
 30
3.05
 70
    64
  0
VERTEX
  5
A5E
100
AcDbEntity
  8
0
100
AcDbVertex
100
AcDbPolygonMeshVertex
 10
-0.340006
 20
-0.557025
 30
0.05
 70
    64
  0
VERTEX
  5
A5F
100
AcDbEntity
  8
0
100
AcDbVertex
100
AcDbPolygonMeshVertex
 10
-0.340006
 20
-0.482025
 30
0.05
 70
    64
  0
VERTEX
  5
A60
100
AcDbEntity
  8
0
100
AcDbVertex
100
AcDbPolygonMeshVertex
 10
-0.340006
 20
-0.557025
 30
3.05
 70
    64
  0
VERTEX
  5
A61
100
AcDbEntity
  8
0
100
AcDbVertex
100
AcDbPolygonMeshVertex
 10
-0.340006
 20
-0.557025
 30
3.05
 70
    64
  0
VERTEX
  5
A62
100
AcDbEntity
  8
0
100
AcDbVertex
100
AcDbPolygonMeshVertex
 10
-0.340006
 20
-0.482025
 30
3.05
 70
    64
  0
VERTEX
  5
A63
100
AcDbEntity
  8
0
100
AcDbVertex
100
AcDbPolygonMeshVertex
 10
-0.430006
 20
-0.557025
 30
3.05
 70
    64
  0
VERTEX
  5
A64
100
AcDbEntity
  8
0
100
AcDbVertex
100
AcDbPolygonMeshVertex
 10
-0.430006
 20
-0.557025
 30
3.05
 70
    64
  0
VERTEX
  5
A65
100
AcDbEntity
  8
0
100
AcDbVertex
100
AcDbPolygonMeshVertex
 10
-0.430006
 20
-0.482025
 30
3.05
 70
    64
  0
SEQEND
  5
A66
100
AcDbEntity
  8
0
  0
POLYLINE
  5
A67
100
AcDbEntity
  8
0
100
AcDbPolygonMesh
 66
     1
 10
0.0
 20
0.0
 30
0.0
 70
    16
 71
     6
 72
     3
  0
VERTEX
  5
A68
100
AcDbEntity
  8
0
100
AcDbVertex
100
AcDbPolygonMeshVertex
 10
0.944994
 20
-0.482025
 30
3.05
 70
    64
  0
VERTEX
  5
A69
100
AcDbEntity
  8
0
100
AcDbVertex
100
AcDbPolygonMeshVertex
 10
0.944994
 20
-0.482025
 30
0.05
 70
    64
  0
VERTEX
  5
A6A
100
AcDbEntity
  8
0
100
AcDbVertex
100
AcDbPolygonMeshVertex
 10
0.944994
 20
-0.482025
 30
0.05
 70
    64
  0
VERTEX
  5
A6B
100
AcDbEntity
  8
0
100
AcDbVertex
100
AcDbPolygonMeshVertex
 10
0.844994
 20
-0.482025
 30
3.05
 70
    64
  0
VERTEX
  5
A6C
100
AcDbEntity
  8
0
100
AcDbVertex
100
AcDbPolygonMeshVertex
 10
0.844994
 20
-0.482025
 30
0.05
 70
    64
  0
VERTEX
  5
A6D
100
AcDbEntity
  8
0
100
AcDbVertex
100
AcDbPolygonMeshVertex
 10
0.844994
 20
-0.482025
 30
0.05
 70
    64
  0
VERTEX
  5
A6E
100
AcDbEntity
  8
0
100
AcDbVertex
100
AcDbPolygonMeshVertex
 10
0.844994
 20
-0.682025
 30
3.05
 70
    64
  0
VERTEX
  5
A6F
100
AcDbEntity
  8
0
100
AcDbVertex
100
AcDbPolygonMeshVertex
 10
0.844994
 20
-0.682025
 30
0.05
 70
    64
  0
VERTEX
  5
A70
100
AcDbEntity
  8
0
100
AcDbVertex
100
AcDbPolygonMeshVertex
 10
0.844994
 20
-0.482025
 30
0.05
 70
    64
  0
VERTEX
  5
A71
100
AcDbEntity
  8
0
100
AcDbVertex
100
AcDbPolygonMeshVertex
 10
0.944994
 20
-0.682025
 30
3.05
 70
    64
  0
VERTEX
  5
A72
100
AcDbEntity
  8
0
100
AcDbVertex
100
AcDbPolygonMeshVertex
 10
0.944994
 20
-0.682025
 30
0.05
 70
    64
  0
VERTEX
  5
A73
100
AcDbEntity
  8
0
100
AcDbVertex
100
AcDbPolygonMeshVertex
 10
0.944994
 20
-0.482025
 30
0.05
 70
    64
  0
VERTEX
  5
A74
100
AcDbEntity
  8
0
100
AcDbVertex
100
AcDbPolygonMeshVertex
 10
0.944994
 20
-0.682025
 30
3.05
 70
    64
  0
VERTEX
  5
A75
100
AcDbEntity
  8
0
100
AcDbVertex
100
AcDbPolygonMeshVertex
 10
0.944994
 20
-0.682025
 30
3.05
 70
    64
  0
VERTEX
  5
A76
100
AcDbEntity
  8
0
100
AcDbVertex
100
AcDbPolygonMeshVertex
 10
0.944994
 20
-0.482025
 30
3.05
 70
    64
  0
VERTEX
  5
A77
100
AcDbEntity
  8
0
100
AcDbVertex
100
AcDbPolygonMeshVertex
 10
0.844994
 20
-0.682025
 30
3.05
 70
    64
  0
VERTEX
  5
A78
100
AcDbEntity
  8
0
100
AcDbVertex
100
AcDbPolygonMeshVertex
 10
0.844994
 20
-0.682025
 30
3.05
 70
    64
  0
VERTEX
  5
A79
100
AcDbEntity
  8
0
100
AcDbVertex
100
AcDbPolygonMeshVertex
 10
0.844994
 20
-0.482025
 30
3.05
 70
    64
  0
SEQEND
  5
A7A
100
AcDbEntity
  8
0
  0
POLYLINE
  5
A7B
100
AcDbEntity
  8
0
100
AcDbPolygonMesh
 66
     1
 10
0.0
 20
0.0
 30
0.0
 70
    16
 71
     6
 72
     3
  0
VERTEX
  5
A7C
100
AcDbEntity
  8
0
100
AcDbVertex
100
AcDbPolygonMeshVertex
 10
1.134994
 20
-0.482025
 30
3.05
 70
    64
  0
VERTEX
  5
A7D
100
AcDbEntity
  8
0
100
AcDbVertex
100
AcDbPolygonMeshVertex
 10
1.134994
 20
-0.482025
 30
0.05
 70
    64
  0
VERTEX
  5
A7E
100
AcDbEntity
  8
0
100
AcDbVertex
100
AcDbPolygonMeshVertex
 10
1.134994
 20
-0.482025
 30
0.05
 70
    64
  0
VERTEX
  5
A7F
100
AcDbEntity
  8
0
100
AcDbVertex
100
AcDbPolygonMeshVertex
 10
1.034994
 20
-0.482025
 30
3.05
 70
    64
  0
VERTEX
  5
A80
100
AcDbEntity
  8
0
100
AcDbVertex
100
AcDbPolygonMeshVertex
 10
1.034994
 20
-0.482025
 30
0.05
 70
    64
  0
VERTEX
  5
A81
100
AcDbEntity
  8
0
100
AcDbVertex
100
AcDbPolygonMeshVertex
 10
1.034994
 20
-0.482025
 30
0.05
 70
    64
  0
VERTEX
  5
A82
100
AcDbEntity
  8
0
100
AcDbVertex
100
AcDbPolygonMeshVertex
 10
1.034994
 20
-0.682025
 30
3.05
 70
    64
  0
VERTEX
  5
A83
100
AcDbEntity
  8
0
100
AcDbVertex
100
AcDbPolygonMeshVertex
 10
1.034994
 20
-0.682025
 30
0.05
 70
    64
  0
VERTEX
  5
A84
100
AcDbEntity
  8
0
100
AcDbVertex
100
AcDbPolygonMeshVertex
 10
1.034994
 20
-0.482025
 30
0.05
 70
    64
  0
VERTEX
  5
A85
100
AcDbEntity
  8
0
100
AcDbVertex
100
AcDbPolygonMeshVertex
 10
1.134994
 20
-0.682025
 30
3.05
 70
    64
  0
VERTEX
  5
A86
100
AcDbEntity
  8
0
100
AcDbVertex
100
AcDbPolygonMeshVertex
 10
1.134994
 20
-0.682025
 30
0.05
 70
    64
  0
VERTEX
  5
A87
100
AcDbEntity
  8
0
100
AcDbVertex
100
AcDbPolygonMeshVertex
 10
1.134994
 20
-0.482025
 30
0.05
 70
    64
  0
VERTEX
  5
A88
100
AcDbEntity
  8
0
100
AcDbVertex
100
AcDbPolygonMeshVertex
 10
1.134994
 20
-0.682025
 30
3.05
 70
    64
  0
VERTEX
  5
A89
100
AcDbEntity
  8
0
100
AcDbVertex
100
AcDbPolygonMeshVertex
 10
1.134994
 20
-0.682025
 30
3.05
 70
    64
  0
VERTEX
  5
A8A
100
AcDbEntity
  8
0
100
AcDbVertex
100
AcDbPolygonMeshVertex
 10
1.134994
 20
-0.482025
 30
3.05
 70
    64
  0
VERTEX
  5
A8B
100
AcDbEntity
  8
0
100
AcDbVertex
100
AcDbPolygonMeshVertex
 10
1.034994
 20
-0.682025
 30
3.05
 70
    64
  0
VERTEX
  5
A8C
100
AcDbEntity
  8
0
100
AcDbVertex
100
AcDbPolygonMeshVertex
 10
1.034994
 20
-0.682025
 30
3.05
 70
    64
  0
VERTEX
  5
A8D
100
AcDbEntity
  8
0
100
AcDbVertex
100
AcDbPolygonMeshVertex
 10
1.034994
 20
-0.482025
 30
3.05
 70
    64
  0
SEQEND
  5
A8E
100
AcDbEntity
  8
0
  0
POLYLINE
  5
A8F
100
AcDbEntity
  8
0
100
AcDbPolygonMesh
 66
     1
 10
0.0
 20
0.0
 30
0.0
 70
    16
 71
     6
 72
     3
  0
VERTEX
  5
A90
100
AcDbEntity
  8
0
100
AcDbVertex
100
AcDbPolygonMeshVertex
 10
1.034994
 20
-0.482025
 30
3.05
 70
    64
  0
VERTEX
  5
A91
100
AcDbEntity
  8
0
100
AcDbVertex
100
AcDbPolygonMeshVertex
 10
1.034994
 20
-0.482025
 30
0.05
 70
    64
  0
VERTEX
  5
A92
100
AcDbEntity
  8
0
100
AcDbVertex
100
AcDbPolygonMeshVertex
 10
1.034994
 20
-0.482025
 30
0.05
 70
    64
  0
VERTEX
  5
A93
100
AcDbEntity
  8
0
100
AcDbVertex
100
AcDbPolygonMeshVertex
 10
0.944994
 20
-0.482025
 30
3.05
 70
    64
  0
VERTEX
  5
A94
100
AcDbEntity
  8
0
100
AcDbVertex
100
AcDbPolygonMeshVertex
 10
0.944994
 20
-0.482025
 30
0.05
 70
    64
  0
VERTEX
  5
A95
100
AcDbEntity
  8
0
100
AcDbVertex
100
AcDbPolygonMeshVertex
 10
0.944994
 20
-0.482025
 30
0.05
 70
    64
  0
VERTEX
  5
A96
100
AcDbEntity
  8
0
100
AcDbVertex
100
AcDbPolygonMeshVertex
 10
0.944994
 20
-0.557025
 30
3.05
 70
    64
  0
VERTEX
  5
A97
100
AcDbEntity
  8
0
100
AcDbVertex
100
AcDbPolygonMeshVertex
 10
0.944994
 20
-0.557025
 30
0.05
 70
    64
  0
VERTEX
  5
A98
100
AcDbEntity
  8
0
100
AcDbVertex
100
AcDbPolygonMeshVertex
 10
0.944994
 20
-0.482025
 30
0.05
 70
    64
  0
VERTEX
  5
A99
100
AcDbEntity
  8
0
100
AcDbVertex
100
AcDbPolygonMeshVertex
 10
1.034994
 20
-0.557025
 30
3.05
 70
    64
  0
VERTEX
  5
A9A
100
AcDbEntity
  8
0
100
AcDbVertex
100
AcDbPolygonMeshVertex
 10
1.034994
 20
-0.557025
 30
0.05
 70
    64
  0
VERTEX
  5
A9B
100
AcDbEntity
  8
0
100
AcDbVertex
100
AcDbPolygonMeshVertex
 10
1.034994
 20
-0.482025
 30
0.05
 70
    64
  0
VERTEX
  5
A9C
100
AcDbEntity
  8
0
100
AcDbVertex
100
AcDbPolygonMeshVertex
 10
1.034994
 20
-0.557025
 30
3.05
 70
    64
  0
VERTEX
  5
A9D
100
AcDbEntity
  8
0
100
AcDbVertex
100
AcDbPolygonMeshVertex
 10
1.034994
 20
-0.557025
 30
3.05
 70
    64
  0
VERTEX
  5
A9E
100
AcDbEntity
  8
0
100
AcDbVertex
100
AcDbPolygonMeshVertex
 10
1.034994
 20
-0.482025
 30
3.05
 70
    64
  0
VERTEX
  5
A9F
100
AcDbEntity
  8
0
100
AcDbVertex
100
AcDbPolygonMeshVertex
 10
0.944994
 20
-0.557025
 30
3.05
 70
    64
  0
VERTEX
  5
AA0
100
AcDbEntity
  8
0
100
AcDbVertex
100
AcDbPolygonMeshVertex
 10
0.944994
 20
-0.557025
 30
3.05
 70
    64
  0
VERTEX
  5
AA1
100
AcDbEntity
  8
0
100
AcDbVertex
100
AcDbPolygonMeshVertex
 10
0.944994
 20
-0.482025
 30
3.05
 70
    64
  0
SEQEND
  5
AA2
100
AcDbEntity
  8
0
  0
POLYLINE
  5
AA3
100
AcDbEntity
  8
0
100
AcDbPolygonMesh
 66
     1
 10
0.0
 20
0.0
 30
0.0
 70
    16
 71
     6
 72
     3
  0
VERTEX
  5
AA4
100
AcDbEntity
  8
0
100
AcDbVertex
100
AcDbPolygonMeshVertex
 10
-1.582856
 20
-5.88
 30
3.849968
 70
    64
  0
VERTEX
  5
AA5
100
AcDbEntity
  8
0
100
AcDbVertex
100
AcDbPolygonMeshVertex
 10
-1.582856
 20
-5.88
 30
0.05
 70
    64
  0
VERTEX
  5
AA6
100
AcDbEntity
  8
0
100
AcDbVertex
100
AcDbPolygonMeshVertex
 10
-1.582856
 20
-5.88
 30
0.05
 70
    64
  0
VERTEX
  5
AA7
100
AcDbEntity
  8
0
100
AcDbVertex
100
AcDbPolygonMeshVertex
 10
-1.982856
 20
-5.88
 30
3.849968
 70
    64
  0
VERTEX
  5
AA8
100
AcDbEntity
  8
0
100
AcDbVertex
100
AcDbPolygonMeshVertex
 10
-1.982856
 20
-5.88
 30
0.05
 70
    64
  0
VERTEX
  5
AA9
100
AcDbEntity
  8
0
100
AcDbVertex
100
AcDbPolygonMeshVertex
 10
-1.982856
 20
-5.88
 30
0.05
 70
    64
  0
VERTEX
  5
AAA
100
AcDbEntity
  8
0
100
AcDbVertex
100
AcDbPolygonMeshVertex
 10
-1.982856
 20
-0.45
 30
3.849968
 70
    64
  0
VERTEX
  5
AAB
100
AcDbEntity
  8
0
100
AcDbVertex
100
AcDbPolygonMeshVertex
 10
-1.982856
 20
-0.45
 30
0.05
 70
    64
  0
VERTEX
  5
AAC
100
AcDbEntity
  8
0
100
AcDbVertex
100
AcDbPolygonMeshVertex
 10
-1.982856
 20
-5.88
 30
0.05
 70
    64
  0
VERTEX
  5
AAD
100
AcDbEntity
  8
0
100
AcDbVertex
100
AcDbPolygonMeshVertex
 10
-1.582856
 20
-0.45
 30
3.849968
 70
    64
  0
VERTEX
  5
AAE
100
AcDbEntity
  8
0
100
AcDbVertex
100
AcDbPolygonMeshVertex
 10
-1.582856
 20
-0.45
 30
0.05
 70
    64
  0
VERTEX
  5
AAF
100
AcDbEntity
  8
0
100
AcDbVertex
100
AcDbPolygonMeshVertex
 10
-1.582856
 20
-5.88
 30
0.05
 70
    64
  0
VERTEX
  5
AB0
100
AcDbEntity
  8
0
100
AcDbVertex
100
AcDbPolygonMeshVertex
 10
-1.582856
 20
-0.45
 30
3.849968
 70
    64
  0
VERTEX
  5
AB1
100
AcDbEntity
  8
0
100
AcDbVertex
100
AcDbPolygonMeshVertex
 10
-1.582856
 20
-0.45
 30
3.849968
 70
    64
  0
VERTEX
  5
AB2
100
AcDbEntity
  8
0
100
AcDbVertex
100
AcDbPolygonMeshVertex
 10
-1.582856
 20
-5.88
 30
3.849968
 70
    64
  0
VERTEX
  5
AB3
100
AcDbEntity
  8
0
100
AcDbVertex
100
AcDbPolygonMeshVertex
 10
-1.982856
 20
-0.45
 30
3.849968
 70
    64
  0
VERTEX
  5
AB4
100
AcDbEntity
  8
0
100
AcDbVertex
100
AcDbPolygonMeshVertex
 10
-1.982856
 20
-0.45
 30
3.849968
 70
    64
  0
VERTEX
  5
AB5
100
AcDbEntity
  8
0
100
AcDbVertex
100
AcDbPolygonMeshVertex
 10
-1.982856
 20
-5.88
 30
3.849968
 70
    64
  0
SEQEND
  5
AB6
100
AcDbEntity
  8
0
  0
POLYLINE
  5
AB7
100
AcDbEntity
  8
0
100
AcDbPolygonMesh
 66
     1
 10
0.0
 20
0.0
 30
0.0
 70
    16
 71
     6
 72
     3
  0
VERTEX
  5
AB8
100
AcDbEntity
  8
0
100
AcDbVertex
100
AcDbPolygonMeshVertex
 10
-2.11252
 20
-5.847975
 30
3.05
 70
    64
  0
VERTEX
  5
AB9
100
AcDbEntity
  8
0
100
AcDbVertex
100
AcDbPolygonMeshVertex
 10
-2.11252
 20
-5.847975
 30
0.05
 70
    64
  0
VERTEX
  5
ABA
100
AcDbEntity
  8
0
100
AcDbVertex
100
AcDbPolygonMeshVertex
 10
-2.11252
 20
-5.847975
 30
0.05
 70
    64
  0
VERTEX
  5
ABB
100
AcDbEntity
  8
0
100
AcDbVertex
100
AcDbPolygonMeshVertex
 10
-2.20252
 20
-5.847975
 30
3.05
 70
    64
  0
VERTEX
  5
ABC
100
AcDbEntity
  8
0
100
AcDbVertex
100
AcDbPolygonMeshVertex
 10
-2.20252
 20
-5.847975
 30
0.05
 70
    64
  0
VERTEX
  5
ABD
100
AcDbEntity
  8
0
100
AcDbVertex
100
AcDbPolygonMeshVertex
 10
-2.20252
 20
-5.847975
 30
0.05
 70
    64
  0
VERTEX
  5
ABE
100
AcDbEntity
  8
0
100
AcDbVertex
100
AcDbPolygonMeshVertex
 10
-2.20252
 20
-5.772975
 30
3.05
 70
    64
  0
VERTEX
  5
ABF
100
AcDbEntity
  8
0
100
AcDbVertex
100
AcDbPolygonMeshVertex
 10
-2.20252
 20
-5.772975
 30
0.05
 70
    64
  0
VERTEX
  5
AC0
100
AcDbEntity
  8
0
100
AcDbVertex
100
AcDbPolygonMeshVertex
 10
-2.20252
 20
-5.847975
 30
0.05
 70
    64
  0
VERTEX
  5
AC1
100
AcDbEntity
  8
0
100
AcDbVertex
100
AcDbPolygonMeshVertex
 10
-2.11252
 20
-5.772975
 30
3.05
 70
    64
  0
VERTEX
  5
AC2
100
AcDbEntity
  8
0
100
AcDbVertex
100
AcDbPolygonMeshVertex
 10
-2.11252
 20
-5.772975
 30
0.05
 70
    64
  0
VERTEX
  5
AC3
100
AcDbEntity
  8
0
100
AcDbVertex
100
AcDbPolygonMeshVertex
 10
-2.11252
 20
-5.847975
 30
0.05
 70
    64
  0
VERTEX
  5
AC4
100
AcDbEntity
  8
0
100
AcDbVertex
100
AcDbPolygonMeshVertex
 10
-2.11252
 20
-5.772975
 30
3.05
 70
    64
  0
VERTEX
  5
AC5
100
AcDbEntity
  8
0
100
AcDbVertex
100
AcDbPolygonMeshVertex
 10
-2.11252
 20
-5.772975
 30
3.05
 70
    64
  0
VERTEX
  5
AC6
100
AcDbEntity
  8
0
100
AcDbVertex
100
AcDbPolygonMeshVertex
 10
-2.11252
 20
-5.847975
 30
3.05
 70
    64
  0
VERTEX
  5
AC7
100
AcDbEntity
  8
0
100
AcDbVertex
100
AcDbPolygonMeshVertex
 10
-2.20252
 20
-5.772975
 30
3.05
 70
    64
  0
VERTEX
  5
AC8
100
AcDbEntity
  8
0
100
AcDbVertex
100
AcDbPolygonMeshVertex
 10
-2.20252
 20
-5.772975
 30
3.05
 70
    64
  0
VERTEX
  5
AC9
100
AcDbEntity
  8
0
100
AcDbVertex
100
AcDbPolygonMeshVertex
 10
-2.20252
 20
-5.847975
 30
3.05
 70
    64
  0
SEQEND
  5
ACA
100
AcDbEntity
  8
0
  0
POLYLINE
  5
ACB
100
AcDbEntity
  8
0
100
AcDbPolygonMesh
 66
     1
 10
0.0
 20
0.0
 30
0.0
 70
    16
 71
     6
 72
     3
  0
VERTEX
  5
ACC
100
AcDbEntity
  8
0
100
AcDbVertex
100
AcDbPolygonMeshVertex
 10
-2.01252
 20
-5.847975
 30
3.05
 70
    64
  0
VERTEX
  5
ACD
100
AcDbEntity
  8
0
100
AcDbVertex
100
AcDbPolygonMeshVertex
 10
-2.01252
 20
-5.847975
 30
0.05
 70
    64
  0
VERTEX
  5
ACE
100
AcDbEntity
  8
0
100
AcDbVertex
100
AcDbPolygonMeshVertex
 10
-2.01252
 20
-5.847975
 30
0.05
 70
    64
  0
VERTEX
  5
ACF
100
AcDbEntity
  8
0
100
AcDbVertex
100
AcDbPolygonMeshVertex
 10
-2.11252
 20
-5.847975
 30
3.05
 70
    64
  0
VERTEX
  5
AD0
100
AcDbEntity
  8
0
100
AcDbVertex
100
AcDbPolygonMeshVertex
 10
-2.11252
 20
-5.847975
 30
0.05
 70
    64
  0
VERTEX
  5
AD1
100
AcDbEntity
  8
0
100
AcDbVertex
100
AcDbPolygonMeshVertex
 10
-2.11252
 20
-5.847975
 30
0.05
 70
    64
  0
VERTEX
  5
AD2
100
AcDbEntity
  8
0
100
AcDbVertex
100
AcDbPolygonMeshVertex
 10
-2.11252
 20
-5.647975
 30
3.05
 70
    64
  0
VERTEX
  5
AD3
100
AcDbEntity
  8
0
100
AcDbVertex
100
AcDbPolygonMeshVertex
 10
-2.11252
 20
-5.647975
 30
0.05
 70
    64
  0
VERTEX
  5
AD4
100
AcDbEntity
  8
0
100
AcDbVertex
100
AcDbPolygonMeshVertex
 10
-2.11252
 20
-5.847975
 30
0.05
 70
    64
  0
VERTEX
  5
AD5
100
AcDbEntity
  8
0
100
AcDbVertex
100
AcDbPolygonMeshVertex
 10
-2.01252
 20
-5.647975
 30
3.05
 70
    64
  0
VERTEX
  5
AD6
100
AcDbEntity
  8
0
100
AcDbVertex
100
AcDbPolygonMeshVertex
 10
-2.01252
 20
-5.647975
 30
0.05
 70
    64
  0
VERTEX
  5
AD7
100
AcDbEntity
  8
0
100
AcDbVertex
100
AcDbPolygonMeshVertex
 10
-2.01252
 20
-5.847975
 30
0.05
 70
    64
  0
VERTEX
  5
AD8
100
AcDbEntity
  8
0
100
AcDbVertex
100
AcDbPolygonMeshVertex
 10
-2.01252
 20
-5.647975
 30
3.05
 70
    64
  0
VERTEX
  5
AD9
100
AcDbEntity
  8
0
100
AcDbVertex
100
AcDbPolygonMeshVertex
 10
-2.01252
 20
-5.647975
 30
3.05
 70
    64
  0
VERTEX
  5
ADA
100
AcDbEntity
  8
0
100
AcDbVertex
100
AcDbPolygonMeshVertex
 10
-2.01252
 20
-5.847975
 30
3.05
 70
    64
  0
VERTEX
  5
ADB
100
AcDbEntity
  8
0
100
AcDbVertex
100
AcDbPolygonMeshVertex
 10
-2.11252
 20
-5.647975
 30
3.05
 70
    64
  0
VERTEX
  5
ADC
100
AcDbEntity
  8
0
100
AcDbVertex
100
AcDbPolygonMeshVertex
 10
-2.11252
 20
-5.647975
 30
3.05
 70
    64
  0
VERTEX
  5
ADD
100
AcDbEntity
  8
0
100
AcDbVertex
100
AcDbPolygonMeshVertex
 10
-2.11252
 20
-5.847975
 30
3.05
 70
    64
  0
SEQEND
  5
ADE
100
AcDbEntity
  8
0
  0
POLYLINE
  5
ADF
100
AcDbEntity
  8
0
100
AcDbPolygonMesh
 66
     1
 10
0.0
 20
0.0
 30
0.0
 70
    16
 71
     6
 72
     3
  0
VERTEX
  5
AE0
100
AcDbEntity
  8
0
100
AcDbVertex
100
AcDbPolygonMeshVertex
 10
-2.20252
 20
-5.847975
 30
3.05
 70
    64
  0
VERTEX
  5
AE1
100
AcDbEntity
  8
0
100
AcDbVertex
100
AcDbPolygonMeshVertex
 10
-2.20252
 20
-5.847975
 30
0.05
 70
    64
  0
VERTEX
  5
AE2
100
AcDbEntity
  8
0
100
AcDbVertex
100
AcDbPolygonMeshVertex
 10
-2.20252
 20
-5.847975
 30
0.05
 70
    64
  0
VERTEX
  5
AE3
100
AcDbEntity
  8
0
100
AcDbVertex
100
AcDbPolygonMeshVertex
 10
-2.30252
 20
-5.847975
 30
3.05
 70
    64
  0
VERTEX
  5
AE4
100
AcDbEntity
  8
0
100
AcDbVertex
100
AcDbPolygonMeshVertex
 10
-2.30252
 20
-5.847975
 30
0.05
 70
    64
  0
VERTEX
  5
AE5
100
AcDbEntity
  8
0
100
AcDbVertex
100
AcDbPolygonMeshVertex
 10
-2.30252
 20
-5.847975
 30
0.05
 70
    64
  0
VERTEX
  5
AE6
100
AcDbEntity
  8
0
100
AcDbVertex
100
AcDbPolygonMeshVertex
 10
-2.30252
 20
-5.647975
 30
3.05
 70
    64
  0
VERTEX
  5
AE7
100
AcDbEntity
  8
0
100
AcDbVertex
100
AcDbPolygonMeshVertex
 10
-2.30252
 20
-5.647975
 30
0.05
 70
    64
  0
VERTEX
  5
AE8
100
AcDbEntity
  8
0
100
AcDbVertex
100
AcDbPolygonMeshVertex
 10
-2.30252
 20
-5.847975
 30
0.05
 70
    64
  0
VERTEX
  5
AE9
100
AcDbEntity
  8
0
100
AcDbVertex
100
AcDbPolygonMeshVertex
 10
-2.20252
 20
-5.647975
 30
3.05
 70
    64
  0
VERTEX
  5
AEA
100
AcDbEntity
  8
0
100
AcDbVertex
100
AcDbPolygonMeshVertex
 10
-2.20252
 20
-5.647975
 30
0.05
 70
    64
  0
VERTEX
  5
AEB
100
AcDbEntity
  8
0
100
AcDbVertex
100
AcDbPolygonMeshVertex
 10
-2.20252
 20
-5.847975
 30
0.05
 70
    64
  0
VERTEX
  5
AEC
100
AcDbEntity
  8
0
100
AcDbVertex
100
AcDbPolygonMeshVertex
 10
-2.20252
 20
-5.647975
 30
3.05
 70
    64
  0
VERTEX
  5
AED
100
AcDbEntity
  8
0
100
AcDbVertex
100
AcDbPolygonMeshVertex
 10
-2.20252
 20
-5.647975
 30
3.05
 70
    64
  0
VERTEX
  5
AEE
100
AcDbEntity
  8
0
100
AcDbVertex
100
AcDbPolygonMeshVertex
 10
-2.20252
 20
-5.847975
 30
3.05
 70
    64
  0
VERTEX
  5
AEF
100
AcDbEntity
  8
0
100
AcDbVertex
100
AcDbPolygonMeshVertex
 10
-2.30252
 20
-5.647975
 30
3.05
 70
    64
  0
VERTEX
  5
AF0
100
AcDbEntity
  8
0
100
AcDbVertex
100
AcDbPolygonMeshVertex
 10
-2.30252
 20
-5.647975
 30
3.05
 70
    64
  0
VERTEX
  5
AF1
100
AcDbEntity
  8
0
100
AcDbVertex
100
AcDbPolygonMeshVertex
 10
-2.30252
 20
-5.847975
 30
3.05
 70
    64
  0
SEQEND
  5
AF2
100
AcDbEntity
  8
0
  0
POLYLINE
  5
AF3
100
AcDbEntity
  8
0
100
AcDbPolygonMesh
 66
     1
 10
0.0
 20
0.0
 30
0.0
 70
    16
 71
     6
 72
     3
  0
VERTEX
  5
AF4
100
AcDbEntity
  8
0
100
AcDbVertex
100
AcDbPolygonMeshVertex
 10
-0.340006
 20
-5.847975
 30
3.05
 70
    64
  0
VERTEX
  5
AF5
100
AcDbEntity
  8
0
100
AcDbVertex
100
AcDbPolygonMeshVertex
 10
-0.340006
 20
-5.847975
 30
0.05
 70
    64
  0
VERTEX
  5
AF6
100
AcDbEntity
  8
0
100
AcDbVertex
100
AcDbPolygonMeshVertex
 10
-0.340006
 20
-5.847975
 30
0.05
 70
    64
  0
VERTEX
  5
AF7
100
AcDbEntity
  8
0
100
AcDbVertex
100
AcDbPolygonMeshVertex
 10
-0.430006
 20
-5.847975
 30
3.05
 70
    64
  0
VERTEX
  5
AF8
100
AcDbEntity
  8
0
100
AcDbVertex
100
AcDbPolygonMeshVertex
 10
-0.430006
 20
-5.847975
 30
0.05
 70
    64
  0
VERTEX
  5
AF9
100
AcDbEntity
  8
0
100
AcDbVertex
100
AcDbPolygonMeshVertex
 10
-0.430006
 20
-5.847975
 30
0.05
 70
    64
  0
VERTEX
  5
AFA
100
AcDbEntity
  8
0
100
AcDbVertex
100
AcDbPolygonMeshVertex
 10
-0.430006
 20
-5.772975
 30
3.05
 70
    64
  0
VERTEX
  5
AFB
100
AcDbEntity
  8
0
100
AcDbVertex
100
AcDbPolygonMeshVertex
 10
-0.430006
 20
-5.772975
 30
0.05
 70
    64
  0
VERTEX
  5
AFC
100
AcDbEntity
  8
0
100
AcDbVertex
100
AcDbPolygonMeshVertex
 10
-0.430006
 20
-5.847975
 30
0.05
 70
    64
  0
VERTEX
  5
AFD
100
AcDbEntity
  8
0
100
AcDbVertex
100
AcDbPolygonMeshVertex
 10
-0.340006
 20
-5.772975
 30
3.05
 70
    64
  0
VERTEX
  5
AFE
100
AcDbEntity
  8
0
100
AcDbVertex
100
AcDbPolygonMeshVertex
 10
-0.340006
 20
-5.772975
 30
0.05
 70
    64
  0
VERTEX
  5
AFF
100
AcDbEntity
  8
0
100
AcDbVertex
100
AcDbPolygonMeshVertex
 10
-0.340006
 20
-5.847975
 30
0.05
 70
    64
  0
VERTEX
  5
B00
100
AcDbEntity
  8
0
100
AcDbVertex
100
AcDbPolygonMeshVertex
 10
-0.340006
 20
-5.772975
 30
3.05
 70
    64
  0
VERTEX
  5
B01
100
AcDbEntity
  8
0
100
AcDbVertex
100
AcDbPolygonMeshVertex
 10
-0.340006
 20
-5.772975
 30
3.05
 70
    64
  0
VERTEX
  5
B02
100
AcDbEntity
  8
0
100
AcDbVertex
100
AcDbPolygonMeshVertex
 10
-0.340006
 20
-5.847975
 30
3.05
 70
    64
  0
VERTEX
  5
B03
100
AcDbEntity
  8
0
100
AcDbVertex
100
AcDbPolygonMeshVertex
 10
-0.430006
 20
-5.772975
 30
3.05
 70
    64
  0
VERTEX
  5
B04
100
AcDbEntity
  8
0
100
AcDbVertex
100
AcDbPolygonMeshVertex
 10
-0.430006
 20
-5.772975
 30
3.05
 70
    64
  0
VERTEX
  5
B05
100
AcDbEntity
  8
0
100
AcDbVertex
100
AcDbPolygonMeshVertex
 10
-0.430006
 20
-5.847975
 30
3.05
 70
    64
  0
SEQEND
  5
B06
100
AcDbEntity
  8
0
  0
POLYLINE
  5
B07
100
AcDbEntity
  8
0
100
AcDbPolygonMesh
 66
     1
 10
0.0
 20
0.0
 30
0.0
 70
    16
 71
     6
 72
     3
  0
VERTEX
  5
B08
100
AcDbEntity
  8
0
100
AcDbVertex
100
AcDbPolygonMeshVertex
 10
-0.240006
 20
-5.847975
 30
3.05
 70
    64
  0
VERTEX
  5
B09
100
AcDbEntity
  8
0
100
AcDbVertex
100
AcDbPolygonMeshVertex
 10
-0.240006
 20
-5.847975
 30
0.05
 70
    64
  0
VERTEX
  5
B0A
100
AcDbEntity
  8
0
100
AcDbVertex
100
AcDbPolygonMeshVertex
 10
-0.240006
 20
-5.847975
 30
0.05
 70
    64
  0
VERTEX
  5
B0B
100
AcDbEntity
  8
0
100
AcDbVertex
100
AcDbPolygonMeshVertex
 10
-0.340006
 20
-5.847975
 30
3.05
 70
    64
  0
VERTEX
  5
B0C
100
AcDbEntity
  8
0
100
AcDbVertex
100
AcDbPolygonMeshVertex
 10
-0.340006
 20
-5.847975
 30
0.05
 70
    64
  0
VERTEX
  5
B0D
100
AcDbEntity
  8
0
100
AcDbVertex
100
AcDbPolygonMeshVertex
 10
-0.340006
 20
-5.847975
 30
0.05
 70
    64
  0
VERTEX
  5
B0E
100
AcDbEntity
  8
0
100
AcDbVertex
100
AcDbPolygonMeshVertex
 10
-0.340006
 20
-5.647975
 30
3.05
 70
    64
  0
VERTEX
  5
B0F
100
AcDbEntity
  8
0
100
AcDbVertex
100
AcDbPolygonMeshVertex
 10
-0.340006
 20
-5.647975
 30
0.05
 70
    64
  0
VERTEX
  5
B10
100
AcDbEntity
  8
0
100
AcDbVertex
100
AcDbPolygonMeshVertex
 10
-0.340006
 20
-5.847975
 30
0.05
 70
    64
  0
VERTEX
  5
B11
100
AcDbEntity
  8
0
100
AcDbVertex
100
AcDbPolygonMeshVertex
 10
-0.240006
 20
-5.647975
 30
3.05
 70
    64
  0
VERTEX
  5
B12
100
AcDbEntity
  8
0
100
AcDbVertex
100
AcDbPolygonMeshVertex
 10
-0.240006
 20
-5.647975
 30
0.05
 70
    64
  0
VERTEX
  5
B13
100
AcDbEntity
  8
0
100
AcDbVertex
100
AcDbPolygonMeshVertex
 10
-0.240006
 20
-5.847975
 30
0.05
 70
    64
  0
VERTEX
  5
B14
100
AcDbEntity
  8
0
100
AcDbVertex
100
AcDbPolygonMeshVertex
 10
-0.240006
 20
-5.647975
 30
3.05
 70
    64
  0
VERTEX
  5
B15
100
AcDbEntity
  8
0
100
AcDbVertex
100
AcDbPolygonMeshVertex
 10
-0.240006
 20
-5.647975
 30
3.05
 70
    64
  0
VERTEX
  5
B16
100
AcDbEntity
  8
0
100
AcDbVertex
100
AcDbPolygonMeshVertex
 10
-0.240006
 20
-5.847975
 30
3.05
 70
    64
  0
VERTEX
  5
B17
100
AcDbEntity
  8
0
100
AcDbVertex
100
AcDbPolygonMeshVertex
 10
-0.340006
 20
-5.647975
 30
3.05
 70
    64
  0
VERTEX
  5
B18
100
AcDbEntity
  8
0
100
AcDbVertex
100
AcDbPolygonMeshVertex
 10
-0.340006
 20
-5.647975
 30
3.05
 70
    64
  0
VERTEX
  5
B19
100
AcDbEntity
  8
0
100
AcDbVertex
100
AcDbPolygonMeshVertex
 10
-0.340006
 20
-5.847975
 30
3.05
 70
    64
  0
SEQEND
  5
B1A
100
AcDbEntity
  8
0
  0
POLYLINE
  5
B1B
100
AcDbEntity
  8
0
100
AcDbPolygonMesh
 66
     1
 10
0.0
 20
0.0
 30
0.0
 70
    16
 71
     6
 72
     3
  0
VERTEX
  5
B1C
100
AcDbEntity
  8
0
100
AcDbVertex
100
AcDbPolygonMeshVertex
 10
-0.430006
 20
-5.847975
 30
3.05
 70
    64
  0
VERTEX
  5
B1D
100
AcDbEntity
  8
0
100
AcDbVertex
100
AcDbPolygonMeshVertex
 10
-0.430006
 20
-5.847975
 30
0.05
 70
    64
  0
VERTEX
  5
B1E
100
AcDbEntity
  8
0
100
AcDbVertex
100
AcDbPolygonMeshVertex
 10
-0.430006
 20
-5.847975
 30
0.05
 70
    64
  0
VERTEX
  5
B1F
100
AcDbEntity
  8
0
100
AcDbVertex
100
AcDbPolygonMeshVertex
 10
-0.530006
 20
-5.847975
 30
3.05
 70
    64
  0
VERTEX
  5
B20
100
AcDbEntity
  8
0
100
AcDbVertex
100
AcDbPolygonMeshVertex
 10
-0.530006
 20
-5.847975
 30
0.05
 70
    64
  0
VERTEX
  5
B21
100
AcDbEntity
  8
0
100
AcDbVertex
100
AcDbPolygonMeshVertex
 10
-0.530006
 20
-5.847975
 30
0.05
 70
    64
  0
VERTEX
  5
B22
100
AcDbEntity
  8
0
100
AcDbVertex
100
AcDbPolygonMeshVertex
 10
-0.530006
 20
-5.647975
 30
3.05
 70
    64
  0
VERTEX
  5
B23
100
AcDbEntity
  8
0
100
AcDbVertex
100
AcDbPolygonMeshVertex
 10
-0.530006
 20
-5.647975
 30
0.05
 70
    64
  0
VERTEX
  5
B24
100
AcDbEntity
  8
0
100
AcDbVertex
100
AcDbPolygonMeshVertex
 10
-0.530006
 20
-5.847975
 30
0.05
 70
    64
  0
VERTEX
  5
B25
100
AcDbEntity
  8
0
100
AcDbVertex
100
AcDbPolygonMeshVertex
 10
-0.430006
 20
-5.647975
 30
3.05
 70
    64
  0
VERTEX
  5
B26
100
AcDbEntity
  8
0
100
AcDbVertex
100
AcDbPolygonMeshVertex
 10
-0.430006
 20
-5.647975
 30
0.05
 70
    64
  0
VERTEX
  5
B27
100
AcDbEntity
  8
0
100
AcDbVertex
100
AcDbPolygonMeshVertex
 10
-0.430006
 20
-5.847975
 30
0.05
 70
    64
  0
VERTEX
  5
B28
100
AcDbEntity
  8
0
100
AcDbVertex
100
AcDbPolygonMeshVertex
 10
-0.430006
 20
-5.647975
 30
3.05
 70
    64
  0
VERTEX
  5
B29
100
AcDbEntity
  8
0
100
AcDbVertex
100
AcDbPolygonMeshVertex
 10
-0.430006
 20
-5.647975
 30
3.05
 70
    64
  0
VERTEX
  5
B2A
100
AcDbEntity
  8
0
100
AcDbVertex
100
AcDbPolygonMeshVertex
 10
-0.430006
 20
-5.847975
 30
3.05
 70
    64
  0
VERTEX
  5
B2B
100
AcDbEntity
  8
0
100
AcDbVertex
100
AcDbPolygonMeshVertex
 10
-0.530006
 20
-5.647975
 30
3.05
 70
    64
  0
VERTEX
  5
B2C
100
AcDbEntity
  8
0
100
AcDbVertex
100
AcDbPolygonMeshVertex
 10
-0.530006
 20
-5.647975
 30
3.05
 70
    64
  0
VERTEX
  5
B2D
100
AcDbEntity
  8
0
100
AcDbVertex
100
AcDbPolygonMeshVertex
 10
-0.530006
 20
-5.847975
 30
3.05
 70
    64
  0
SEQEND
  5
B2E
100
AcDbEntity
  8
0
  0
POLYLINE
  5
B2F
100
AcDbEntity
  8
0
100
AcDbPolygonMesh
 66
     1
 10
0.0
 20
0.0
 30
0.0
 70
    16
 71
     6
 72
     3
  0
VERTEX
  5
B30
100
AcDbEntity
  8
0
100
AcDbVertex
100
AcDbPolygonMeshVertex
 10
1.034994
 20
-5.847975
 30
3.05
 70
    64
  0
VERTEX
  5
B31
100
AcDbEntity
  8
0
100
AcDbVertex
100
AcDbPolygonMeshVertex
 10
1.034994
 20
-5.847975
 30
0.05
 70
    64
  0
VERTEX
  5
B32
100
AcDbEntity
  8
0
100
AcDbVertex
100
AcDbPolygonMeshVertex
 10
1.034994
 20
-5.847975
 30
0.05
 70
    64
  0
VERTEX
  5
B33
100
AcDbEntity
  8
0
100
AcDbVertex
100
AcDbPolygonMeshVertex
 10
0.944994
 20
-5.847975
 30
3.05
 70
    64
  0
VERTEX
  5
B34
100
AcDbEntity
  8
0
100
AcDbVertex
100
AcDbPolygonMeshVertex
 10
0.944994
 20
-5.847975
 30
0.05
 70
    64
  0
VERTEX
  5
B35
100
AcDbEntity
  8
0
100
AcDbVertex
100
AcDbPolygonMeshVertex
 10
0.944994
 20
-5.847975
 30
0.05
 70
    64
  0
VERTEX
  5
B36
100
AcDbEntity
  8
0
100
AcDbVertex
100
AcDbPolygonMeshVertex
 10
0.944994
 20
-5.772975
 30
3.05
 70
    64
  0
VERTEX
  5
B37
100
AcDbEntity
  8
0
100
AcDbVertex
100
AcDbPolygonMeshVertex
 10
0.944994
 20
-5.772975
 30
0.05
 70
    64
  0
VERTEX
  5
B38
100
AcDbEntity
  8
0
100
AcDbVertex
100
AcDbPolygonMeshVertex
 10
0.944994
 20
-5.847975
 30
0.05
 70
    64
  0
VERTEX
  5
B39
100
AcDbEntity
  8
0
100
AcDbVertex
100
AcDbPolygonMeshVertex
 10
1.034994
 20
-5.772975
 30
3.05
 70
    64
  0
VERTEX
  5
B3A
100
AcDbEntity
  8
0
100
AcDbVertex
100
AcDbPolygonMeshVertex
 10
1.034994
 20
-5.772975
 30
0.05
 70
    64
  0
VERTEX
  5
B3B
100
AcDbEntity
  8
0
100
AcDbVertex
100
AcDbPolygonMeshVertex
 10
1.034994
 20
-5.847975
 30
0.05
 70
    64
  0
VERTEX
  5
B3C
100
AcDbEntity
  8
0
100
AcDbVertex
100
AcDbPolygonMeshVertex
 10
1.034994
 20
-5.772975
 30
3.05
 70
    64
  0
VERTEX
  5
B3D
100
AcDbEntity
  8
0
100
AcDbVertex
100
AcDbPolygonMeshVertex
 10
1.034994
 20
-5.772975
 30
3.05
 70
    64
  0
VERTEX
  5
B3E
100
AcDbEntity
  8
0
100
AcDbVertex
100
AcDbPolygonMeshVertex
 10
1.034994
 20
-5.847975
 30
3.05
 70
    64
  0
VERTEX
  5
B3F
100
AcDbEntity
  8
0
100
AcDbVertex
100
AcDbPolygonMeshVertex
 10
0.944994
 20
-5.772975
 30
3.05
 70
    64
  0
VERTEX
  5
B40
100
AcDbEntity
  8
0
100
AcDbVertex
100
AcDbPolygonMeshVertex
 10
0.944994
 20
-5.772975
 30
3.05
 70
    64
  0
VERTEX
  5
B41
100
AcDbEntity
  8
0
100
AcDbVertex
100
AcDbPolygonMeshVertex
 10
0.944994
 20
-5.847975
 30
3.05
 70
    64
  0
SEQEND
  5
B42
100
AcDbEntity
  8
0
  0
POLYLINE
  5
B43
100
AcDbEntity
  8
0
100
AcDbPolygonMesh
 66
     1
 10
0.0
 20
0.0
 30
0.0
 70
    16
 71
     6
 72
     3
  0
VERTEX
  5
B44
100
AcDbEntity
  8
0
100
AcDbVertex
100
AcDbPolygonMeshVertex
 10
1.134994
 20
-5.847975
 30
3.05
 70
    64
  0
VERTEX
  5
B45
100
AcDbEntity
  8
0
100
AcDbVertex
100
AcDbPolygonMeshVertex
 10
1.134994
 20
-5.847975
 30
0.05
 70
    64
  0
VERTEX
  5
B46
100
AcDbEntity
  8
0
100
AcDbVertex
100
AcDbPolygonMeshVertex
 10
1.134994
 20
-5.847975
 30
0.05
 70
    64
  0
VERTEX
  5
B47
100
AcDbEntity
  8
0
100
AcDbVertex
100
AcDbPolygonMeshVertex
 10
1.034994
 20
-5.847975
 30
3.05
 70
    64
  0
VERTEX
  5
B48
100
AcDbEntity
  8
0
100
AcDbVertex
100
AcDbPolygonMeshVertex
 10
1.034994
 20
-5.847975
 30
0.05
 70
    64
  0
VERTEX
  5
B49
100
AcDbEntity
  8
0
100
AcDbVertex
100
AcDbPolygonMeshVertex
 10
1.034994
 20
-5.847975
 30
0.05
 70
    64
  0
VERTEX
  5
B4A
100
AcDbEntity
  8
0
100
AcDbVertex
100
AcDbPolygonMeshVertex
 10
1.034994
 20
-5.647975
 30
3.05
 70
    64
  0
VERTEX
  5
B4B
100
AcDbEntity
  8
0
100
AcDbVertex
100
AcDbPolygonMeshVertex
 10
1.034994
 20
-5.647975
 30
0.05
 70
    64
  0
VERTEX
  5
B4C
100
AcDbEntity
  8
0
100
AcDbVertex
100
AcDbPolygonMeshVertex
 10
1.034994
 20
-5.847975
 30
0.05
 70
    64
  0
VERTEX
  5
B4D
100
AcDbEntity
  8
0
100
AcDbVertex
100
AcDbPolygonMeshVertex
 10
1.134994
 20
-5.647975
 30
3.05
 70
    64
  0
VERTEX
  5
B4E
100
AcDbEntity
  8
0
100
AcDbVertex
100
AcDbPolygonMeshVertex
 10
1.134994
 20
-5.647975
 30
0.05
 70
    64
  0
VERTEX
  5
B4F
100
AcDbEntity
  8
0
100
AcDbVertex
100
AcDbPolygonMeshVertex
 10
1.134994
 20
-5.847975
 30
0.05
 70
    64
  0
VERTEX
  5
B50
100
AcDbEntity
  8
0
100
AcDbVertex
100
AcDbPolygonMeshVertex
 10
1.134994
 20
-5.647975
 30
3.05
 70
    64
  0
VERTEX
  5
B51
100
AcDbEntity
  8
0
100
AcDbVertex
100
AcDbPolygonMeshVertex
 10
1.134994
 20
-5.647975
 30
3.05
 70
    64
  0
VERTEX
  5
B52
100
AcDbEntity
  8
0
100
AcDbVertex
100
AcDbPolygonMeshVertex
 10
1.134994
 20
-5.847975
 30
3.05
 70
    64
  0
VERTEX
  5
B53
100
AcDbEntity
  8
0
100
AcDbVertex
100
AcDbPolygonMeshVertex
 10
1.034994
 20
-5.647975
 30
3.05
 70
    64
  0
VERTEX
  5
B54
100
AcDbEntity
  8
0
100
AcDbVertex
100
AcDbPolygonMeshVertex
 10
1.034994
 20
-5.647975
 30
3.05
 70
    64
  0
VERTEX
  5
B55
100
AcDbEntity
  8
0
100
AcDbVertex
100
AcDbPolygonMeshVertex
 10
1.034994
 20
-5.847975
 30
3.05
 70
    64
  0
SEQEND
  5
B56
100
AcDbEntity
  8
0
  0
POLYLINE
  5
B57
100
AcDbEntity
  8
0
100
AcDbPolygonMesh
 66
     1
 10
0.0
 20
0.0
 30
0.0
 70
    16
 71
     6
 72
     3
  0
VERTEX
  5
B58
100
AcDbEntity
  8
0
100
AcDbVertex
100
AcDbPolygonMeshVertex
 10
0.944994
 20
-5.847975
 30
3.05
 70
    64
  0
VERTEX
  5
B59
100
AcDbEntity
  8
0
100
AcDbVertex
100
AcDbPolygonMeshVertex
 10
0.944994
 20
-5.847975
 30
0.05
 70
    64
  0
VERTEX
  5
B5A
100
AcDbEntity
  8
0
100
AcDbVertex
100
AcDbPolygonMeshVertex
 10
0.944994
 20
-5.847975
 30
0.05
 70
    64
  0
VERTEX
  5
B5B
100
AcDbEntity
  8
0
100
AcDbVertex
100
AcDbPolygonMeshVertex
 10
0.844994
 20
-5.847975
 30
3.05
 70
    64
  0
VERTEX
  5
B5C
100
AcDbEntity
  8
0
100
AcDbVertex
100
AcDbPolygonMeshVertex
 10
0.844994
 20
-5.847975
 30
0.05
 70
    64
  0
VERTEX
  5
B5D
100
AcDbEntity
  8
0
100
AcDbVertex
100
AcDbPolygonMeshVertex
 10
0.844994
 20
-5.847975
 30
0.05
 70
    64
  0
VERTEX
  5
B5E
100
AcDbEntity
  8
0
100
AcDbVertex
100
AcDbPolygonMeshVertex
 10
0.844994
 20
-5.647975
 30
3.05
 70
    64
  0
VERTEX
  5
B5F
100
AcDbEntity
  8
0
100
AcDbVertex
100
AcDbPolygonMeshVertex
 10
0.844994
 20
-5.647975
 30
0.05
 70
    64
  0
VERTEX
  5
B60
100
AcDbEntity
  8
0
100
AcDbVertex
100
AcDbPolygonMeshVertex
 10
0.844994
 20
-5.847975
 30
0.05
 70
    64
  0
VERTEX
  5
B61
100
AcDbEntity
  8
0
100
AcDbVertex
100
AcDbPolygonMeshVertex
 10
0.944994
 20
-5.647975
 30
3.05
 70
    64
  0
VERTEX
  5
B62
100
AcDbEntity
  8
0
100
AcDbVertex
100
AcDbPolygonMeshVertex
 10
0.944994
 20
-5.647975
 30
0.05
 70
    64
  0
VERTEX
  5
B63
100
AcDbEntity
  8
0
100
AcDbVertex
100
AcDbPolygonMeshVertex
 10
0.944994
 20
-5.847975
 30
0.05
 70
    64
  0
VERTEX
  5
B64
100
AcDbEntity
  8
0
100
AcDbVertex
100
AcDbPolygonMeshVertex
 10
0.944994
 20
-5.647975
 30
3.05
 70
    64
  0
VERTEX
  5
B65
100
AcDbEntity
  8
0
100
AcDbVertex
100
AcDbPolygonMeshVertex
 10
0.944994
 20
-5.647975
 30
3.05
 70
    64
  0
VERTEX
  5
B66
100
AcDbEntity
  8
0
100
AcDbVertex
100
AcDbPolygonMeshVertex
 10
0.944994
 20
-5.847975
 30
3.05
 70
    64
  0
VERTEX
  5
B67
100
AcDbEntity
  8
0
100
AcDbVertex
100
AcDbPolygonMeshVertex
 10
0.844994
 20
-5.647975
 30
3.05
 70
    64
  0
VERTEX
  5
B68
100
AcDbEntity
  8
0
100
AcDbVertex
100
AcDbPolygonMeshVertex
 10
0.844994
 20
-5.647975
 30
3.05
 70
    64
  0
VERTEX
  5
B69
100
AcDbEntity
  8
0
100
AcDbVertex
100
AcDbPolygonMeshVertex
 10
0.844994
 20
-5.847975
 30
3.05
 70
    64
  0
SEQEND
  5
B6A
100
AcDbEntity
  8
0
  0
POLYLINE
  5
B6B
100
AcDbEntity
  8
0
100
AcDbPolygonMesh
 66
     1
 10
0.0
 20
0.0
 30
0.0
 70
    16
 71
     6
 72
     3
  0
VERTEX
  5
B6C
100
AcDbEntity
  8
0
100
AcDbVertex
100
AcDbPolygonMeshVertex
 10
-2.275903
 20
-4.018178
 30
0.425
 70
    64
  0
VERTEX
  5
B6D
100
AcDbEntity
  8
0
100
AcDbVertex
100
AcDbPolygonMeshVertex
 10
-2.275903
 20
-4.018178
 30
0.05
 70
    64
  0
VERTEX
  5
B6E
100
AcDbEntity
  8
0
100
AcDbVertex
100
AcDbPolygonMeshVertex
 10
-2.275903
 20
-4.018178
 30
0.05
 70
    64
  0
VERTEX
  5
B6F
100
AcDbEntity
  8
0
100
AcDbVertex
100
AcDbPolygonMeshVertex
 10
-2.566479
 20
-4.018178
 30
0.425
 70
    64
  0
VERTEX
  5
B70
100
AcDbEntity
  8
0
100
AcDbVertex
100
AcDbPolygonMeshVertex
 10
-2.566479
 20
-4.018178
 30
0.05
 70
    64
  0
VERTEX
  5
B71
100
AcDbEntity
  8
0
100
AcDbVertex
100
AcDbPolygonMeshVertex
 10
-2.566479
 20
-4.018178
 30
0.05
 70
    64
  0
VERTEX
  5
B72
100
AcDbEntity
  8
0
100
AcDbVertex
100
AcDbPolygonMeshVertex
 10
-2.566479
 20
-3.039199
 30
0.425
 70
    64
  0
VERTEX
  5
B73
100
AcDbEntity
  8
0
100
AcDbVertex
100
AcDbPolygonMeshVertex
 10
-2.566479
 20
-3.039199
 30
0.05
 70
    64
  0
VERTEX
  5
B74
100
AcDbEntity
  8
0
100
AcDbVertex
100
AcDbPolygonMeshVertex
 10
-2.566479
 20
-4.018178
 30
0.05
 70
    64
  0
VERTEX
  5
B75
100
AcDbEntity
  8
0
100
AcDbVertex
100
AcDbPolygonMeshVertex
 10
-2.275903
 20
-3.039199
 30
0.425
 70
    64
  0
VERTEX
  5
B76
100
AcDbEntity
  8
0
100
AcDbVertex
100
AcDbPolygonMeshVertex
 10
-2.275903
 20
-3.039199
 30
0.05
 70
    64
  0
VERTEX
  5
B77
100
AcDbEntity
  8
0
100
AcDbVertex
100
AcDbPolygonMeshVertex
 10
-2.275903
 20
-4.018178
 30
0.05
 70
    64
  0
VERTEX
  5
B78
100
AcDbEntity
  8
0
100
AcDbVertex
100
AcDbPolygonMeshVertex
 10
-2.275903
 20
-3.039199
 30
0.425
 70
    64
  0
VERTEX
  5
B79
100
AcDbEntity
  8
0
100
AcDbVertex
100
AcDbPolygonMeshVertex
 10
-2.275903
 20
-3.039199
 30
0.425
 70
    64
  0
VERTEX
  5
B7A
100
AcDbEntity
  8
0
100
AcDbVertex
100
AcDbPolygonMeshVertex
 10
-2.275903
 20
-4.018178
 30
0.425
 70
    64
  0
VERTEX
  5
B7B
100
AcDbEntity
  8
0
100
AcDbVertex
100
AcDbPolygonMeshVertex
 10
-2.566479
 20
-3.039199
 30
0.425
 70
    64
  0
VERTEX
  5
B7C
100
AcDbEntity
  8
0
100
AcDbVertex
100
AcDbPolygonMeshVertex
 10
-2.566479
 20
-3.039199
 30
0.425
 70
    64
  0
VERTEX
  5
B7D
100
AcDbEntity
  8
0
100
AcDbVertex
100
AcDbPolygonMeshVertex
 10
-2.566479
 20
-4.018178
 30
0.425
 70
    64
  0
SEQEND
  5
B7E
100
AcDbEntity
  8
0
  0
POLYLINE
  5
B7F
100
AcDbEntity
  8
0
100
AcDbPolygonMesh
 66
     1
 10
0.0
 20
0.0
 30
0.0
 70
    16
 71
     6
 72
     3
  0
VERTEX
  5
B80
100
AcDbEntity
  8
0
100
AcDbVertex
100
AcDbPolygonMeshVertex
 10
-1.210458
 20
-4.911092
 30
0.425
 70
    64
  0
VERTEX
  5
B81
100
AcDbEntity
  8
0
100
AcDbVertex
100
AcDbPolygonMeshVertex
 10
-1.210458
 20
-4.911092
 30
0.05
 70
    64
  0
VERTEX
  5
B82
100
AcDbEntity
  8
0
100
AcDbVertex
100
AcDbPolygonMeshVertex
 10
-1.210458
 20
-4.911092
 30
0.05
 70
    64
  0
VERTEX
  5
B83
100
AcDbEntity
  8
0
100
AcDbVertex
100
AcDbPolygonMeshVertex
 10
-1.501034
 20
-4.911092
 30
0.425
 70
    64
  0
VERTEX
  5
B84
100
AcDbEntity
  8
0
100
AcDbVertex
100
AcDbPolygonMeshVertex
 10
-1.501034
 20
-4.911092
 30
0.05
 70
    64
  0
VERTEX
  5
B85
100
AcDbEntity
  8
0
100
AcDbVertex
100
AcDbPolygonMeshVertex
 10
-1.501034
 20
-4.911092
 30
0.05
 70
    64
  0
VERTEX
  5
B86
100
AcDbEntity
  8
0
100
AcDbVertex
100
AcDbPolygonMeshVertex
 10
-1.501034
 20
-3.523309
 30
0.425
 70
    64
  0
VERTEX
  5
B87
100
AcDbEntity
  8
0
100
AcDbVertex
100
AcDbPolygonMeshVertex
 10
-1.501034
 20
-3.523309
 30
0.05
 70
    64
  0
VERTEX
  5
B88
100
AcDbEntity
  8
0
100
AcDbVertex
100
AcDbPolygonMeshVertex
 10
-1.501034
 20
-4.911092
 30
0.05
 70
    64
  0
VERTEX
  5
B89
100
AcDbEntity
  8
0
100
AcDbVertex
100
AcDbPolygonMeshVertex
 10
-1.210458
 20
-3.523309
 30
0.425
 70
    64
  0
VERTEX
  5
B8A
100
AcDbEntity
  8
0
100
AcDbVertex
100
AcDbPolygonMeshVertex
 10
-1.210458
 20
-3.523309
 30
0.05
 70
    64
  0
VERTEX
  5
B8B
100
AcDbEntity
  8
0
100
AcDbVertex
100
AcDbPolygonMeshVertex
 10
-1.210458
 20
-4.911092
 30
0.05
 70
    64
  0
VERTEX
  5
B8C
100
AcDbEntity
  8
0
100
AcDbVertex
100
AcDbPolygonMeshVertex
 10
-1.210458
 20
-3.523309
 30
0.425
 70
    64
  0
VERTEX
  5
B8D
100
AcDbEntity
  8
0
100
AcDbVertex
100
AcDbPolygonMeshVertex
 10
-1.210458
 20
-3.523309
 30
0.425
 70
    64
  0
VERTEX
  5
B8E
100
AcDbEntity
  8
0
100
AcDbVertex
100
AcDbPolygonMeshVertex
 10
-1.210458
 20
-4.911092
 30
0.425
 70
    64
  0
VERTEX
  5
B8F
100
AcDbEntity
  8
0
100
AcDbVertex
100
AcDbPolygonMeshVertex
 10
-1.501034
 20
-3.523309
 30
0.425
 70
    64
  0
VERTEX
  5
B90
100
AcDbEntity
  8
0
100
AcDbVertex
100
AcDbPolygonMeshVertex
 10
-1.501034
 20
-3.523309
 30
0.425
 70
    64
  0
VERTEX
  5
B91
100
AcDbEntity
  8
0
100
AcDbVertex
100
AcDbPolygonMeshVertex
 10
-1.501034
 20
-4.911092
 30
0.425
 70
    64
  0
SEQEND
  5
B92
100
AcDbEntity
  8
0
  0
LINE
  5
B93
100
AcDbEntity
  8
0
100
AcDbLine
 10
-2.57
 20
-5.88
 30
0.04
 11
-2.57
 21
-5.87971
 31
0.000295
  0
POINT
  5
B94
100
AcDbEntity
  8
SNAP_POINTS
100
AcDbPoint
 10
-2.15752
 20
-5.772975
 30
0.05
  0
LINE
  5
B95
100
AcDbEntity
  8
0
100
AcDbLine
 10
-2.57
 20
-0.45
 30
0.04
 11
-2.57
 21
-0.45
 31
0.0
  0
POLYLINE
  5
B96
100
AcDbEntity
  8
0
100
AcDbPolygonMesh
 66
     1
 10
0.0
 20
0.0
 30
0.0
 70
    16
 71
     6
 72
     3
  0
VERTEX
  5
B97
100
AcDbEntity
  8
0
100
AcDbVertex
100
AcDbPolygonMeshVertex
 10
-0.452453
 20
-4.018178
 30
0.425
 70
    64
  0
VERTEX
  5
B98
100
AcDbEntity
  8
0
100
AcDbVertex
100
AcDbPolygonMeshVertex
 10
-0.452453
 20
-4.018178
 30
0.05
 70
    64
  0
VERTEX
  5
B99
100
AcDbEntity
  8
0
100
AcDbVertex
100
AcDbPolygonMeshVertex
 10
-0.452453
 20
-4.018178
 30
0.05
 70
    64
  0
VERTEX
  5
B9A
100
AcDbEntity
  8
0
100
AcDbVertex
100
AcDbPolygonMeshVertex
 10
-0.743029
 20
-4.018178
 30
0.425
 70
    64
  0
VERTEX
  5
B9B
100
AcDbEntity
  8
0
100
AcDbVertex
100
AcDbPolygonMeshVertex
 10
-0.743029
 20
-4.018178
 30
0.05
 70
    64
  0
VERTEX
  5
B9C
100
AcDbEntity
  8
0
100
AcDbVertex
100
AcDbPolygonMeshVertex
 10
-0.743029
 20
-4.018178
 30
0.05
 70
    64
  0
VERTEX
  5
B9D
100
AcDbEntity
  8
0
100
AcDbVertex
100
AcDbPolygonMeshVertex
 10
-0.743029
 20
-3.039199
 30
0.425
 70
    64
  0
VERTEX
  5
B9E
100
AcDbEntity
  8
0
100
AcDbVertex
100
AcDbPolygonMeshVertex
 10
-0.743029
 20
-3.039199
 30
0.05
 70
    64
  0
VERTEX
  5
B9F
100
AcDbEntity
  8
0
100
AcDbVertex
100
AcDbPolygonMeshVertex
 10
-0.743029
 20
-4.018178
 30
0.05
 70
    64
  0
VERTEX
  5
BA0
100
AcDbEntity
  8
0
100
AcDbVertex
100
AcDbPolygonMeshVertex
 10
-0.452453
 20
-3.039199
 30
0.425
 70
    64
  0
VERTEX
  5
BA1
100
AcDbEntity
  8
0
100
AcDbVertex
100
AcDbPolygonMeshVertex
 10
-0.452453
 20
-3.039199
 30
0.05
 70
    64
  0
VERTEX
  5
BA2
100
AcDbEntity
  8
0
100
AcDbVertex
100
AcDbPolygonMeshVertex
 10
-0.452453
 20
-4.018178
 30
0.05
 70
    64
  0
VERTEX
  5
BA3
100
AcDbEntity
  8
0
100
AcDbVertex
100
AcDbPolygonMeshVertex
 10
-0.452453
 20
-3.039199
 30
0.425
 70
    64
  0
VERTEX
  5
BA4
100
AcDbEntity
  8
0
100
AcDbVertex
100
AcDbPolygonMeshVertex
 10
-0.452453
 20
-3.039199
 30
0.425
 70
    64
  0
VERTEX
  5
BA5
100
AcDbEntity
  8
0
100
AcDbVertex
100
AcDbPolygonMeshVertex
 10
-0.452453
 20
-4.018178
 30
0.425
 70
    64
  0
VERTEX
  5
BA6
100
AcDbEntity
  8
0
100
AcDbVertex
100
AcDbPolygonMeshVertex
 10
-0.743029
 20
-3.039199
 30
0.425
 70
    64
  0
VERTEX
  5
BA7
100
AcDbEntity
  8
0
100
AcDbVertex
100
AcDbPolygonMeshVertex
 10
-0.743029
 20
-3.039199
 30
0.425
 70
    64
  0
VERTEX
  5
BA8
100
AcDbEntity
  8
0
100
AcDbVertex
100
AcDbPolygonMeshVertex
 10
-0.743029
 20
-4.018178
 30
0.425
 70
    64
  0
SEQEND
  5
BA9
100
AcDbEntity
  8
0
  0
POLYLINE
  5
BAA
100
AcDbEntity
  8
0
100
AcDbPolygonMesh
 66
     1
 10
0.0
 20
0.0
 30
0.0
 70
    16
 71
     6
 72
     3
  0
VERTEX
  5
BAB
100
AcDbEntity
  8
0
100
AcDbVertex
100
AcDbPolygonMeshVertex
 10
0.957378
 20
-4.018178
 30
0.425
 70
    64
  0
VERTEX
  5
BAC
100
AcDbEntity
  8
0
100
AcDbVertex
100
AcDbPolygonMeshVertex
 10
0.957378
 20
-4.018178
 30
0.05
 70
    64
  0
VERTEX
  5
BAD
100
AcDbEntity
  8
0
100
AcDbVertex
100
AcDbPolygonMeshVertex
 10
0.957378
 20
-4.018178
 30
0.05
 70
    64
  0
VERTEX
  5
BAE
100
AcDbEntity
  8
0
100
AcDbVertex
100
AcDbPolygonMeshVertex
 10
0.666802
 20
-4.018178
 30
0.425
 70
    64
  0
VERTEX
  5
BAF
100
AcDbEntity
  8
0
100
AcDbVertex
100
AcDbPolygonMeshVertex
 10
0.666802
 20
-4.018178
 30
0.05
 70
    64
  0
VERTEX
  5
BB0
100
AcDbEntity
  8
0
100
AcDbVertex
100
AcDbPolygonMeshVertex
 10
0.666802
 20
-4.018178
 30
0.05
 70
    64
  0
VERTEX
  5
BB1
100
AcDbEntity
  8
0
100
AcDbVertex
100
AcDbPolygonMeshVertex
 10
0.666802
 20
-3.039199
 30
0.425
 70
    64
  0
VERTEX
  5
BB2
100
AcDbEntity
  8
0
100
AcDbVertex
100
AcDbPolygonMeshVertex
 10
0.666802
 20
-3.039199
 30
0.05
 70
    64
  0
VERTEX
  5
BB3
100
AcDbEntity
  8
0
100
AcDbVertex
100
AcDbPolygonMeshVertex
 10
0.666802
 20
-4.018178
 30
0.05
 70
    64
  0
VERTEX
  5
BB4
100
AcDbEntity
  8
0
100
AcDbVertex
100
AcDbPolygonMeshVertex
 10
0.957378
 20
-3.039199
 30
0.425
 70
    64
  0
VERTEX
  5
BB5
100
AcDbEntity
  8
0
100
AcDbVertex
100
AcDbPolygonMeshVertex
 10
0.957378
 20
-3.039199
 30
0.05
 70
    64
  0
VERTEX
  5
BB6
100
AcDbEntity
  8
0
100
AcDbVertex
100
AcDbPolygonMeshVertex
 10
0.957378
 20
-4.018178
 30
0.05
 70
    64
  0
VERTEX
  5
BB7
100
AcDbEntity
  8
0
100
AcDbVertex
100
AcDbPolygonMeshVertex
 10
0.957378
 20
-3.039199
 30
0.425
 70
    64
  0
VERTEX
  5
BB8
100
AcDbEntity
  8
0
100
AcDbVertex
100
AcDbPolygonMeshVertex
 10
0.957378
 20
-3.039199
 30
0.425
 70
    64
  0
VERTEX
  5
BB9
100
AcDbEntity
  8
0
100
AcDbVertex
100
AcDbPolygonMeshVertex
 10
0.957378
 20
-4.018178
 30
0.425
 70
    64
  0
VERTEX
  5
BBA
100
AcDbEntity
  8
0
100
AcDbVertex
100
AcDbPolygonMeshVertex
 10
0.666802
 20
-3.039199
 30
0.425
 70
    64
  0
VERTEX
  5
BBB
100
AcDbEntity
  8
0
100
AcDbVertex
100
AcDbPolygonMeshVertex
 10
0.666802
 20
-3.039199
 30
0.425
 70
    64
  0
VERTEX
  5
BBC
100
AcDbEntity
  8
0
100
AcDbVertex
100
AcDbPolygonMeshVertex
 10
0.666802
 20
-4.018178
 30
0.425
 70
    64
  0
SEQEND
  5
BBD
100
AcDbEntity
  8
0
  0
POLYLINE
  5
BBE
100
AcDbEntity
  8
0
100
AcDbPolygonMesh
 66
     1
 10
0.0
 20
0.0
 30
0.0
 70
    16
 71
     6
 72
     3
  0
VERTEX
  5
BBF
100
AcDbEntity
  8
0
100
AcDbVertex
100
AcDbPolygonMeshVertex
 10
0.217
 20
-6.47
 30
0.04
 70
    64
  0
VERTEX
  5
BC0
100
AcDbEntity
  8
0
100
AcDbVertex
100
AcDbPolygonMeshVertex
 10
0.217
 20
-6.47
 30
0.0
 70
    64
  0
VERTEX
  5
BC1
100
AcDbEntity
  8
0
100
AcDbVertex
100
AcDbPolygonMeshVertex
 10
0.217
 20
-6.47
 30
0.0
 70
    64
  0
VERTEX
  5
BC2
100
AcDbEntity
  8
0
100
AcDbVertex
100
AcDbPolygonMeshVertex
 10
-0.217
 20
-6.47
 30
0.04
 70
    64
  0
VERTEX
  5
BC3
100
AcDbEntity
  8
0
100
AcDbVertex
100
AcDbPolygonMeshVertex
 10
-0.217
 20
-6.47
 30
0.0
 70
    64
  0
VERTEX
  5
BC4
100
AcDbEntity
  8
0
100
AcDbVertex
100
AcDbPolygonMeshVertex
 10
-0.217
 20
-6.47
 30
0.0
 70
    64
  0
VERTEX
  5
BC5
100
AcDbEntity
  8
0
100
AcDbVertex
100
AcDbPolygonMeshVertex
 10
-0.217
 20
-5.92
 30
0.04
 70
    64
  0
VERTEX
  5
BC6
100
AcDbEntity
  8
0
100
AcDbVertex
100
AcDbPolygonMeshVertex
 10
-0.217
 20
-5.92
 30
0.0
 70
    64
  0
VERTEX
  5
BC7
100
AcDbEntity
  8
0
100
AcDbVertex
100
AcDbPolygonMeshVertex
 10
-0.217
 20
-6.47
 30
0.0
 70
    64
  0
VERTEX
  5
BC8
100
AcDbEntity
  8
0
100
AcDbVertex
100
AcDbPolygonMeshVertex
 10
0.217
 20
-5.92
 30
0.04
 70
    64
  0
VERTEX
  5
BC9
100
AcDbEntity
  8
0
100
AcDbVertex
100
AcDbPolygonMeshVertex
 10
0.217
 20
-5.92
 30
0.0
 70
    64
  0
VERTEX
  5
BCA
100
AcDbEntity
  8
0
100
AcDbVertex
100
AcDbPolygonMeshVertex
 10
0.217
 20
-6.47
 30
0.0
 70
    64
  0
VERTEX
  5
BCB
100
AcDbEntity
  8
0
100
AcDbVertex
100
AcDbPolygonMeshVertex
 10
0.217
 20
-5.92
 30
0.04
 70
    64
  0
VERTEX
  5
BCC
100
AcDbEntity
  8
0
100
AcDbVertex
100
AcDbPolygonMeshVertex
 10
0.217
 20
-5.92
 30
0.04
 70
    64
  0
VERTEX
  5
BCD
100
AcDbEntity
  8
0
100
AcDbVertex
100
AcDbPolygonMeshVertex
 10
0.217
 20
-6.47
 30
0.04
 70
    64
  0
VERTEX
  5
BCE
100
AcDbEntity
  8
0
100
AcDbVertex
100
AcDbPolygonMeshVertex
 10
-0.217
 20
-5.92
 30
0.04
 70
    64
  0
VERTEX
  5
BCF
100
AcDbEntity
  8
0
100
AcDbVertex
100
AcDbPolygonMeshVertex
 10
-0.217
 20
-5.92
 30
0.04
 70
    64
  0
VERTEX
  5
BD0
100
AcDbEntity
  8
0
100
AcDbVertex
100
AcDbPolygonMeshVertex
 10
-0.217
 20
-6.47
 30
0.04
 70
    64
  0
SEQEND
  5
BD1
100
AcDbEntity
  8
0
  0
CIRCLE
  5
BD2
100
AcDbEntity
  8
0
100
AcDbCircle
 39
0.04
 10
0.0
 20
-6.22
 30
0.0
 40
0.1085
  0
POLYLINE
  5
BD3
100
AcDbEntity
  8
0
100
AcDbPolygonMesh
 66
     1
 10
0.0
 20
0.0
 30
0.0
 70
    16
 71
     6
 72
     3
  0
VERTEX
  5
BD4
100
AcDbEntity
  8
0
100
AcDbVertex
100
AcDbPolygonMeshVertex
 10
-0.452453
 20
-4.738964
 30
0.425
 70
    64
  0
VERTEX
  5
BD5
100
AcDbEntity
  8
0
100
AcDbVertex
100
AcDbPolygonMeshVertex
 10
-0.452453
 20
-4.738964
 30
0.05
 70
    64
  0
VERTEX
  5
BD6
100
AcDbEntity
  8
0
100
AcDbVertex
100
AcDbPolygonMeshVertex
 10
-0.452453
 20
-4.738964
 30
0.05
 70
    64
  0
VERTEX
  5
BD7
100
AcDbEntity
  8
0
100
AcDbVertex
100
AcDbPolygonMeshVertex
 10
-0.743029
 20
-4.738964
 30
0.425
 70
    64
  0
VERTEX
  5
BD8
100
AcDbEntity
  8
0
100
AcDbVertex
100
AcDbPolygonMeshVertex
 10
-0.743029
 20
-4.738964
 30
0.05
 70
    64
  0
VERTEX
  5
BD9
100
AcDbEntity
  8
0
100
AcDbVertex
100
AcDbPolygonMeshVertex
 10
-0.743029
 20
-4.738964
 30
0.05
 70
    64
  0
VERTEX
  5
BDA
100
AcDbEntity
  8
0
100
AcDbVertex
100
AcDbPolygonMeshVertex
 10
-0.743029
 20
-4.06121
 30
0.425
 70
    64
  0
VERTEX
  5
BDB
100
AcDbEntity
  8
0
100
AcDbVertex
100
AcDbPolygonMeshVertex
 10
-0.743029
 20
-4.06121
 30
0.05
 70
    64
  0
VERTEX
  5
BDC
100
AcDbEntity
  8
0
100
AcDbVertex
100
AcDbPolygonMeshVertex
 10
-0.743029
 20
-4.738964
 30
0.05
 70
    64
  0
VERTEX
  5
BDD
100
AcDbEntity
  8
0
100
AcDbVertex
100
AcDbPolygonMeshVertex
 10
-0.452453
 20
-4.06121
 30
0.425
 70
    64
  0
VERTEX
  5
BDE
100
AcDbEntity
  8
0
100
AcDbVertex
100
AcDbPolygonMeshVertex
 10
-0.452453
 20
-4.06121
 30
0.05
 70
    64
  0
VERTEX
  5
BDF
100
AcDbEntity
  8
0
100
AcDbVertex
100
AcDbPolygonMeshVertex
 10
-0.452453
 20
-4.738964
 30
0.05
 70
    64
  0
VERTEX
  5
BE0
100
AcDbEntity
  8
0
100
AcDbVertex
100
AcDbPolygonMeshVertex
 10
-0.452453
 20
-4.06121
 30
0.425
 70
    64
  0
VERTEX
  5
BE1
100
AcDbEntity
  8
0
100
AcDbVertex
100
AcDbPolygonMeshVertex
 10
-0.452453
 20
-4.06121
 30
0.425
 70
    64
  0
VERTEX
  5
BE2
100
AcDbEntity
  8
0
100
AcDbVertex
100
AcDbPolygonMeshVertex
 10
-0.452453
 20
-4.738964
 30
0.425
 70
    64
  0
VERTEX
  5
BE3
100
AcDbEntity
  8
0
100
AcDbVertex
100
AcDbPolygonMeshVertex
 10
-0.743029
 20
-4.06121
 30
0.425
 70
    64
  0
VERTEX
  5
BE4
100
AcDbEntity
  8
0
100
AcDbVertex
100
AcDbPolygonMeshVertex
 10
-0.743029
 20
-4.06121
 30
0.425
 70
    64
  0
VERTEX
  5
BE5
100
AcDbEntity
  8
0
100
AcDbVertex
100
AcDbPolygonMeshVertex
 10
-0.743029
 20
-4.738964
 30
0.425
 70
    64
  0
SEQEND
  5
BE6
100
AcDbEntity
  8
0
  0
POINT
  5
BE7
100
AcDbEntity
  8
SNAP_POINTS
100
AcDbPoint
 10
-0.385006
 20
-5.772975
 30
0.05
  0
POINT
  5
BE8
100
AcDbEntity
  8
SNAP_POINTS
100
AcDbPoint
 10
0.989994
 20
-5.772975
 30
0.05
  0
ARC
  5
BE9
100
AcDbEntity
  8
0
100
AcDbCircle
 39
0.04
 10
0.0
 20
-0.193538
 30
0.0
 40
0.2165
100
AcDbArc
 50
120.024142
 51
59.975858
  0
ARC
  5
BEA
100
AcDbEntity
  8
0
100
AcDbCircle
 39
0.04
 10
0.0
 20
0.0
 30
0.0
 40
0.1085
100
AcDbArc
 50
356.782733
 51
183.217267
  0
LINE
  5
BEB
100
AcDbEntity
  8
0
100
AcDbLine
 10
-0.217
 20
0.26
 30
0.04
 11
-0.317
 21
0.26
 31
0.04
  0
LINE
  5
BEC
100
AcDbEntity
  8
0
100
AcDbLine
 10
-0.217
 20
0.26
 30
0.0
 11
-0.317
 21
0.26
 31
0.0
  0
LINE
  5
BED
100
AcDbEntity
  8
0
100
AcDbLine
 10
0.317
 20
0.26
 30
0.0
 11
0.217
 21
0.26
 31
0.0
  0
POLYLINE
  5
BEE
100
AcDbEntity
  8
0
100
AcDbPolygonMesh
 66
     1
 10
0.0
 20
0.0
 30
0.0
 70
    16
 71
     6
 72
     3
  0
VERTEX
  5
BEF
100
AcDbEntity
  8
0
100
AcDbVertex
100
AcDbPolygonMeshVertex
 10
2.443
 20
-0.41
 30
0.04
 70
    64
  0
VERTEX
  5
BF0
100
AcDbEntity
  8
0
100
AcDbVertex
100
AcDbPolygonMeshVertex
 10
2.443
 20
-0.41
 30
0.0
 70
    64
  0
VERTEX
  5
BF1
100
AcDbEntity
  8
0
100
AcDbVertex
100
AcDbPolygonMeshVertex
 10
2.443
 20
-0.41
 30
0.0
 70
    64
  0
VERTEX
  5
BF2
100
AcDbEntity
  8
0
100
AcDbVertex
100
AcDbPolygonMeshVertex
 10
2.443
 20
0.26
 30
0.04
 70
    64
  0
VERTEX
  5
BF3
100
AcDbEntity
  8
0
100
AcDbVertex
100
AcDbPolygonMeshVertex
 10
2.443
 20
0.26
 30
0.0
 70
    64
  0
VERTEX
  5
BF4
100
AcDbEntity
  8
0
100
AcDbVertex
100
AcDbPolygonMeshVertex
 10
2.443
 20
0.26
 30
0.0
 70
    64
  0
VERTEX
  5
BF5
100
AcDbEntity
  8
0
100
AcDbVertex
100
AcDbPolygonMeshVertex
 10
3.077
 20
0.26
 30
0.04
 70
    64
  0
VERTEX
  5
BF6
100
AcDbEntity
  8
0
100
AcDbVertex
100
AcDbPolygonMeshVertex
 10
3.077
 20
0.26
 30
0.0
 70
    64
  0
VERTEX
  5
BF7
100
AcDbEntity
  8
0
100
AcDbVertex
100
AcDbPolygonMeshVertex
 10
2.443
 20
0.26
 30
0.0
 70
    64
  0
VERTEX
  5
BF8
100
AcDbEntity
  8
0
100
AcDbVertex
100
AcDbPolygonMeshVertex
 10
3.077
 20
-0.41
 30
0.04
 70
    64
  0
VERTEX
  5
BF9
100
AcDbEntity
  8
0
100
AcDbVertex
100
AcDbPolygonMeshVertex
 10
3.077
 20
-0.41
 30
0.0
 70
    64
  0
VERTEX
  5
BFA
100
AcDbEntity
  8
0
100
AcDbVertex
100
AcDbPolygonMeshVertex
 10
2.443
 20
-0.41
 30
0.0
 70
    64
  0
VERTEX
  5
BFB
100
AcDbEntity
  8
0
100
AcDbVertex
100
AcDbPolygonMeshVertex
 10
3.077
 20
-0.41
 30
0.04
 70
    64
  0
VERTEX
  5
BFC
100
AcDbEntity
  8
0
100
AcDbVertex
100
AcDbPolygonMeshVertex
 10
3.077
 20
-0.41
 30
0.04
 70
    64
  0
VERTEX
  5
BFD
100
AcDbEntity
  8
0
100
AcDbVertex
100
AcDbPolygonMeshVertex
 10
2.443
 20
-0.41
 30
0.04
 70
    64
  0
VERTEX
  5
BFE
100
AcDbEntity
  8
0
100
AcDbVertex
100
AcDbPolygonMeshVertex
 10
3.077
 20
0.26
 30
0.04
 70
    64
  0
VERTEX
  5
BFF
100
AcDbEntity
  8
0
100
AcDbVertex
100
AcDbPolygonMeshVertex
 10
3.077
 20
0.26
 30
0.04
 70
    64
  0
VERTEX
  5
C00
100
AcDbEntity
  8
0
100
AcDbVertex
100
AcDbPolygonMeshVertex
 10
2.443
 20
0.26
 30
0.04
 70
    64
  0
SEQEND
  5
C01
100
AcDbEntity
  8
0
  0
POLYLINE
  5
C02
100
AcDbEntity
  8
0
100
AcDbPolygonMesh
 66
     1
 10
0.0
 20
0.0
 30
0.0
 70
    16
 71
     6
 72
     3
  0
VERTEX
  5
C03
100
AcDbEntity
  8
0
100
AcDbVertex
100
AcDbPolygonMeshVertex
 10
2.319994
 20
-0.482025
 30
3.05
 70
    64
  0
VERTEX
  5
C04
100
AcDbEntity
  8
0
100
AcDbVertex
100
AcDbPolygonMeshVertex
 10
2.319994
 20
-0.482025
 30
0.05
 70
    64
  0
VERTEX
  5
C05
100
AcDbEntity
  8
0
100
AcDbVertex
100
AcDbPolygonMeshVertex
 10
2.319994
 20
-0.482025
 30
0.05
 70
    64
  0
VERTEX
  5
C06
100
AcDbEntity
  8
0
100
AcDbVertex
100
AcDbPolygonMeshVertex
 10
2.219994
 20
-0.482025
 30
3.05
 70
    64
  0
VERTEX
  5
C07
100
AcDbEntity
  8
0
100
AcDbVertex
100
AcDbPolygonMeshVertex
 10
2.219994
 20
-0.482025
 30
0.05
 70
    64
  0
VERTEX
  5
C08
100
AcDbEntity
  8
0
100
AcDbVertex
100
AcDbPolygonMeshVertex
 10
2.219994
 20
-0.482025
 30
0.05
 70
    64
  0
VERTEX
  5
C09
100
AcDbEntity
  8
0
100
AcDbVertex
100
AcDbPolygonMeshVertex
 10
2.219994
 20
-0.682025
 30
3.05
 70
    64
  0
VERTEX
  5
C0A
100
AcDbEntity
  8
0
100
AcDbVertex
100
AcDbPolygonMeshVertex
 10
2.219994
 20
-0.682025
 30
0.05
 70
    64
  0
VERTEX
  5
C0B
100
AcDbEntity
  8
0
100
AcDbVertex
100
AcDbPolygonMeshVertex
 10
2.219994
 20
-0.482025
 30
0.05
 70
    64
  0
VERTEX
  5
C0C
100
AcDbEntity
  8
0
100
AcDbVertex
100
AcDbPolygonMeshVertex
 10
2.319994
 20
-0.682025
 30
3.05
 70
    64
  0
VERTEX
  5
C0D
100
AcDbEntity
  8
0
100
AcDbVertex
100
AcDbPolygonMeshVertex
 10
2.319994
 20
-0.682025
 30
0.05
 70
    64
  0
VERTEX
  5
C0E
100
AcDbEntity
  8
0
100
AcDbVertex
100
AcDbPolygonMeshVertex
 10
2.319994
 20
-0.482025
 30
0.05
 70
    64
  0
VERTEX
  5
C0F
100
AcDbEntity
  8
0
100
AcDbVertex
100
AcDbPolygonMeshVertex
 10
2.319994
 20
-0.682025
 30
3.05
 70
    64
  0
VERTEX
  5
C10
100
AcDbEntity
  8
0
100
AcDbVertex
100
AcDbPolygonMeshVertex
 10
2.319994
 20
-0.682025
 30
3.05
 70
    64
  0
VERTEX
  5
C11
100
AcDbEntity
  8
0
100
AcDbVertex
100
AcDbPolygonMeshVertex
 10
2.319994
 20
-0.482025
 30
3.05
 70
    64
  0
VERTEX
  5
C12
100
AcDbEntity
  8
0
100
AcDbVertex
100
AcDbPolygonMeshVertex
 10
2.219994
 20
-0.682025
 30
3.05
 70
    64
  0
VERTEX
  5
C13
100
AcDbEntity
  8
0
100
AcDbVertex
100
AcDbPolygonMeshVertex
 10
2.219994
 20
-0.682025
 30
3.05
 70
    64
  0
VERTEX
  5
C14
100
AcDbEntity
  8
0
100
AcDbVertex
100
AcDbPolygonMeshVertex
 10
2.219994
 20
-0.482025
 30
3.05
 70
    64
  0
SEQEND
  5
C15
100
AcDbEntity
  8
0
  0
POLYLINE
  5
C16
100
AcDbEntity
  8
0
100
AcDbPolygonMesh
 66
     1
 10
0.0
 20
0.0
 30
0.0
 70
    16
 71
     6
 72
     3
  0
VERTEX
  5
C17
100
AcDbEntity
  8
0
100
AcDbVertex
100
AcDbPolygonMeshVertex
 10
2.509994
 20
-0.482025
 30
3.05
 70
    64
  0
VERTEX
  5
C18
100
AcDbEntity
  8
0
100
AcDbVertex
100
AcDbPolygonMeshVertex
 10
2.509994
 20
-0.482025
 30
0.05
 70
    64
  0
VERTEX
  5
C19
100
AcDbEntity
  8
0
100
AcDbVertex
100
AcDbPolygonMeshVertex
 10
2.509994
 20
-0.482025
 30
0.05
 70
    64
  0
VERTEX
  5
C1A
100
AcDbEntity
  8
0
100
AcDbVertex
100
AcDbPolygonMeshVertex
 10
2.409994
 20
-0.482025
 30
3.05
 70
    64
  0
VERTEX
  5
C1B
100
AcDbEntity
  8
0
100
AcDbVertex
100
AcDbPolygonMeshVertex
 10
2.409994
 20
-0.482025
 30
0.05
 70
    64
  0
VERTEX
  5
C1C
100
AcDbEntity
  8
0
100
AcDbVertex
100
AcDbPolygonMeshVertex
 10
2.409994
 20
-0.482025
 30
0.05
 70
    64
  0
VERTEX
  5
C1D
100
AcDbEntity
  8
0
100
AcDbVertex
100
AcDbPolygonMeshVertex
 10
2.409994
 20
-0.682025
 30
3.05
 70
    64
  0
VERTEX
  5
C1E
100
AcDbEntity
  8
0
100
AcDbVertex
100
AcDbPolygonMeshVertex
 10
2.409994
 20
-0.682025
 30
0.05
 70
    64
  0
VERTEX
  5
C1F
100
AcDbEntity
  8
0
100
AcDbVertex
100
AcDbPolygonMeshVertex
 10
2.409994
 20
-0.482025
 30
0.05
 70
    64
  0
VERTEX
  5
C20
100
AcDbEntity
  8
0
100
AcDbVertex
100
AcDbPolygonMeshVertex
 10
2.509994
 20
-0.682025
 30
3.05
 70
    64
  0
VERTEX
  5
C21
100
AcDbEntity
  8
0
100
AcDbVertex
100
AcDbPolygonMeshVertex
 10
2.509994
 20
-0.682025
 30
0.05
 70
    64
  0
VERTEX
  5
C22
100
AcDbEntity
  8
0
100
AcDbVertex
100
AcDbPolygonMeshVertex
 10
2.509994
 20
-0.482025
 30
0.05
 70
    64
  0
VERTEX
  5
C23
100
AcDbEntity
  8
0
100
AcDbVertex
100
AcDbPolygonMeshVertex
 10
2.509994
 20
-0.682025
 30
3.05
 70
    64
  0
VERTEX
  5
C24
100
AcDbEntity
  8
0
100
AcDbVertex
100
AcDbPolygonMeshVertex
 10
2.509994
 20
-0.682025
 30
3.05
 70
    64
  0
VERTEX
  5
C25
100
AcDbEntity
  8
0
100
AcDbVertex
100
AcDbPolygonMeshVertex
 10
2.509994
 20
-0.482025
 30
3.05
 70
    64
  0
VERTEX
  5
C26
100
AcDbEntity
  8
0
100
AcDbVertex
100
AcDbPolygonMeshVertex
 10
2.409994
 20
-0.682025
 30
3.05
 70
    64
  0
VERTEX
  5
C27
100
AcDbEntity
  8
0
100
AcDbVertex
100
AcDbPolygonMeshVertex
 10
2.409994
 20
-0.682025
 30
3.05
 70
    64
  0
VERTEX
  5
C28
100
AcDbEntity
  8
0
100
AcDbVertex
100
AcDbPolygonMeshVertex
 10
2.409994
 20
-0.482025
 30
3.05
 70
    64
  0
SEQEND
  5
C29
100
AcDbEntity
  8
0
  0
POLYLINE
  5
C2A
100
AcDbEntity
  8
0
100
AcDbPolygonMesh
 66
     1
 10
0.0
 20
0.0
 30
0.0
 70
    16
 71
     6
 72
     3
  0
VERTEX
  5
C2B
100
AcDbEntity
  8
0
100
AcDbVertex
100
AcDbPolygonMeshVertex
 10
2.409994
 20
-0.482025
 30
3.05
 70
    64
  0
VERTEX
  5
C2C
100
AcDbEntity
  8
0
100
AcDbVertex
100
AcDbPolygonMeshVertex
 10
2.409994
 20
-0.482025
 30
0.05
 70
    64
  0
VERTEX
  5
C2D
100
AcDbEntity
  8
0
100
AcDbVertex
100
AcDbPolygonMeshVertex
 10
2.409994
 20
-0.482025
 30
0.05
 70
    64
  0
VERTEX
  5
C2E
100
AcDbEntity
  8
0
100
AcDbVertex
100
AcDbPolygonMeshVertex
 10
2.319994
 20
-0.482025
 30
3.05
 70
    64
  0
VERTEX
  5
C2F
100
AcDbEntity
  8
0
100
AcDbVertex
100
AcDbPolygonMeshVertex
 10
2.319994
 20
-0.482025
 30
0.05
 70
    64
  0
VERTEX
  5
C30
100
AcDbEntity
  8
0
100
AcDbVertex
100
AcDbPolygonMeshVertex
 10
2.319994
 20
-0.482025
 30
0.05
 70
    64
  0
VERTEX
  5
C31
100
AcDbEntity
  8
0
100
AcDbVertex
100
AcDbPolygonMeshVertex
 10
2.319994
 20
-0.557025
 30
3.05
 70
    64
  0
VERTEX
  5
C32
100
AcDbEntity
  8
0
100
AcDbVertex
100
AcDbPolygonMeshVertex
 10
2.319994
 20
-0.557025
 30
0.05
 70
    64
  0
VERTEX
  5
C33
100
AcDbEntity
  8
0
100
AcDbVertex
100
AcDbPolygonMeshVertex
 10
2.319994
 20
-0.482025
 30
0.05
 70
    64
  0
VERTEX
  5
C34
100
AcDbEntity
  8
0
100
AcDbVertex
100
AcDbPolygonMeshVertex
 10
2.409994
 20
-0.557025
 30
3.05
 70
    64
  0
VERTEX
  5
C35
100
AcDbEntity
  8
0
100
AcDbVertex
100
AcDbPolygonMeshVertex
 10
2.409994
 20
-0.557025
 30
0.05
 70
    64
  0
VERTEX
  5
C36
100
AcDbEntity
  8
0
100
AcDbVertex
100
AcDbPolygonMeshVertex
 10
2.409994
 20
-0.482025
 30
0.05
 70
    64
  0
VERTEX
  5
C37
100
AcDbEntity
  8
0
100
AcDbVertex
100
AcDbPolygonMeshVertex
 10
2.409994
 20
-0.557025
 30
3.05
 70
    64
  0
VERTEX
  5
C38
100
AcDbEntity
  8
0
100
AcDbVertex
100
AcDbPolygonMeshVertex
 10
2.409994
 20
-0.557025
 30
3.05
 70
    64
  0
VERTEX
  5
C39
100
AcDbEntity
  8
0
100
AcDbVertex
100
AcDbPolygonMeshVertex
 10
2.409994
 20
-0.482025
 30
3.05
 70
    64
  0
VERTEX
  5
C3A
100
AcDbEntity
  8
0
100
AcDbVertex
100
AcDbPolygonMeshVertex
 10
2.319994
 20
-0.557025
 30
3.05
 70
    64
  0
VERTEX
  5
C3B
100
AcDbEntity
  8
0
100
AcDbVertex
100
AcDbPolygonMeshVertex
 10
2.319994
 20
-0.557025
 30
3.05
 70
    64
  0
VERTEX
  5
C3C
100
AcDbEntity
  8
0
100
AcDbVertex
100
AcDbPolygonMeshVertex
 10
2.319994
 20
-0.482025
 30
3.05
 70
    64
  0
SEQEND
  5
C3D
100
AcDbEntity
  8
0
  0
POLYLINE
  5
C3E
100
AcDbEntity
  8
0
100
AcDbPolygonMesh
 66
     1
 10
0.0
 20
0.0
 30
0.0
 70
    16
 71
     6
 72
     3
  0
VERTEX
  5
C3F
100
AcDbEntity
  8
0
100
AcDbVertex
100
AcDbPolygonMeshVertex
 10
3.784994
 20
-0.482025
 30
3.05
 70
    64
  0
VERTEX
  5
C40
100
AcDbEntity
  8
0
100
AcDbVertex
100
AcDbPolygonMeshVertex
 10
3.784994
 20
-0.482025
 30
0.05
 70
    64
  0
VERTEX
  5
C41
100
AcDbEntity
  8
0
100
AcDbVertex
100
AcDbPolygonMeshVertex
 10
3.784994
 20
-0.482025
 30
0.05
 70
    64
  0
VERTEX
  5
C42
100
AcDbEntity
  8
0
100
AcDbVertex
100
AcDbPolygonMeshVertex
 10
3.694994
 20
-0.482025
 30
3.05
 70
    64
  0
VERTEX
  5
C43
100
AcDbEntity
  8
0
100
AcDbVertex
100
AcDbPolygonMeshVertex
 10
3.694994
 20
-0.482025
 30
0.05
 70
    64
  0
VERTEX
  5
C44
100
AcDbEntity
  8
0
100
AcDbVertex
100
AcDbPolygonMeshVertex
 10
3.694994
 20
-0.482025
 30
0.05
 70
    64
  0
VERTEX
  5
C45
100
AcDbEntity
  8
0
100
AcDbVertex
100
AcDbPolygonMeshVertex
 10
3.694994
 20
-0.557025
 30
3.05
 70
    64
  0
VERTEX
  5
C46
100
AcDbEntity
  8
0
100
AcDbVertex
100
AcDbPolygonMeshVertex
 10
3.694994
 20
-0.557025
 30
0.05
 70
    64
  0
VERTEX
  5
C47
100
AcDbEntity
  8
0
100
AcDbVertex
100
AcDbPolygonMeshVertex
 10
3.694994
 20
-0.482025
 30
0.05
 70
    64
  0
VERTEX
  5
C48
100
AcDbEntity
  8
0
100
AcDbVertex
100
AcDbPolygonMeshVertex
 10
3.784994
 20
-0.557025
 30
3.05
 70
    64
  0
VERTEX
  5
C49
100
AcDbEntity
  8
0
100
AcDbVertex
100
AcDbPolygonMeshVertex
 10
3.784994
 20
-0.557025
 30
0.05
 70
    64
  0
VERTEX
  5
C4A
100
AcDbEntity
  8
0
100
AcDbVertex
100
AcDbPolygonMeshVertex
 10
3.784994
 20
-0.482025
 30
0.05
 70
    64
  0
VERTEX
  5
C4B
100
AcDbEntity
  8
0
100
AcDbVertex
100
AcDbPolygonMeshVertex
 10
3.784994
 20
-0.557025
 30
3.05
 70
    64
  0
VERTEX
  5
C4C
100
AcDbEntity
  8
0
100
AcDbVertex
100
AcDbPolygonMeshVertex
 10
3.784994
 20
-0.557025
 30
3.05
 70
    64
  0
VERTEX
  5
C4D
100
AcDbEntity
  8
0
100
AcDbVertex
100
AcDbPolygonMeshVertex
 10
3.784994
 20
-0.482025
 30
3.05
 70
    64
  0
VERTEX
  5
C4E
100
AcDbEntity
  8
0
100
AcDbVertex
100
AcDbPolygonMeshVertex
 10
3.694994
 20
-0.557025
 30
3.05
 70
    64
  0
VERTEX
  5
C4F
100
AcDbEntity
  8
0
100
AcDbVertex
100
AcDbPolygonMeshVertex
 10
3.694994
 20
-0.557025
 30
3.05
 70
    64
  0
VERTEX
  5
C50
100
AcDbEntity
  8
0
100
AcDbVertex
100
AcDbPolygonMeshVertex
 10
3.694994
 20
-0.482025
 30
3.05
 70
    64
  0
SEQEND
  5
C51
100
AcDbEntity
  8
0
  0
POLYLINE
  5
C52
100
AcDbEntity
  8
0
100
AcDbPolygonMesh
 66
     1
 10
0.0
 20
0.0
 30
0.0
 70
    16
 71
     6
 72
     3
  0
VERTEX
  5
C53
100
AcDbEntity
  8
0
100
AcDbVertex
100
AcDbPolygonMeshVertex
 10
3.884994
 20
-0.482025
 30
3.05
 70
    64
  0
VERTEX
  5
C54
100
AcDbEntity
  8
0
100
AcDbVertex
100
AcDbPolygonMeshVertex
 10
3.884994
 20
-0.482025
 30
0.05
 70
    64
  0
VERTEX
  5
C55
100
AcDbEntity
  8
0
100
AcDbVertex
100
AcDbPolygonMeshVertex
 10
3.884994
 20
-0.482025
 30
0.05
 70
    64
  0
VERTEX
  5
C56
100
AcDbEntity
  8
0
100
AcDbVertex
100
AcDbPolygonMeshVertex
 10
3.784994
 20
-0.482025
 30
3.05
 70
    64
  0
VERTEX
  5
C57
100
AcDbEntity
  8
0
100
AcDbVertex
100
AcDbPolygonMeshVertex
 10
3.784994
 20
-0.482025
 30
0.05
 70
    64
  0
VERTEX
  5
C58
100
AcDbEntity
  8
0
100
AcDbVertex
100
AcDbPolygonMeshVertex
 10
3.784994
 20
-0.482025
 30
0.05
 70
    64
  0
VERTEX
  5
C59
100
AcDbEntity
  8
0
100
AcDbVertex
100
AcDbPolygonMeshVertex
 10
3.784994
 20
-0.682025
 30
3.05
 70
    64
  0
VERTEX
  5
C5A
100
AcDbEntity
  8
0
100
AcDbVertex
100
AcDbPolygonMeshVertex
 10
3.784994
 20
-0.682025
 30
0.05
 70
    64
  0
VERTEX
  5
C5B
100
AcDbEntity
  8
0
100
AcDbVertex
100
AcDbPolygonMeshVertex
 10
3.784994
 20
-0.482025
 30
0.05
 70
    64
  0
VERTEX
  5
C5C
100
AcDbEntity
  8
0
100
AcDbVertex
100
AcDbPolygonMeshVertex
 10
3.884994
 20
-0.682025
 30
3.05
 70
    64
  0
VERTEX
  5
C5D
100
AcDbEntity
  8
0
100
AcDbVertex
100
AcDbPolygonMeshVertex
 10
3.884994
 20
-0.682025
 30
0.05
 70
    64
  0
VERTEX
  5
C5E
100
AcDbEntity
  8
0
100
AcDbVertex
100
AcDbPolygonMeshVertex
 10
3.884994
 20
-0.482025
 30
0.05
 70
    64
  0
VERTEX
  5
C5F
100
AcDbEntity
  8
0
100
AcDbVertex
100
AcDbPolygonMeshVertex
 10
3.884994
 20
-0.682025
 30
3.05
 70
    64
  0
VERTEX
  5
C60
100
AcDbEntity
  8
0
100
AcDbVertex
100
AcDbPolygonMeshVertex
 10
3.884994
 20
-0.682025
 30
3.05
 70
    64
  0
VERTEX
  5
C61
100
AcDbEntity
  8
0
100
AcDbVertex
100
AcDbPolygonMeshVertex
 10
3.884994
 20
-0.482025
 30
3.05
 70
    64
  0
VERTEX
  5
C62
100
AcDbEntity
  8
0
100
AcDbVertex
100
AcDbPolygonMeshVertex
 10
3.784994
 20
-0.682025
 30
3.05
 70
    64
  0
VERTEX
  5
C63
100
AcDbEntity
  8
0
100
AcDbVertex
100
AcDbPolygonMeshVertex
 10
3.784994
 20
-0.682025
 30
3.05
 70
    64
  0
VERTEX
  5
C64
100
AcDbEntity
  8
0
100
AcDbVertex
100
AcDbPolygonMeshVertex
 10
3.784994
 20
-0.482025
 30
3.05
 70
    64
  0
SEQEND
  5
C65
100
AcDbEntity
  8
0
  0
POLYLINE
  5
C66
100
AcDbEntity
  8
0
100
AcDbPolygonMesh
 66
     1
 10
0.0
 20
0.0
 30
0.0
 70
    16
 71
     6
 72
     3
  0
VERTEX
  5
C67
100
AcDbEntity
  8
0
100
AcDbVertex
100
AcDbPolygonMeshVertex
 10
3.694994
 20
-0.482025
 30
3.05
 70
    64
  0
VERTEX
  5
C68
100
AcDbEntity
  8
0
100
AcDbVertex
100
AcDbPolygonMeshVertex
 10
3.694994
 20
-0.482025
 30
0.05
 70
    64
  0
VERTEX
  5
C69
100
AcDbEntity
  8
0
100
AcDbVertex
100
AcDbPolygonMeshVertex
 10
3.694994
 20
-0.482025
 30
0.05
 70
    64
  0
VERTEX
  5
C6A
100
AcDbEntity
  8
0
100
AcDbVertex
100
AcDbPolygonMeshVertex
 10
3.594994
 20
-0.482025
 30
3.05
 70
    64
  0
VERTEX
  5
C6B
100
AcDbEntity
  8
0
100
AcDbVertex
100
AcDbPolygonMeshVertex
 10
3.594994
 20
-0.482025
 30
0.05
 70
    64
  0
VERTEX
  5
C6C
100
AcDbEntity
  8
0
100
AcDbVertex
100
AcDbPolygonMeshVertex
 10
3.594994
 20
-0.482025
 30
0.05
 70
    64
  0
VERTEX
  5
C6D
100
AcDbEntity
  8
0
100
AcDbVertex
100
AcDbPolygonMeshVertex
 10
3.594994
 20
-0.682025
 30
3.05
 70
    64
  0
VERTEX
  5
C6E
100
AcDbEntity
  8
0
100
AcDbVertex
100
AcDbPolygonMeshVertex
 10
3.594994
 20
-0.682025
 30
0.05
 70
    64
  0
VERTEX
  5
C6F
100
AcDbEntity
  8
0
100
AcDbVertex
100
AcDbPolygonMeshVertex
 10
3.594994
 20
-0.482025
 30
0.05
 70
    64
  0
VERTEX
  5
C70
100
AcDbEntity
  8
0
100
AcDbVertex
100
AcDbPolygonMeshVertex
 10
3.694994
 20
-0.682025
 30
3.05
 70
    64
  0
VERTEX
  5
C71
100
AcDbEntity
  8
0
100
AcDbVertex
100
AcDbPolygonMeshVertex
 10
3.694994
 20
-0.682025
 30
0.05
 70
    64
  0
VERTEX
  5
C72
100
AcDbEntity
  8
0
100
AcDbVertex
100
AcDbPolygonMeshVertex
 10
3.694994
 20
-0.482025
 30
0.05
 70
    64
  0
VERTEX
  5
C73
100
AcDbEntity
  8
0
100
AcDbVertex
100
AcDbPolygonMeshVertex
 10
3.694994
 20
-0.682025
 30
3.05
 70
    64
  0
VERTEX
  5
C74
100
AcDbEntity
  8
0
100
AcDbVertex
100
AcDbPolygonMeshVertex
 10
3.694994
 20
-0.682025
 30
3.05
 70
    64
  0
VERTEX
  5
C75
100
AcDbEntity
  8
0
100
AcDbVertex
100
AcDbPolygonMeshVertex
 10
3.694994
 20
-0.482025
 30
3.05
 70
    64
  0
VERTEX
  5
C76
100
AcDbEntity
  8
0
100
AcDbVertex
100
AcDbPolygonMeshVertex
 10
3.594994
 20
-0.682025
 30
3.05
 70
    64
  0
VERTEX
  5
C77
100
AcDbEntity
  8
0
100
AcDbVertex
100
AcDbPolygonMeshVertex
 10
3.594994
 20
-0.682025
 30
3.05
 70
    64
  0
VERTEX
  5
C78
100
AcDbEntity
  8
0
100
AcDbVertex
100
AcDbPolygonMeshVertex
 10
3.594994
 20
-0.482025
 30
3.05
 70
    64
  0
SEQEND
  5
C79
100
AcDbEntity
  8
0
  0
POLYLINE
  5
C7A
100
AcDbEntity
  8
0
100
AcDbPolygonMesh
 66
     1
 10
0.0
 20
0.0
 30
0.0
 70
    16
 71
     6
 72
     3
  0
VERTEX
  5
C7B
100
AcDbEntity
  8
0
100
AcDbVertex
100
AcDbPolygonMeshVertex
 10
4.53
 20
-5.92
 30
5.71
 70
    64
  0
VERTEX
  5
C7C
100
AcDbEntity
  8
0
100
AcDbVertex
100
AcDbPolygonMeshVertex
 10
4.53
 20
-5.92
 30
0.0
 70
    64
  0
VERTEX
  5
C7D
100
AcDbEntity
  8
0
100
AcDbVertex
100
AcDbPolygonMeshVertex
 10
4.53
 20
-5.92
 30
0.0
 70
    64
  0
VERTEX
  5
C7E
100
AcDbEntity
  8
0
100
AcDbVertex
100
AcDbPolygonMeshVertex
 10
4.13
 20
-5.92
 30
5.71
 70
    64
  0
VERTEX
  5
C7F
100
AcDbEntity
  8
0
100
AcDbVertex
100
AcDbPolygonMeshVertex
 10
4.13
 20
-5.92
 30
0.0
 70
    64
  0
VERTEX
  5
C80
100
AcDbEntity
  8
0
100
AcDbVertex
100
AcDbPolygonMeshVertex
 10
4.13
 20
-5.92
 30
0.0
 70
    64
  0
VERTEX
  5
C81
100
AcDbEntity
  8
0
100
AcDbVertex
100
AcDbPolygonMeshVertex
 10
4.13
 20
-0.41
 30
5.71
 70
    64
  0
VERTEX
  5
C82
100
AcDbEntity
  8
0
100
AcDbVertex
100
AcDbPolygonMeshVertex
 10
4.13
 20
-0.41
 30
0.0
 70
    64
  0
VERTEX
  5
C83
100
AcDbEntity
  8
0
100
AcDbVertex
100
AcDbPolygonMeshVertex
 10
4.13
 20
-5.92
 30
0.0
 70
    64
  0
VERTEX
  5
C84
100
AcDbEntity
  8
0
100
AcDbVertex
100
AcDbPolygonMeshVertex
 10
4.53
 20
-0.41
 30
5.71
 70
    64
  0
VERTEX
  5
C85
100
AcDbEntity
  8
0
100
AcDbVertex
100
AcDbPolygonMeshVertex
 10
4.53
 20
-0.41
 30
0.0
 70
    64
  0
VERTEX
  5
C86
100
AcDbEntity
  8
0
100
AcDbVertex
100
AcDbPolygonMeshVertex
 10
4.53
 20
-5.92
 30
0.0
 70
    64
  0
VERTEX
  5
C87
100
AcDbEntity
  8
0
100
AcDbVertex
100
AcDbPolygonMeshVertex
 10
4.53
 20
-0.41
 30
5.71
 70
    64
  0
VERTEX
  5
C88
100
AcDbEntity
  8
0
100
AcDbVertex
100
AcDbPolygonMeshVertex
 10
4.53
 20
-0.41
 30
5.71
 70
    64
  0
VERTEX
  5
C89
100
AcDbEntity
  8
0
100
AcDbVertex
100
AcDbPolygonMeshVertex
 10
4.53
 20
-5.92
 30
5.71
 70
    64
  0
VERTEX
  5
C8A
100
AcDbEntity
  8
0
100
AcDbVertex
100
AcDbPolygonMeshVertex
 10
4.13
 20
-0.41
 30
5.71
 70
    64
  0
VERTEX
  5
C8B
100
AcDbEntity
  8
0
100
AcDbVertex
100
AcDbPolygonMeshVertex
 10
4.13
 20
-0.41
 30
5.71
 70
    64
  0
VERTEX
  5
C8C
100
AcDbEntity
  8
0
100
AcDbVertex
100
AcDbPolygonMeshVertex
 10
4.13
 20
-5.92
 30
5.71
 70
    64
  0
SEQEND
  5
C8D
100
AcDbEntity
  8
0
  0
POLYLINE
  5
C8E
100
AcDbEntity
  8
0
100
AcDbPolygonMesh
 66
     1
 10
0.0
 20
0.0
 30
0.0
 70
    16
 71
     6
 72
     3
  0
VERTEX
  5
C8F
100
AcDbEntity
  8
0
100
AcDbVertex
100
AcDbPolygonMeshVertex
 10
3.694994
 20
-5.847975
 30
3.05
 70
    64
  0
VERTEX
  5
C90
100
AcDbEntity
  8
0
100
AcDbVertex
100
AcDbPolygonMeshVertex
 10
3.694994
 20
-5.847975
 30
0.05
 70
    64
  0
VERTEX
  5
C91
100
AcDbEntity
  8
0
100
AcDbVertex
100
AcDbPolygonMeshVertex
 10
3.694994
 20
-5.847975
 30
0.05
 70
    64
  0
VERTEX
  5
C92
100
AcDbEntity
  8
0
100
AcDbVertex
100
AcDbPolygonMeshVertex
 10
3.594994
 20
-5.847975
 30
3.05
 70
    64
  0
VERTEX
  5
C93
100
AcDbEntity
  8
0
100
AcDbVertex
100
AcDbPolygonMeshVertex
 10
3.594994
 20
-5.847975
 30
0.05
 70
    64
  0
VERTEX
  5
C94
100
AcDbEntity
  8
0
100
AcDbVertex
100
AcDbPolygonMeshVertex
 10
3.594994
 20
-5.847975
 30
0.05
 70
    64
  0
VERTEX
  5
C95
100
AcDbEntity
  8
0
100
AcDbVertex
100
AcDbPolygonMeshVertex
 10
3.594994
 20
-5.647975
 30
3.05
 70
    64
  0
VERTEX
  5
C96
100
AcDbEntity
  8
0
100
AcDbVertex
100
AcDbPolygonMeshVertex
 10
3.594994
 20
-5.647975
 30
0.05
 70
    64
  0
VERTEX
  5
C97
100
AcDbEntity
  8
0
100
AcDbVertex
100
AcDbPolygonMeshVertex
 10
3.594994
 20
-5.847975
 30
0.05
 70
    64
  0
VERTEX
  5
C98
100
AcDbEntity
  8
0
100
AcDbVertex
100
AcDbPolygonMeshVertex
 10
3.694994
 20
-5.647975
 30
3.05
 70
    64
  0
VERTEX
  5
C99
100
AcDbEntity
  8
0
100
AcDbVertex
100
AcDbPolygonMeshVertex
 10
3.694994
 20
-5.647975
 30
0.05
 70
    64
  0
VERTEX
  5
C9A
100
AcDbEntity
  8
0
100
AcDbVertex
100
AcDbPolygonMeshVertex
 10
3.694994
 20
-5.847975
 30
0.05
 70
    64
  0
VERTEX
  5
C9B
100
AcDbEntity
  8
0
100
AcDbVertex
100
AcDbPolygonMeshVertex
 10
3.694994
 20
-5.647975
 30
3.05
 70
    64
  0
VERTEX
  5
C9C
100
AcDbEntity
  8
0
100
AcDbVertex
100
AcDbPolygonMeshVertex
 10
3.694994
 20
-5.647975
 30
3.05
 70
    64
  0
VERTEX
  5
C9D
100
AcDbEntity
  8
0
100
AcDbVertex
100
AcDbPolygonMeshVertex
 10
3.694994
 20
-5.847975
 30
3.05
 70
    64
  0
VERTEX
  5
C9E
100
AcDbEntity
  8
0
100
AcDbVertex
100
AcDbPolygonMeshVertex
 10
3.594994
 20
-5.647975
 30
3.05
 70
    64
  0
VERTEX
  5
C9F
100
AcDbEntity
  8
0
100
AcDbVertex
100
AcDbPolygonMeshVertex
 10
3.594994
 20
-5.647975
 30
3.05
 70
    64
  0
VERTEX
  5
CA0
100
AcDbEntity
  8
0
100
AcDbVertex
100
AcDbPolygonMeshVertex
 10
3.594994
 20
-5.847975
 30
3.05
 70
    64
  0
SEQEND
  5
CA1
100
AcDbEntity
  8
0
  0
POLYLINE
  5
CA2
100
AcDbEntity
  8
0
100
AcDbPolygonMesh
 66
     1
 10
0.0
 20
0.0
 30
0.0
 70
    16
 71
     6
 72
     3
  0
VERTEX
  5
CA3
100
AcDbEntity
  8
0
100
AcDbVertex
100
AcDbPolygonMeshVertex
 10
3.884994
 20
-5.847975
 30
3.05
 70
    64
  0
VERTEX
  5
CA4
100
AcDbEntity
  8
0
100
AcDbVertex
100
AcDbPolygonMeshVertex
 10
3.884994
 20
-5.847975
 30
0.05
 70
    64
  0
VERTEX
  5
CA5
100
AcDbEntity
  8
0
100
AcDbVertex
100
AcDbPolygonMeshVertex
 10
3.884994
 20
-5.847975
 30
0.05
 70
    64
  0
VERTEX
  5
CA6
100
AcDbEntity
  8
0
100
AcDbVertex
100
AcDbPolygonMeshVertex
 10
3.784994
 20
-5.847975
 30
3.05
 70
    64
  0
VERTEX
  5
CA7
100
AcDbEntity
  8
0
100
AcDbVertex
100
AcDbPolygonMeshVertex
 10
3.784994
 20
-5.847975
 30
0.05
 70
    64
  0
VERTEX
  5
CA8
100
AcDbEntity
  8
0
100
AcDbVertex
100
AcDbPolygonMeshVertex
 10
3.784994
 20
-5.847975
 30
0.05
 70
    64
  0
VERTEX
  5
CA9
100
AcDbEntity
  8
0
100
AcDbVertex
100
AcDbPolygonMeshVertex
 10
3.784994
 20
-5.647975
 30
3.05
 70
    64
  0
VERTEX
  5
CAA
100
AcDbEntity
  8
0
100
AcDbVertex
100
AcDbPolygonMeshVertex
 10
3.784994
 20
-5.647975
 30
0.05
 70
    64
  0
VERTEX
  5
CAB
100
AcDbEntity
  8
0
100
AcDbVertex
100
AcDbPolygonMeshVertex
 10
3.784994
 20
-5.847975
 30
0.05
 70
    64
  0
VERTEX
  5
CAC
100
AcDbEntity
  8
0
100
AcDbVertex
100
AcDbPolygonMeshVertex
 10
3.884994
 20
-5.647975
 30
3.05
 70
    64
  0
VERTEX
  5
CAD
100
AcDbEntity
  8
0
100
AcDbVertex
100
AcDbPolygonMeshVertex
 10
3.884994
 20
-5.647975
 30
0.05
 70
    64
  0
VERTEX
  5
CAE
100
AcDbEntity
  8
0
100
AcDbVertex
100
AcDbPolygonMeshVertex
 10
3.884994
 20
-5.847975
 30
0.05
 70
    64
  0
VERTEX
  5
CAF
100
AcDbEntity
  8
0
100
AcDbVertex
100
AcDbPolygonMeshVertex
 10
3.884994
 20
-5.647975
 30
3.05
 70
    64
  0
VERTEX
  5
CB0
100
AcDbEntity
  8
0
100
AcDbVertex
100
AcDbPolygonMeshVertex
 10
3.884994
 20
-5.647975
 30
3.05
 70
    64
  0
VERTEX
  5
CB1
100
AcDbEntity
  8
0
100
AcDbVertex
100
AcDbPolygonMeshVertex
 10
3.884994
 20
-5.847975
 30
3.05
 70
    64
  0
VERTEX
  5
CB2
100
AcDbEntity
  8
0
100
AcDbVertex
100
AcDbPolygonMeshVertex
 10
3.784994
 20
-5.647975
 30
3.05
 70
    64
  0
VERTEX
  5
CB3
100
AcDbEntity
  8
0
100
AcDbVertex
100
AcDbPolygonMeshVertex
 10
3.784994
 20
-5.647975
 30
3.05
 70
    64
  0
VERTEX
  5
CB4
100
AcDbEntity
  8
0
100
AcDbVertex
100
AcDbPolygonMeshVertex
 10
3.784994
 20
-5.847975
 30
3.05
 70
    64
  0
SEQEND
  5
CB5
100
AcDbEntity
  8
0
  0
POLYLINE
  5
CB6
100
AcDbEntity
  8
0
100
AcDbPolygonMesh
 66
     1
 10
0.0
 20
0.0
 30
0.0
 70
    16
 71
     6
 72
     3
  0
VERTEX
  5
CB7
100
AcDbEntity
  8
0
100
AcDbVertex
100
AcDbPolygonMeshVertex
 10
3.784994
 20
-5.847975
 30
3.05
 70
    64
  0
VERTEX
  5
CB8
100
AcDbEntity
  8
0
100
AcDbVertex
100
AcDbPolygonMeshVertex
 10
3.784994
 20
-5.847975
 30
0.05
 70
    64
  0
VERTEX
  5
CB9
100
AcDbEntity
  8
0
100
AcDbVertex
100
AcDbPolygonMeshVertex
 10
3.784994
 20
-5.847975
 30
0.05
 70
    64
  0
VERTEX
  5
CBA
100
AcDbEntity
  8
0
100
AcDbVertex
100
AcDbPolygonMeshVertex
 10
3.694994
 20
-5.847975
 30
3.05
 70
    64
  0
VERTEX
  5
CBB
100
AcDbEntity
  8
0
100
AcDbVertex
100
AcDbPolygonMeshVertex
 10
3.694994
 20
-5.847975
 30
0.05
 70
    64
  0
VERTEX
  5
CBC
100
AcDbEntity
  8
0
100
AcDbVertex
100
AcDbPolygonMeshVertex
 10
3.694994
 20
-5.847975
 30
0.05
 70
    64
  0
VERTEX
  5
CBD
100
AcDbEntity
  8
0
100
AcDbVertex
100
AcDbPolygonMeshVertex
 10
3.694994
 20
-5.772975
 30
3.05
 70
    64
  0
VERTEX
  5
CBE
100
AcDbEntity
  8
0
100
AcDbVertex
100
AcDbPolygonMeshVertex
 10
3.694994
 20
-5.772975
 30
0.05
 70
    64
  0
VERTEX
  5
CBF
100
AcDbEntity
  8
0
100
AcDbVertex
100
AcDbPolygonMeshVertex
 10
3.694994
 20
-5.847975
 30
0.05
 70
    64
  0
VERTEX
  5
CC0
100
AcDbEntity
  8
0
100
AcDbVertex
100
AcDbPolygonMeshVertex
 10
3.784994
 20
-5.772975
 30
3.05
 70
    64
  0
VERTEX
  5
CC1
100
AcDbEntity
  8
0
100
AcDbVertex
100
AcDbPolygonMeshVertex
 10
3.784994
 20
-5.772975
 30
0.05
 70
    64
  0
VERTEX
  5
CC2
100
AcDbEntity
  8
0
100
AcDbVertex
100
AcDbPolygonMeshVertex
 10
3.784994
 20
-5.847975
 30
0.05
 70
    64
  0
VERTEX
  5
CC3
100
AcDbEntity
  8
0
100
AcDbVertex
100
AcDbPolygonMeshVertex
 10
3.784994
 20
-5.772975
 30
3.05
 70
    64
  0
VERTEX
  5
CC4
100
AcDbEntity
  8
0
100
AcDbVertex
100
AcDbPolygonMeshVertex
 10
3.784994
 20
-5.772975
 30
3.05
 70
    64
  0
VERTEX
  5
CC5
100
AcDbEntity
  8
0
100
AcDbVertex
100
AcDbPolygonMeshVertex
 10
3.784994
 20
-5.847975
 30
3.05
 70
    64
  0
VERTEX
  5
CC6
100
AcDbEntity
  8
0
100
AcDbVertex
100
AcDbPolygonMeshVertex
 10
3.694994
 20
-5.772975
 30
3.05
 70
    64
  0
VERTEX
  5
CC7
100
AcDbEntity
  8
0
100
AcDbVertex
100
AcDbPolygonMeshVertex
 10
3.694994
 20
-5.772975
 30
3.05
 70
    64
  0
VERTEX
  5
CC8
100
AcDbEntity
  8
0
100
AcDbVertex
100
AcDbPolygonMeshVertex
 10
3.694994
 20
-5.847975
 30
3.05
 70
    64
  0
SEQEND
  5
CC9
100
AcDbEntity
  8
0
  0
POLYLINE
  5
CCA
100
AcDbEntity
  8
0
100
AcDbPolygonMesh
 66
     1
 10
0.0
 20
0.0
 30
0.0
 70
    16
 71
     6
 72
     3
  0
VERTEX
  5
CCB
100
AcDbEntity
  8
0
100
AcDbVertex
100
AcDbPolygonMeshVertex
 10
2.409994
 20
-5.847975
 30
3.05
 70
    64
  0
VERTEX
  5
CCC
100
AcDbEntity
  8
0
100
AcDbVertex
100
AcDbPolygonMeshVertex
 10
2.409994
 20
-5.847975
 30
0.05
 70
    64
  0
VERTEX
  5
CCD
100
AcDbEntity
  8
0
100
AcDbVertex
100
AcDbPolygonMeshVertex
 10
2.409994
 20
-5.847975
 30
0.05
 70
    64
  0
VERTEX
  5
CCE
100
AcDbEntity
  8
0
100
AcDbVertex
100
AcDbPolygonMeshVertex
 10
2.319994
 20
-5.847975
 30
3.05
 70
    64
  0
VERTEX
  5
CCF
100
AcDbEntity
  8
0
100
AcDbVertex
100
AcDbPolygonMeshVertex
 10
2.319994
 20
-5.847975
 30
0.05
 70
    64
  0
VERTEX
  5
CD0
100
AcDbEntity
  8
0
100
AcDbVertex
100
AcDbPolygonMeshVertex
 10
2.319994
 20
-5.847975
 30
0.05
 70
    64
  0
VERTEX
  5
CD1
100
AcDbEntity
  8
0
100
AcDbVertex
100
AcDbPolygonMeshVertex
 10
2.319994
 20
-5.772975
 30
3.05
 70
    64
  0
VERTEX
  5
CD2
100
AcDbEntity
  8
0
100
AcDbVertex
100
AcDbPolygonMeshVertex
 10
2.319994
 20
-5.772975
 30
0.05
 70
    64
  0
VERTEX
  5
CD3
100
AcDbEntity
  8
0
100
AcDbVertex
100
AcDbPolygonMeshVertex
 10
2.319994
 20
-5.847975
 30
0.05
 70
    64
  0
VERTEX
  5
CD4
100
AcDbEntity
  8
0
100
AcDbVertex
100
AcDbPolygonMeshVertex
 10
2.409994
 20
-5.772975
 30
3.05
 70
    64
  0
VERTEX
  5
CD5
100
AcDbEntity
  8
0
100
AcDbVertex
100
AcDbPolygonMeshVertex
 10
2.409994
 20
-5.772975
 30
0.05
 70
    64
  0
VERTEX
  5
CD6
100
AcDbEntity
  8
0
100
AcDbVertex
100
AcDbPolygonMeshVertex
 10
2.409994
 20
-5.847975
 30
0.05
 70
    64
  0
VERTEX
  5
CD7
100
AcDbEntity
  8
0
100
AcDbVertex
100
AcDbPolygonMeshVertex
 10
2.409994
 20
-5.772975
 30
3.05
 70
    64
  0
VERTEX
  5
CD8
100
AcDbEntity
  8
0
100
AcDbVertex
100
AcDbPolygonMeshVertex
 10
2.409994
 20
-5.772975
 30
3.05
 70
    64
  0
VERTEX
  5
CD9
100
AcDbEntity
  8
0
100
AcDbVertex
100
AcDbPolygonMeshVertex
 10
2.409994
 20
-5.847975
 30
3.05
 70
    64
  0
VERTEX
  5
CDA
100
AcDbEntity
  8
0
100
AcDbVertex
100
AcDbPolygonMeshVertex
 10
2.319994
 20
-5.772975
 30
3.05
 70
    64
  0
VERTEX
  5
CDB
100
AcDbEntity
  8
0
100
AcDbVertex
100
AcDbPolygonMeshVertex
 10
2.319994
 20
-5.772975
 30
3.05
 70
    64
  0
VERTEX
  5
CDC
100
AcDbEntity
  8
0
100
AcDbVertex
100
AcDbPolygonMeshVertex
 10
2.319994
 20
-5.847975
 30
3.05
 70
    64
  0
SEQEND
  5
CDD
100
AcDbEntity
  8
0
  0
POLYLINE
  5
CDE
100
AcDbEntity
  8
0
100
AcDbPolygonMesh
 66
     1
 10
0.0
 20
0.0
 30
0.0
 70
    16
 71
     6
 72
     3
  0
VERTEX
  5
CDF
100
AcDbEntity
  8
0
100
AcDbVertex
100
AcDbPolygonMeshVertex
 10
2.509994
 20
-5.847975
 30
3.05
 70
    64
  0
VERTEX
  5
CE0
100
AcDbEntity
  8
0
100
AcDbVertex
100
AcDbPolygonMeshVertex
 10
2.509994
 20
-5.847975
 30
0.05
 70
    64
  0
VERTEX
  5
CE1
100
AcDbEntity
  8
0
100
AcDbVertex
100
AcDbPolygonMeshVertex
 10
2.509994
 20
-5.847975
 30
0.05
 70
    64
  0
VERTEX
  5
CE2
100
AcDbEntity
  8
0
100
AcDbVertex
100
AcDbPolygonMeshVertex
 10
2.409994
 20
-5.847975
 30
3.05
 70
    64
  0
VERTEX
  5
CE3
100
AcDbEntity
  8
0
100
AcDbVertex
100
AcDbPolygonMeshVertex
 10
2.409994
 20
-5.847975
 30
0.05
 70
    64
  0
VERTEX
  5
CE4
100
AcDbEntity
  8
0
100
AcDbVertex
100
AcDbPolygonMeshVertex
 10
2.409994
 20
-5.847975
 30
0.05
 70
    64
  0
VERTEX
  5
CE5
100
AcDbEntity
  8
0
100
AcDbVertex
100
AcDbPolygonMeshVertex
 10
2.409994
 20
-5.647975
 30
3.05
 70
    64
  0
VERTEX
  5
CE6
100
AcDbEntity
  8
0
100
AcDbVertex
100
AcDbPolygonMeshVertex
 10
2.409994
 20
-5.647975
 30
0.05
 70
    64
  0
VERTEX
  5
CE7
100
AcDbEntity
  8
0
100
AcDbVertex
100
AcDbPolygonMeshVertex
 10
2.409994
 20
-5.847975
 30
0.05
 70
    64
  0
VERTEX
  5
CE8
100
AcDbEntity
  8
0
100
AcDbVertex
100
AcDbPolygonMeshVertex
 10
2.509994
 20
-5.647975
 30
3.05
 70
    64
  0
VERTEX
  5
CE9
100
AcDbEntity
  8
0
100
AcDbVertex
100
AcDbPolygonMeshVertex
 10
2.509994
 20
-5.647975
 30
0.05
 70
    64
  0
VERTEX
  5
CEA
100
AcDbEntity
  8
0
100
AcDbVertex
100
AcDbPolygonMeshVertex
 10
2.509994
 20
-5.847975
 30
0.05
 70
    64
  0
VERTEX
  5
CEB
100
AcDbEntity
  8
0
100
AcDbVertex
100
AcDbPolygonMeshVertex
 10
2.509994
 20
-5.647975
 30
3.05
 70
    64
  0
VERTEX
  5
CEC
100
AcDbEntity
  8
0
100
AcDbVertex
100
AcDbPolygonMeshVertex
 10
2.509994
 20
-5.647975
 30
3.05
 70
    64
  0
VERTEX
  5
CED
100
AcDbEntity
  8
0
100
AcDbVertex
100
AcDbPolygonMeshVertex
 10
2.509994
 20
-5.847975
 30
3.05
 70
    64
  0
VERTEX
  5
CEE
100
AcDbEntity
  8
0
100
AcDbVertex
100
AcDbPolygonMeshVertex
 10
2.409994
 20
-5.647975
 30
3.05
 70
    64
  0
VERTEX
  5
CEF
100
AcDbEntity
  8
0
100
AcDbVertex
100
AcDbPolygonMeshVertex
 10
2.409994
 20
-5.647975
 30
3.05
 70
    64
  0
VERTEX
  5
CF0
100
AcDbEntity
  8
0
100
AcDbVertex
100
AcDbPolygonMeshVertex
 10
2.409994
 20
-5.847975
 30
3.05
 70
    64
  0
SEQEND
  5
CF1
100
AcDbEntity
  8
0
  0
POLYLINE
  5
CF2
100
AcDbEntity
  8
0
100
AcDbPolygonMesh
 66
     1
 10
0.0
 20
0.0
 30
0.0
 70
    16
 71
     6
 72
     3
  0
VERTEX
  5
CF3
100
AcDbEntity
  8
0
100
AcDbVertex
100
AcDbPolygonMeshVertex
 10
2.319994
 20
-5.847975
 30
3.05
 70
    64
  0
VERTEX
  5
CF4
100
AcDbEntity
  8
0
100
AcDbVertex
100
AcDbPolygonMeshVertex
 10
2.319994
 20
-5.847975
 30
0.05
 70
    64
  0
VERTEX
  5
CF5
100
AcDbEntity
  8
0
100
AcDbVertex
100
AcDbPolygonMeshVertex
 10
2.319994
 20
-5.847975
 30
0.05
 70
    64
  0
VERTEX
  5
CF6
100
AcDbEntity
  8
0
100
AcDbVertex
100
AcDbPolygonMeshVertex
 10
2.219994
 20
-5.847975
 30
3.05
 70
    64
  0
VERTEX
  5
CF7
100
AcDbEntity
  8
0
100
AcDbVertex
100
AcDbPolygonMeshVertex
 10
2.219994
 20
-5.847975
 30
0.05
 70
    64
  0
VERTEX
  5
CF8
100
AcDbEntity
  8
0
100
AcDbVertex
100
AcDbPolygonMeshVertex
 10
2.219994
 20
-5.847975
 30
0.05
 70
    64
  0
VERTEX
  5
CF9
100
AcDbEntity
  8
0
100
AcDbVertex
100
AcDbPolygonMeshVertex
 10
2.219994
 20
-5.647975
 30
3.05
 70
    64
  0
VERTEX
  5
CFA
100
AcDbEntity
  8
0
100
AcDbVertex
100
AcDbPolygonMeshVertex
 10
2.219994
 20
-5.647975
 30
0.05
 70
    64
  0
VERTEX
  5
CFB
100
AcDbEntity
  8
0
100
AcDbVertex
100
AcDbPolygonMeshVertex
 10
2.219994
 20
-5.847975
 30
0.05
 70
    64
  0
VERTEX
  5
CFC
100
AcDbEntity
  8
0
100
AcDbVertex
100
AcDbPolygonMeshVertex
 10
2.319994
 20
-5.647975
 30
3.05
 70
    64
  0
VERTEX
  5
CFD
100
AcDbEntity
  8
0
100
AcDbVertex
100
AcDbPolygonMeshVertex
 10
2.319994
 20
-5.647975
 30
0.05
 70
    64
  0
VERTEX
  5
CFE
100
AcDbEntity
  8
0
100
AcDbVertex
100
AcDbPolygonMeshVertex
 10
2.319994
 20
-5.847975
 30
0.05
 70
    64
  0
VERTEX
  5
CFF
100
AcDbEntity
  8
0
100
AcDbVertex
100
AcDbPolygonMeshVertex
 10
2.319994
 20
-5.647975
 30
3.05
 70
    64
  0
VERTEX
  5
D00
100
AcDbEntity
  8
0
100
AcDbVertex
100
AcDbPolygonMeshVertex
 10
2.319994
 20
-5.647975
 30
3.05
 70
    64
  0
VERTEX
  5
D01
100
AcDbEntity
  8
0
100
AcDbVertex
100
AcDbPolygonMeshVertex
 10
2.319994
 20
-5.847975
 30
3.05
 70
    64
  0
VERTEX
  5
D02
100
AcDbEntity
  8
0
100
AcDbVertex
100
AcDbPolygonMeshVertex
 10
2.219994
 20
-5.647975
 30
3.05
 70
    64
  0
VERTEX
  5
D03
100
AcDbEntity
  8
0
100
AcDbVertex
100
AcDbPolygonMeshVertex
 10
2.219994
 20
-5.647975
 30
3.05
 70
    64
  0
VERTEX
  5
D04
100
AcDbEntity
  8
0
100
AcDbVertex
100
AcDbPolygonMeshVertex
 10
2.219994
 20
-5.847975
 30
3.05
 70
    64
  0
SEQEND
  5
D05
100
AcDbEntity
  8
0
  0
POLYLINE
  5
D06
100
AcDbEntity
  8
0
100
AcDbPolygonMesh
 66
     1
 10
0.0
 20
0.0
 30
0.0
 70
    16
 71
     6
 72
     3
  0
VERTEX
  5
D07
100
AcDbEntity
  8
0
100
AcDbVertex
100
AcDbPolygonMeshVertex
 10
2.36721
 20
-4.018178
 30
0.425
 70
    64
  0
VERTEX
  5
D08
100
AcDbEntity
  8
0
100
AcDbVertex
100
AcDbPolygonMeshVertex
 10
2.36721
 20
-4.018178
 30
0.05
 70
    64
  0
VERTEX
  5
D09
100
AcDbEntity
  8
0
100
AcDbVertex
100
AcDbPolygonMeshVertex
 10
2.36721
 20
-4.018178
 30
0.05
 70
    64
  0
VERTEX
  5
D0A
100
AcDbEntity
  8
0
100
AcDbVertex
100
AcDbPolygonMeshVertex
 10
2.076634
 20
-4.018178
 30
0.425
 70
    64
  0
VERTEX
  5
D0B
100
AcDbEntity
  8
0
100
AcDbVertex
100
AcDbPolygonMeshVertex
 10
2.076634
 20
-4.018178
 30
0.05
 70
    64
  0
VERTEX
  5
D0C
100
AcDbEntity
  8
0
100
AcDbVertex
100
AcDbPolygonMeshVertex
 10
2.076634
 20
-4.018178
 30
0.05
 70
    64
  0
VERTEX
  5
D0D
100
AcDbEntity
  8
0
100
AcDbVertex
100
AcDbPolygonMeshVertex
 10
2.076634
 20
-3.039199
 30
0.425
 70
    64
  0
VERTEX
  5
D0E
100
AcDbEntity
  8
0
100
AcDbVertex
100
AcDbPolygonMeshVertex
 10
2.076634
 20
-3.039199
 30
0.05
 70
    64
  0
VERTEX
  5
D0F
100
AcDbEntity
  8
0
100
AcDbVertex
100
AcDbPolygonMeshVertex
 10
2.076634
 20
-4.018178
 30
0.05
 70
    64
  0
VERTEX
  5
D10
100
AcDbEntity
  8
0
100
AcDbVertex
100
AcDbPolygonMeshVertex
 10
2.36721
 20
-3.039199
 30
0.425
 70
    64
  0
VERTEX
  5
D11
100
AcDbEntity
  8
0
100
AcDbVertex
100
AcDbPolygonMeshVertex
 10
2.36721
 20
-3.039199
 30
0.05
 70
    64
  0
VERTEX
  5
D12
100
AcDbEntity
  8
0
100
AcDbVertex
100
AcDbPolygonMeshVertex
 10
2.36721
 20
-4.018178
 30
0.05
 70
    64
  0
VERTEX
  5
D13
100
AcDbEntity
  8
0
100
AcDbVertex
100
AcDbPolygonMeshVertex
 10
2.36721
 20
-3.039199
 30
0.425
 70
    64
  0
VERTEX
  5
D14
100
AcDbEntity
  8
0
100
AcDbVertex
100
AcDbPolygonMeshVertex
 10
2.36721
 20
-3.039199
 30
0.425
 70
    64
  0
VERTEX
  5
D15
100
AcDbEntity
  8
0
100
AcDbVertex
100
AcDbPolygonMeshVertex
 10
2.36721
 20
-4.018178
 30
0.425
 70
    64
  0
VERTEX
  5
D16
100
AcDbEntity
  8
0
100
AcDbVertex
100
AcDbPolygonMeshVertex
 10
2.076634
 20
-3.039199
 30
0.425
 70
    64
  0
VERTEX
  5
D17
100
AcDbEntity
  8
0
100
AcDbVertex
100
AcDbPolygonMeshVertex
 10
2.076634
 20
-3.039199
 30
0.425
 70
    64
  0
VERTEX
  5
D18
100
AcDbEntity
  8
0
100
AcDbVertex
100
AcDbPolygonMeshVertex
 10
2.076634
 20
-4.018178
 30
0.425
 70
    64
  0
SEQEND
  5
D19
100
AcDbEntity
  8
0
  0
POLYLINE
  5
D1A
100
AcDbEntity
  8
0
100
AcDbPolygonMesh
 66
     1
 10
0.0
 20
0.0
 30
0.0
 70
    16
 71
     6
 72
     3
  0
VERTEX
  5
D1B
100
AcDbEntity
  8
0
100
AcDbVertex
100
AcDbPolygonMeshVertex
 10
3.680851
 20
-4.018178
 30
0.425
 70
    64
  0
VERTEX
  5
D1C
100
AcDbEntity
  8
0
100
AcDbVertex
100
AcDbPolygonMeshVertex
 10
3.680851
 20
-4.018178
 30
0.05
 70
    64
  0
VERTEX
  5
D1D
100
AcDbEntity
  8
0
100
AcDbVertex
100
AcDbPolygonMeshVertex
 10
3.680851
 20
-4.018178
 30
0.05
 70
    64
  0
VERTEX
  5
D1E
100
AcDbEntity
  8
0
100
AcDbVertex
100
AcDbPolygonMeshVertex
 10
3.390275
 20
-4.018178
 30
0.425
 70
    64
  0
VERTEX
  5
D1F
100
AcDbEntity
  8
0
100
AcDbVertex
100
AcDbPolygonMeshVertex
 10
3.390275
 20
-4.018178
 30
0.05
 70
    64
  0
VERTEX
  5
D20
100
AcDbEntity
  8
0
100
AcDbVertex
100
AcDbPolygonMeshVertex
 10
3.390275
 20
-4.018178
 30
0.05
 70
    64
  0
VERTEX
  5
D21
100
AcDbEntity
  8
0
100
AcDbVertex
100
AcDbPolygonMeshVertex
 10
3.390275
 20
-3.039199
 30
0.425
 70
    64
  0
VERTEX
  5
D22
100
AcDbEntity
  8
0
100
AcDbVertex
100
AcDbPolygonMeshVertex
 10
3.390275
 20
-3.039199
 30
0.05
 70
    64
  0
VERTEX
  5
D23
100
AcDbEntity
  8
0
100
AcDbVertex
100
AcDbPolygonMeshVertex
 10
3.390275
 20
-4.018178
 30
0.05
 70
    64
  0
VERTEX
  5
D24
100
AcDbEntity
  8
0
100
AcDbVertex
100
AcDbPolygonMeshVertex
 10
3.680851
 20
-3.039199
 30
0.425
 70
    64
  0
VERTEX
  5
D25
100
AcDbEntity
  8
0
100
AcDbVertex
100
AcDbPolygonMeshVertex
 10
3.680851
 20
-3.039199
 30
0.05
 70
    64
  0
VERTEX
  5
D26
100
AcDbEntity
  8
0
100
AcDbVertex
100
AcDbPolygonMeshVertex
 10
3.680851
 20
-4.018178
 30
0.05
 70
    64
  0
VERTEX
  5
D27
100
AcDbEntity
  8
0
100
AcDbVertex
100
AcDbPolygonMeshVertex
 10
3.680851
 20
-3.039199
 30
0.425
 70
    64
  0
VERTEX
  5
D28
100
AcDbEntity
  8
0
100
AcDbVertex
100
AcDbPolygonMeshVertex
 10
3.680851
 20
-3.039199
 30
0.425
 70
    64
  0
VERTEX
  5
D29
100
AcDbEntity
  8
0
100
AcDbVertex
100
AcDbPolygonMeshVertex
 10
3.680851
 20
-4.018178
 30
0.425
 70
    64
  0
VERTEX
  5
D2A
100
AcDbEntity
  8
0
100
AcDbVertex
100
AcDbPolygonMeshVertex
 10
3.390275
 20
-3.039199
 30
0.425
 70
    64
  0
VERTEX
  5
D2B
100
AcDbEntity
  8
0
100
AcDbVertex
100
AcDbPolygonMeshVertex
 10
3.390275
 20
-3.039199
 30
0.425
 70
    64
  0
VERTEX
  5
D2C
100
AcDbEntity
  8
0
100
AcDbVertex
100
AcDbPolygonMeshVertex
 10
3.390275
 20
-4.018178
 30
0.425
 70
    64
  0
SEQEND
  5
D2D
100
AcDbEntity
  8
0
  0
POLYLINE
  5
D2E
100
AcDbEntity
  8
0
100
AcDbPolygonMesh
 66
     1
 10
0.0
 20
0.0
 30
0.0
 70
    16
 71
     6
 72
     3
  0
VERTEX
  5
D2F
100
AcDbEntity
  8
0
100
AcDbVertex
100
AcDbPolygonMeshVertex
 10
2.977
 20
-6.47
 30
0.04
 70
    64
  0
VERTEX
  5
D30
100
AcDbEntity
  8
0
100
AcDbVertex
100
AcDbPolygonMeshVertex
 10
2.977
 20
-6.47
 30
0.0
 70
    64
  0
VERTEX
  5
D31
100
AcDbEntity
  8
0
100
AcDbVertex
100
AcDbPolygonMeshVertex
 10
2.977
 20
-6.47
 30
0.0
 70
    64
  0
VERTEX
  5
D32
100
AcDbEntity
  8
0
100
AcDbVertex
100
AcDbPolygonMeshVertex
 10
2.543
 20
-6.47
 30
0.04
 70
    64
  0
VERTEX
  5
D33
100
AcDbEntity
  8
0
100
AcDbVertex
100
AcDbPolygonMeshVertex
 10
2.543
 20
-6.47
 30
0.0
 70
    64
  0
VERTEX
  5
D34
100
AcDbEntity
  8
0
100
AcDbVertex
100
AcDbPolygonMeshVertex
 10
2.543
 20
-6.47
 30
0.0
 70
    64
  0
VERTEX
  5
D35
100
AcDbEntity
  8
0
100
AcDbVertex
100
AcDbPolygonMeshVertex
 10
2.543
 20
-5.92
 30
0.04
 70
    64
  0
VERTEX
  5
D36
100
AcDbEntity
  8
0
100
AcDbVertex
100
AcDbPolygonMeshVertex
 10
2.543
 20
-5.92
 30
0.0
 70
    64
  0
VERTEX
  5
D37
100
AcDbEntity
  8
0
100
AcDbVertex
100
AcDbPolygonMeshVertex
 10
2.543
 20
-6.47
 30
0.0
 70
    64
  0
VERTEX
  5
D38
100
AcDbEntity
  8
0
100
AcDbVertex
100
AcDbPolygonMeshVertex
 10
2.977
 20
-5.92
 30
0.04
 70
    64
  0
VERTEX
  5
D39
100
AcDbEntity
  8
0
100
AcDbVertex
100
AcDbPolygonMeshVertex
 10
2.977
 20
-5.92
 30
0.0
 70
    64
  0
VERTEX
  5
D3A
100
AcDbEntity
  8
0
100
AcDbVertex
100
AcDbPolygonMeshVertex
 10
2.977
 20
-6.47
 30
0.0
 70
    64
  0
VERTEX
  5
D3B
100
AcDbEntity
  8
0
100
AcDbVertex
100
AcDbPolygonMeshVertex
 10
2.977
 20
-5.92
 30
0.04
 70
    64
  0
VERTEX
  5
D3C
100
AcDbEntity
  8
0
100
AcDbVertex
100
AcDbPolygonMeshVertex
 10
2.977
 20
-5.92
 30
0.04
 70
    64
  0
VERTEX
  5
D3D
100
AcDbEntity
  8
0
100
AcDbVertex
100
AcDbPolygonMeshVertex
 10
2.977
 20
-6.47
 30
0.04
 70
    64
  0
VERTEX
  5
D3E
100
AcDbEntity
  8
0
100
AcDbVertex
100
AcDbPolygonMeshVertex
 10
2.543
 20
-5.92
 30
0.04
 70
    64
  0
VERTEX
  5
D3F
100
AcDbEntity
  8
0
100
AcDbVertex
100
AcDbPolygonMeshVertex
 10
2.543
 20
-5.92
 30
0.04
 70
    64
  0
VERTEX
  5
D40
100
AcDbEntity
  8
0
100
AcDbVertex
100
AcDbPolygonMeshVertex
 10
2.543
 20
-6.47
 30
0.04
 70
    64
  0
SEQEND
  5
D41
100
AcDbEntity
  8
0
  0
CIRCLE
  5
D42
100
AcDbEntity
  8
0
100
AcDbCircle
 39
0.04
 10
2.76
 20
-6.22
 30
0.0
 40
0.1085
  0
POINT
  5
D43
100
AcDbEntity
  8
SNAP_POINTS
100
AcDbPoint
 10
2.364994
 20
-5.772975
 30
0.05
  0
POINT
  5
D44
100
AcDbEntity
  8
SNAP_POINTS
100
AcDbPoint
 10
3.739994
 20
-5.772975
 30
0.05
  0
ARC
  5
D45
100
AcDbEntity
  8
0
100
AcDbCircle
 39
0.04
 10
2.76
 20
0.0
 30
0.0
 40
0.1085
100
AcDbArc
 50
356.782733
 51
183.217267
  0
ARC
  5
D46
100
AcDbEntity
  8
0
100
AcDbCircle
 39
0.04
 10
2.76
 20
-0.193538
 30
0.0
 40
0.2165
100
AcDbArc
 50
120.024142
 51
59.975858
  0
LINE
  5
D47
100
AcDbEntity
  8
0
100
AcDbLine
 10
2.543
 20
0.26
 30
0.0
 11
2.443
 21
0.26
 31
0.0
  0
LINE
  5
D48
100
AcDbEntity
  8
0
100
AcDbLine
 10
2.543
 20
0.26
 30
0.04
 11
2.443
 21
0.26
 31
0.04
  0
LINE
  5
D49
100
AcDbEntity
  8
0
100
AcDbLine
 10
3.077
 20
0.26
 30
0.0
 11
2.977
 21
0.26
 31
0.0
  0
POINT
  5
D4A
100
AcDbEntity
  8
DIMS-MTG-HOLES
100
AcDbPoint
 10
0.0
 20
0.0
 30
0.0
  0
POINT
  5
D4B
100
AcDbEntity
  8
DIMS-MTG-HOLES
100
AcDbPoint
 10
0.0
 20
-6.22
 30
0.0
  0
POINT
  5
D4C
100
AcDbEntity
  8
DIMS-MTG-HOLES
100
AcDbPoint
 10
2.76
 20
-6.22
 30
0.0
  0
POINT
  5
D4D
100
AcDbEntity
  8
DIMS-MTG-HOLES
100
AcDbPoint
 10
2.76
 20
0.0
 30
0.0
  0
DIMENSION
  5
D4E
100
AcDbEntity
  8
AREA1
100
AcDbDimension
  2
*D4
 10
5.627967
 20
0.26
 30
0.0
 11
5.627967
 21
-3.105
 31
0.0
 70
    32
  3
ABECAD_3D
100
AcDbAlignedDimension
 13
2.977
 23
-6.47
 33
0.0
 14
2.977
 24
0.26
 34
0.0
 50
90.0
100
AcDbRotatedDimension
  0
DIMENSION
  5
D4F
100
AcDbEntity
  8
AREA1
100
AcDbDimension
  2
*D5
 10
-2.57
 20
1.034043
 30
0.0
 11
0.98
 21
1.034043
 31
0.0
 70
    32
  3
ABECAD_3D
100
AcDbAlignedDimension
 13
4.53
 23
-0.41
 33
0.0
 14
-2.57
 24
-0.41
 34
0.0
100
AcDbRotatedDimension
  0
VIEWPORT
  5
2C
102
{ACAD_XDICTIONARY
360
F48
102
}
100
AcDbEntity
 67
     1
  8
0
100
AcDbViewport
 10
4.999849
 20
3.750155
 30
0.0
 40
13.933522
 41
7.595705
 68
     1
 69
     1
1001
ACAD
1000
MVIEW
1002
{
1070
    16
1010
0.0
1020
0.0
1030
0.0
1010
0.0
1020
0.0
1030
1.0
1040
0.0
1040
7.595705
1040
4.999849
1040
3.750155
1040
50.0
1040
0.0
1040
0.0
1070
     0
1070
   100
1070
     1
1070
     1
1070
     0
1070
     0
1070
     0
1070
     0
1040
0.0
1040
0.0
1040
0.0
1040
1.0
1040
1.0
1040
0.0
1040
0.0
1070
     0
1002
{
1002
}
1002
}
  0
VIEWPORT
  5
2D
102
{ACAD_XDICTIONARY
360
F4A
102
}
100
AcDbEntity
 67
     1
  8
0
100
AcDbViewport
 10
2.5
 20
5.625
 30
0.0
 40
5.0
 41
3.75
 68
     4
 69
     2
1001
ACAD
1000
MVIEW
1002
{
1070
    16
1010
0.0
1020
0.0
1030
0.0
1010
0.0
1020
0.0
1030
1.0
1040
0.0
1040
8.741401
1040
1.028007
1040
-2.962404
1040
50.0
1040
0.0
1040
0.0
1070
     0
1070
   100
1070
     1
1070
     0
1070
     0
1070
     0
1070
     0
1070
     0
1040
0.0
1040
0.0
1040
0.0
1040
1.0
1040
1.0
1040
0.0
1040
0.0
1070
     0
1002
{
1003
AREA2
1002
}
1002
}
  0
VIEWPORT
  5
2E
102
{ACAD_XDICTIONARY
360
F4C
102
}
100
AcDbEntity
 67
     1
  8
0
100
AcDbViewport
 10
2.5
 20
1.875
 30
0.0
 40
5.0
 41
3.75
 68
     3
 69
     3
1001
ACAD
1000
MVIEW
1002
{
1070
    16
1010
0.0
1020
0.0
1030
0.0
1010
0.0
1020
-1.0
1030
0.0
1040
0.0
1040
8.796537
1040
1.028007
1040
2.855
1040
50.0
1040
0.0
1040
0.0
1070
     0
1070
   100
1070
     1
1070
     0
1070
     0
1070
     0
1070
     0
1070
     0
1040
0.0
1040
0.0
1040
0.0
1040
1.0
1040
1.0
1040
0.0
1040
0.0
1070
     0
1002
{
1003
AREA1
1002
}
1002
}
  0
VIEWPORT
  5
2F
102
{ACAD_XDICTIONARY
360
F4E
102
}
100
AcDbEntity
 67
     1
  8
0
100
AcDbViewport
 10
7.5
 20
3.75
 30
0.0
 40
5.0
 41
7.5
 68
     2
 69
     4
1001
ACAD
1000
MVIEW
1002
{
1070
    16
1010
0.0
1020
0.0
1030
0.0
1010
-1.0
1020
-1.0
1030
1.0
1040
0.0
1040
16.047145
1040
3.123737
1040
3.840178
1040
50.0
1040
0.0
1040
0.0
1070
     0
1070
   100
1070
     1
1070
     0
1070
     0
1070
     0
1070
     0
1070
     0
1040
0.0
1040
0.0
1040
0.0
1040
1.0
1040
1.0
1040
0.0
1040
0.0
1070
     0
1002
{
1003
AREA1
1003
AREA2
1002
}
1002
}
  0
TEXT
  5
42D
100
AcDbEntity
 67
     1
  8
0
100
AcDbText
 10
5.253785
 20
7.092701
 30
0.0
 40
0.2
  1
1746-A4
100
AcDbText
  0
TEXT
  5
431
100
AcDbEntity
 67
     1
  8
0
100
AcDbText
 10
5.253785
 20
6.759368
 30
0.0
 40
0.2
  1
1746-A4:4-SLOT RACK,
100
AcDbText
1001
ACAD
1000
R13OBJECT
1002
{
1005
42D
1002
}
  0
TEXT
  5
52E
100
AcDbEntity
 67
     1
  8
0
100
AcDbText
 10
5.240015
 20
6.436423
 30
0.0
 40
0.2
  1
MODULAR HARDWARE STYLE
100
AcDbText
  0
TEXT
  5
52F
100
AcDbEntity
 67
     1
  8
0
100
AcDbText
 10
5.240015
 20
6.10309
 30
0.0
 40
0.2
  1

100
AcDbText
  0
TEXT
  5
530
100
AcDbEntity
 67
     1
  8
0
100
AcDbText
 10
5.240015
 20
5.769757
 30
0.0
 40
0.2
  1

100
AcDbText
  0
ENDSEC
  0
SECTION
  2
OBJECTS
  0
DICTIONARY
  5
46D
100
AcDbDictionary
  3
ACAD_GROUP
350
46E
  3
ACAD_LAYOUT
350
49E
  3
ACAD_MLINESTYLE
350
47B
  3
ACAD_PLOTSETTINGS
350
49F
  3
ACAD_PLOTSTYLENAME
350
49C
  3
ACDBHEADERROUNDTRIPXREC
350
F27
  3
ACDBVARIABLEDICTIONARY
350
48D
  0
DICTIONARY
  5
F25
100
AcDbDictionary
280
     1
  3
ACAD_XREC_ROUNDTRIP
360
F26
  0
DICTIONARY
  5
F52
100
AcDbDictionary
280
     1
  3
ACAD_XREC_ROUNDTRIP
360
F53
  0
DICTIONARY
  5
F54
100
AcDbDictionary
280
     1
  3
ACAD_XREC_ROUNDTRIP
360
F55
  0
DICTIONARY
  5
F56
100
AcDbDictionary
280
     1
  3
ACAD_XREC_ROUNDTRIP
360
F57
  0
DICTIONARY
  5
F5A
100
AcDbDictionary
280
     1
  3
ACAD_XREC_ROUNDTRIP
360
F5B
  0
DICTIONARY
  5
4D2
100
AcDbDictionary
280
     1
  3
ACAD_LAYOUTSELFREF
360
F51
  0
DICTIONARY
  5
4D0
100
AcDbDictionary
280
     1
  3
ACAD_LAYOUTSELFREF
360
F50
  0
DICTIONARY
  5
F23
100
AcDbDictionary
280
     1
  3
ACAD_XREC_ROUNDTRIP
360
F24
  0
DICTIONARY
  5
F48
100
AcDbDictionary
280
     1
  3
ACAD_XREC_ROUNDTRIP
360
F49
  0
DICTIONARY
  5
F4A
100
AcDbDictionary
280
     1
  3
ACAD_XREC_ROUNDTRIP
360
F4B
  0
DICTIONARY
  5
F4C
100
AcDbDictionary
280
     1
  3
ACAD_XREC_ROUNDTRIP
360
F4D
  0
DICTIONARY
  5
F4E
100
AcDbDictionary
280
     1
  3
ACAD_XREC_ROUNDTRIP
360
F4F
  0
DICTIONARY
  5
46E
102
{ACAD_REACTORS
330
46D
102
}
100
AcDbDictionary
  0
DICTIONARY
  5
49E
102
{ACAD_XDICTIONARY
360
F58
102
}
102
{ACAD_REACTORS
330
46D
102
}
100
AcDbDictionary
  3
LAYOUT1
350
4A1
  3
MODEL
350
4A0
  0
DICTIONARY
  5
47B
102
{ACAD_REACTORS
330
46D
102
}
100
AcDbDictionary
  3
STANDARD
350
47C
  0
DICTIONARY
  5
49F
102
{ACAD_REACTORS
330
46D
102
}
100
AcDbDictionary
  0
ACAD_PROXY_OBJECT
  5
49C
102
{ACAD_REACTORS
330
46D
102
}
100
AcDbProxyObject
 90
      499
 91
      501
 93
       86
310
405010041939BDC9B585B1
350
49D
340
49D
 94
        0
  0
DICTIONARY
  5
F27
102
{ACAD_REACTORS
330
46D
102
}
100
AcDbDictionary
  3
CEPSNTYPE
350
F31
  3
DIMSTYLEDATA
350
F35
  3
FINGERPRINTGUID
350
F32
  3
HYPERLINKBASE
350
F2A
  3
INSUNITS
350
F30
  3
LAYOUTDICT
350
F2C
  3
LWETCUNION
350
F2F
  3
PLOTSETDICT
350
F2D
  3
PLOTSTYLNAMDICT
350
F2E
  3
PSVPSCALE
350
F34
  3
PUCSBASE
350
F38
  3
PUCSORGBACK
350
F3E
  3
PUCSORGBOTTOM
350
F3A
  3
PUCSORGFRONT
350
F3D
  3
PUCSORGLEFT
350
F3B
  3
PUCSORGRIGHT
350
F3C
  3
PUCSORGTOP
350
F39
  3
PUCSORTHOREF
350
F36
  3
PUCSORTHOVIEW
350
F37
  3
STYLESHEET
350
F2B
  3
TSTACKALIGN
350
F28
  3
TSTACKSIZE
350
F29
  3
UCSBASE
350
F41
  3
UCSORGBACK
350
F47
  3
UCSORGBOTTOM
350
F43
  3
UCSORGFRONT
350
F46
  3
UCSORGLEFT
350
F44
  3
UCSORGRIGHT
350
F45
  3
UCSORGTOP
350
F42
  3
UCSORTHOREF
350
F3F
  3
UCSORTHOVIEW
350
F40
  3
VERSIONGUID
350
F33
  0
DICTIONARY
  5
48D
102
{ACAD_REACTORS
330
46D
102
}
100
AcDbDictionary
  3
DIMADEC
350
48E
  0
XRECORD
  5
F26
102
{ACAD_REACTORS
330
F25
102
}
100
AcDbXrecord
102
EXTNAMES
  1
*ACTIVE
  2
*Active
102
UCS
 74
     0
 71
     1
 10
0.0
 20
0.0
 30
0.0
 10
1.0
 20
0.0
 30
0.0
 10
0.0
 20
1.0
 30
0.0
146
0.0
 79
     1
102
VIEW
281
     0
  0
XRECORD
  5
F53
102
{ACAD_REACTORS
330
F52
102
}
100
AcDbXrecord
102
PLOTBIT
280
     0
  0
XRECORD
  5
F55
102
{ACAD_REACTORS
330
F54
102
}
100
AcDbXrecord
102
ACADR14ROUNDTRIP
1000
DSTYLE
1002
{
1070
   276
 70
     2
1070
   277
 70
     5
1070
   279
 70
     2
1002
}
  0
XRECORD
  5
F57
102
{ACAD_REACTORS
330
F56
102
}
100
AcDbXrecord
102
ACADR14ROUNDTRIP
1000
DSTYLE
1002
{
1070
   276
 70
     2
1070
   277
 70
     5
1070
   279
 70
     2
1002
}
  0
XRECORD
  5
F5B
102
{ACAD_REACTORS
330
F5A
102
}
100
AcDbXrecord
102
ACADR14ROUNDTRIP
1000
DSTYLE
1002
{
1070
   276
 70
     2
1070
   277
 70
     5
1002
}
  0
XRECORD
  5
F51
102
{ACAD_REACTORS
330
4D2
102
}
100
AcDbXrecord
340
478
  0
XRECORD
  5
F50
102
{ACAD_REACTORS
330
4D0
102
}
100
AcDbXrecord
340
475
  0
XRECORD
  5
F24
102
{ACAD_REACTORS
330
F23
102
}
100
AcDbXrecord
102
EXTNAMES
  1
SCALE
  2
scale
  0
XRECORD
  5
F49
102
{ACAD_REACTORS
330
F48
102
}
100
AcDbXrecord
102
UCS
 74
     0
 71
     1
 10
0.0
 20
0.0
 30
0.0
 10
1.0
 20
0.0
 30
0.0
 10
0.0
 20
1.0
 30
0.0
146
0.0
 79
     0
102
VIEW
281
     0
102
NEWVIEWCONTROL
280
     4
  0
XRECORD
  5
F4B
102
{ACAD_REACTORS
330
F4A
102
}
100
AcDbXrecord
102
UCS
 74
     0
 71
     1
 10
0.0
 20
0.0
 30
0.0
 10
1.0
 20
0.0
 30
0.0
 10
0.0
 20
1.0
 30
0.0
146
0.0
 79
     1
102
VIEW
281
     0
102
NEWVIEWCONTROL
280
     4
  0
XRECORD
  5
F4D
102
{ACAD_REACTORS
330
F4C
102
}
100
AcDbXrecord
102
UCS
 74
     0
 71
     1
 10
0.0
 20
0.0
 30
0.0
 10
1.0
 20
0.0
 30
0.0
 10
0.0
 20
0.0
 30
1.0
146
0.0
 79
     3
102
VIEW
281
     0
102
NEWVIEWCONTROL
280
     4
  0
XRECORD
  5
F4F
102
{ACAD_REACTORS
330
F4E
102
}
100
AcDbXrecord
102
UCS
 74
     0
 71
     1
 10
0.0
 20
0.0
 30
0.0
 10
1.0
 20
0.0
 30
0.0
 10
0.0
 20
1.0
 30
0.0
146
0.0
 79
     0
102
VIEW
281
     0
102
NEWVIEWCONTROL
280
     4
  0
DICTIONARY
  5
F58
100
AcDbDictionary
280
     1
  3
ACAD_XREC_ROUNDTRIP
360
F59
  0
ACAD_PROXY_OBJECT
  5
4A1
102
{ACAD_REACTORS
330
49E
102
}
100
AcDbProxyObject
 90
      499
 91
      503
 93
     2044
310
91D4850204C617365724A65742035303030205365726965732050434C20362C008000000C0BB1B1440000000102F06C510000000000BC1B1440000000002E06C5100000000C0CCFC6A4000000018199D9C501064C6574746572A901406AA427D84144352EEE3F47D11959985D5B1D08148C4D081C195B88185CDCDA59DB9B5
310
95B9D1CCB98DD18A30EDE3B1BBFDBC0FC1D572C8D6D0C833F1A2B3054E9249F0FD074C61796F75743140501A97D7DB4AA43C31EFF91E46EBA53B71EFD1B32A15809809100B2537F8EAD447D02A6A6A00200C0093BD106FC0000F06EE366FABE000008DA0F8A836F44424FF2920002440160B7F435600079000000E46C8BC9E
310
43C0
330
475
330
2C
340
0
340
0
 94
        0
  0
ACAD_PROXY_OBJECT
  5
4A0
102
{ACAD_REACTORS
330
49E
102
}
100
AcDbProxyObject
 90
      499
 91
      503
 93
      924
310
91D4850204C617365724A65742035303030205365726965732050434C20362C01AAAAAAAAA547D11959985D5B1D08148C4D081C195B88185CDCDA59DB9B595B9D1CCB98DD18A69054D6F64656C901A800000000000000000000000000000000000000000000A1000000000000008902A6A6AAAA8
330
478
330
0
340
0
340
0
 94
        0
  0
MLINESTYLE
  5
47C
102
{ACAD_REACTORS
330
47B
102
}
100
AcDbMlineStyle
  2
STANDARD
 70
     0
  3

 62
   256
 51
90.0
 52
90.0
 71
     2
 49
0.5
 62
   256
  6
BYLAYER
 49
-0.5
 62
   256
  6
BYLAYER
  0
ACAD_PROXY_OBJECT
  5
49D
102
{ACAD_REACTORS
330
49C
102
}
100
AcDbProxyObject
 90
      499
 91
      502
 93
        0
 94
        0
  0
XRECORD
  5
F31
102
{ACAD_REACTORS
330
F27
102
}
100
AcDbXrecord
 90
        0
  0
XRECORD
  5
F35
102
{ACAD_REACTORS
330
F27
102
}
100
AcDbXrecord
1000
DSTYLE
1002
{
1070
   276
 70
     2
1070
   277
 70
     5
1070
   279
 70
     2
1002
}
  0
XRECORD
  5
F32
102
{ACAD_REACTORS
330
F27
102
}
100
AcDbXrecord
  1
{6E0CF4B5-225E-11D4-A150-00A0CC3303EC}
  0
XRECORD
  5
F2A
102
{ACAD_REACTORS
330
F27
102
}
100
AcDbXrecord
  1

  0
XRECORD
  5
F30
102
{ACAD_REACTORS
330
F27
102
}
100
AcDbXrecord
 90
        0
  0
XRECORD
  5
F2C
102
{ACAD_REACTORS
330
F27
102
}
100
AcDbXrecord
340
49E
  0
XRECORD
  5
F2F
102
{ACAD_REACTORS
330
F27
102
}
100
AcDbXrecord
 90
    14877
  0
XRECORD
  5
F2D
102
{ACAD_REACTORS
330
F27
102
}
100
AcDbXrecord
340
49F
  0
XRECORD
  5
F2E
102
{ACAD_REACTORS
330
F27
102
}
100
AcDbXrecord
340
49C
  0
XRECORD
  5
F34
102
{ACAD_REACTORS
330
F27
102
}
100
AcDbXrecord
 40
0.0
  0
XRECORD
  5
F38
102
{ACAD_REACTORS
330
F27
102
}
100
AcDbXrecord
340
0
  0
XRECORD
  5
F3E
102
{ACAD_REACTORS
330
F27
102
}
100
AcDbXrecord
 10
0.0
 20
0.0
 30
0.0
  0
XRECORD
  5
F3A
102
{ACAD_REACTORS
330
F27
102
}
100
AcDbXrecord
 10
0.0
 20
0.0
 30
0.0
  0
XRECORD
  5
F3D
102
{ACAD_REACTORS
330
F27
102
}
100
AcDbXrecord
 10
0.0
 20
0.0
 30
0.0
  0
XRECORD
  5
F3B
102
{ACAD_REACTORS
330
F27
102
}
100
AcDbXrecord
 10
0.0
 20
0.0
 30
0.0
  0
XRECORD
  5
F3C
102
{ACAD_REACTORS
330
F27
102
}
100
AcDbXrecord
 10
0.0
 20
0.0
 30
0.0
  0
XRECORD
  5
F39
102
{ACAD_REACTORS
330
F27
102
}
100
AcDbXrecord
 10
0.0
 20
0.0
 30
0.0
  0
XRECORD
  5
F36
102
{ACAD_REACTORS
330
F27
102
}
100
AcDbXrecord
340
0
  0
XRECORD
  5
F37
102
{ACAD_REACTORS
330
F27
102
}
100
AcDbXrecord
 70
     0
  0
XRECORD
  5
F2B
102
{ACAD_REACTORS
330
F27
102
}
100
AcDbXrecord
  1

  0
XRECORD
  5
F28
102
{ACAD_REACTORS
330
F27
102
}
100
AcDbXrecord
 90
        1
  0
XRECORD
  5
F29
102
{ACAD_REACTORS
330
F27
102
}
100
AcDbXrecord
 90
       70
  0
XRECORD
  5
F41
102
{ACAD_REACTORS
330
F27
102
}
100
AcDbXrecord
340
0
  0
XRECORD
  5
F47
102
{ACAD_REACTORS
330
F27
102
}
100
AcDbXrecord
 10
0.0
 20
0.0
 30
0.0
  0
XRECORD
  5
F43
102
{ACAD_REACTORS
330
F27
102
}
100
AcDbXrecord
 10
0.0
 20
0.0
 30
0.0
  0
XRECORD
  5
F46
102
{ACAD_REACTORS
330
F27
102
}
100
AcDbXrecord
 10
0.0
 20
0.0
 30
0.0
  0
XRECORD
  5
F44
102
{ACAD_REACTORS
330
F27
102
}
100
AcDbXrecord
 10
0.0
 20
0.0
 30
0.0
  0
XRECORD
  5
F45
102
{ACAD_REACTORS
330
F27
102
}
100
AcDbXrecord
 10
0.0
 20
0.0
 30
0.0
  0
XRECORD
  5
F42
102
{ACAD_REACTORS
330
F27
102
}
100
AcDbXrecord
 10
0.0
 20
0.0
 30
0.0
  0
XRECORD
  5
F3F
102
{ACAD_REACTORS
330
F27
102
}
100
AcDbXrecord
340
0
  0
XRECORD
  5
F40
102
{ACAD_REACTORS
330
F27
102
}
100
AcDbXrecord
 70
     1
  0
XRECORD
  5
F33
102
{ACAD_REACTORS
330
F27
102
}
100
AcDbXrecord
  1
{991CB374-7B4B-4ACB-B184-97E6AB816B9A}
  0
DICTIONARYVAR
  5
48E
102
{ACAD_REACTORS
330
48D
102
}
100
DictionaryVariables
280
     0
  1
0
  0
XRECORD
  5
F59
102
{ACAD_REACTORS
330
F58
102
}
100
AcDbXrecord
102
EXTNAMES
  1
LAYOUT1
  2
Layout1
  1
MODEL
  2
Model
  0
ENDSEC
  0
EOF
