  0
SECTION
  2
HEADER
  9
$ACADVER
  1
AC1014
  9
$ACADMAINTVER
 70
     9
  9
$DWGCODEPAGE
  3
ANSI_1252
  9
$INSBASE
 10
43.70265361852986
 20
1.223969687590049
 30
-2.85
  9
$EXTMIN
 10
0.3516808355164418
 20
-63.37229103461858
 30
-5.700000000000001
  9
$EXTMAX
 10
87.40530723687518
 20
10.99398289727176
 30
30.5
  9
$LIMMIN
 10
0.0
 20
0.0
  9
$LIMMAX
 10
12.0
 20
9.0
  9
$ORTHOMODE
 70
     0
  9
$REGENMODE
 70
     1
  9
$FILLMODE
 70
     1
  9
$QTEXTMODE
 70
     0
  9
$MIRRTEXT
 70
     1
  9
$DRAGMODE
 70
     2
  9
$LTSCALE
 40
1.0
  9
$OSMODE
 70
    37
  9
$ATTMODE
 70
     1
  9
$TEXTSIZE
 40
0.12
  9
$TRACEWID
 40
0.05
  9
$TEXTSTYLE
  7
STANDARD
  9
$CLAYER
  8
0
  9
$CELTYPE
  6
BYLAYER
  9
$CECOLOR
 62
   256
  9
$CELTSCALE
 40
1.0
  9
$DELOBJ
 70
     1
  9
$DISPSILH
 70
     0
  9
$DIMSCALE
 40
1.0
  9
$DIMASZ
 40
4.572
  9
$DIMEXO
 40
1.587499999999999
  9
$DIMDLI
 40
9.525
  9
$DIMRND
 40
0.0
  9
$DIMDLE
 40
0.0
  9
$DIMEXE
 40
4.572
  9
$DIMTP
 40
0.0
  9
$DIMTM
 40
0.0
  9
$DIMTXT
 40
4.572
  9
$DIMCEN
 40
2.286
  9
$DIMTSZ
 40
0.0
  9
$DIMTOL
 70
     0
  9
$DIMLIM
 70
     0
  9
$DIMTIH
 70
     0
  9
$DIMTOH
 70
     1
  9
$DIMSE1
 70
     0
  9
$DIMSE2
 70
     0
  9
$DIMTAD
 70
     0
  9
$DIMZIN
 70
     4
  9
$DIMBLK
  1

  9
$DIMASO
 70
     1
  9
$DIMSHO
 70
     1
  9
$DIMPOST
  1

  9
$DIMAPOST
  1

  9
$DIMALT
 70
     1
  9
$DIMALTD
 70
     6
  9
$DIMALTF
 40
0.03937
  9
$DIMLFAC
 40
1.0
  9
$DIMTOFL
 70
     0
  9
$DIMTVP
 40
0.0
  9
$DIMTIX
 70
     0
  9
$DIMSOXD
 70
     0
  9
$DIMSAH
 70
     0
  9
$DIMBLK1
  1

  9
$DIMBLK2
  1

  9
$DIMSTYLE
  2
ABECAD_3D
  9
$DIMCLRD
 70
     0
  9
$DIMCLRE
 70
     0
  9
$DIMCLRT
 70
     0
  9
$DIMTFAC
 40
1.5
  9
$DIMGAP
 40
2.286
  9
$DIMJUST
 70
     0
  9
$DIMSD1
 70
     0
  9
$DIMSD2
 70
     0
  9
$DIMTOLJ
 70
     1
  9
$DIMTZIN
 70
     4
  9
$DIMALTZ
 70
     4
  9
$DIMALTTZ
 70
     4
  9
$DIMFIT
 70
     5
  9
$DIMUPT
 70
     1
  9
$DIMUNIT
 70
     2
  9
$DIMDEC
 70
     2
  9
$DIMTDEC
 70
     2
  9
$DIMALTU
 70
     7
  9
$DIMALTTD
 70
     6
  9
$DIMTXSTY
  7
STANDARD
  9
$DIMAUNIT
 70
     0
  9
$LUNITS
 70
     2
  9
$LUPREC
 70
     4
  9
$SKETCHINC
 40
0.1
  9
$FILLETRAD
 40
0.0
  9
$AUNITS
 70
     0
  9
$AUPREC
 70
     0
  9
$MENU
  1
ACAD
  9
$ELEVATION
 40
0.0
  9
$PELEVATION
 40
0.0
  9
$THICKNESS
 40
0.0
  9
$LIMCHECK
 70
     0
  9
$BLIPMODE
 70
     0
  9
$CHAMFERA
 40
0.0
  9
$CHAMFERB
 40
0.0
  9
$CHAMFERC
 40
0.0
  9
$CHAMFERD
 40
0.0
  9
$SKPOLY
 70
     0
  9
$TDCREATE
 40
2451760.428845717
  9
$TDUPDATE
 40
2453137.551612071
  9
$TDINDWG
 40
0.0463435301
  9
$TDUSRTIMER
 40
0.0463435301
  9
$USRTIMER
 70
     1
  9
$ANGBASE
 50
0.0
  9
$ANGDIR
 70
     0
  9
$PDMODE
 70
     3
  9
$PDSIZE
 40
2.5
  9
$PLINEWID
 40
0.0
  9
$COORDS
 70
     1
  9
$SPLFRAME
 70
     1
  9
$SPLINETYPE
 70
     6
  9
$SPLINESEGS
 70
     8
  9
$ATTDIA
 70
     0
  9
$ATTREQ
 70
     1
  9
$HANDLING
 70
 22529
  9
$HANDSEED
  5
45D05
  9
$SURFTAB1
 70
     6
  9
$SURFTAB2
 70
     6
  9
$SURFTYPE
 70
     6
  9
$SURFU
 70
     6
  9
$SURFV
 70
     6
  9
$UCSNAME
  2

  9
$UCSORG
 10
43.70265361852986
 20
1.223969687590049
 30
-2.85
  9
$UCSXDIR
 10
1.0
 20
0.0
 30
0.0
  9
$UCSYDIR
 10
0.0
 20
1.0
 30
0.0
  9
$PUCSNAME
  2

  9
$PUCSORG
 10
0.0
 20
0.0
 30
0.0
  9
$PUCSXDIR
 10
1.0
 20
0.0
 30
0.0
  9
$PUCSYDIR
 10
0.0
 20
1.0
 30
0.0
  9
$USERI1
 70
     0
  9
$USERI2
 70
     0
  9
$USERI3
 70
     0
  9
$USERI4
 70
     0
  9
$USERI5
 70
     0
  9
$USERR1
 40
0.0
  9
$USERR2
 40
0.0
  9
$USERR3
 40
0.0
  9
$USERR4
 40
0.0
  9
$USERR5
 40
0.0
  9
$WORLDVIEW
 70
     1
  9
$SHADEDGE
 70
     3
  9
$SHADEDIF
 70
    70
  9
$TILEMODE
 70
     1
  9
$MAXACTVP
 70
    16
  9
$PINSBASE
 10
0.0
 20
0.0
 30
0.0
  9
$PLIMCHECK
 70
     0
  9
$PEXTMIN
 10
26.66999878883362
 20
20.31999878883362
 30
0.0
  9
$PEXTMAX
 10
240.0299890995025
 20
182.8799890995025
 30
0.0
  9
$PLIMMIN
 10
-6.350006103515625
 20
-6.349999904632568
  9
$PLIMMAX
 10
273.0499877929687
 20
209.5499939918517
  9
$UNITMODE
 70
     0
  9
$VISRETAIN
 70
     0
  9
$PLINEGEN
 70
     0
  9
$PSLTSCALE
 70
     1
  9
$TREEDEPTH
 70
  3020
  9
$PICKSTYLE
 70
     1
  9
$CMLSTYLE
  2
STANDARD
  9
$CMLJUST
 70
     0
  9
$CMLSCALE
 40
1.0
  9
$PROXYGRAPHICS
 70
     1
  9
$MEASUREMENT
 70
     1
  0
ENDSEC
  0
SECTION
  2
CLASSES
  0
CLASS
  1
DICTIONARYVAR
  2
AcDbDictionaryVar
  3
AutoCAD 2000
 90
        0
280
     0
281
     0
  0
CLASS
  1
ACDBDICTIONARYWDFLT
  2
AcDbDictionaryWithDefault
  3
AutoCAD 2000
 90
        0
280
     0
281
     0
  0
CLASS
  1
ACDBPLACEHOLDER
  2
AcDbPlaceHolder
  3
AutoCAD 2000
 90
        0
280
     0
281
     0
  0
CLASS
  1
LAYOUT
  2
AcDbLayout
  3
AutoCAD 2000
 90
        0
280
     0
281
     0
  0
CLASS
  1
LONG_TRANSACTION
  2
AcDbLongTransaction
  3
AutoCAD 2000
 90
        0
280
     0
281
     0
  0
CLASS
  1
LWPOLYLINE
  2
AcDbPolyline
  3
AutoCAD 2000
 90
        0
280
     0
281
     1
  0
CLASS
  1
HATCH
  2
AcDbHatch
  3
AutoCAD 2000
 90
        0
280
     0
281
     1
  0
CLASS
  1
XRECORD
  2
AcDbXrecord
  3
AutoCAD 2000
 90
        0
280
     0
281
     0
  0
CLASS
  1
LONG_TRANSACTION
  2
AcDbLongTransaction
  3
AutoCAD 2000
 90
        0
280
     0
281
     0
  0
CLASS
  1
LWPOLYLINE
  2
AcDbPolyline
  3
AutoCAD 2000
 90
        0
280
     0
281
     1
  0
CLASS
  1
HATCH
  2
AcDbHatch
  3
AutoCAD 2000
 90
        0
280
     0
281
     1
  0
CLASS
  1
XRECORD
  2
AcDbXrecord
  3
AutoCAD 2000
 90
        0
280
     0
281
     0
  0
CLASS
  1
LONG_TRANSACTION
  2
AcDbLongTransaction
  3
AutoCAD 2000
 90
        0
280
     0
281
     0
  0
CLASS
  1
LWPOLYLINE
  2
AcDbPolyline
  3
AutoCAD 2000
 90
        0
280
     0
281
     1
  0
CLASS
  1
HATCH
  2
AcDbHatch
  3
AutoCAD 2000
 90
        0
280
     0
281
     1
  0
CLASS
  1
XRECORD
  2
AcDbXrecord
  3
AutoCAD 2000
 90
        0
280
     0
281
     0
  0
CLASS
  1
TABLESTYLE
  2
AcDbTableStyle
  3
ObjectDBX Classes
 90
     2047
280
     0
281
     0
  0
CLASS
  1
SORTENTSTABLE
  2
AcDbSortentsTable
  3
AutoCAD 2000
 90
        0
280
     0
281
     0
  0
CLASS
  1
ACAD_PROXY_OBJECT_WRAPPER
  2
AcDbProxyObjectWrapper
  3
AutoCAD 2000
 90
        0
280
     0
281
     0
  0
CLASS
  1
LONG_TRANSACTION
  2
AcDbLongTransaction
  3
AutoCAD 2000
 90
        0
280
     0
281
     0
  0
CLASS
  1
LWPOLYLINE
  2
AcDbPolyline
  3
AutoCAD 2000
 90
        0
280
     0
281
     1
  0
CLASS
  1
HATCH
  2
AcDbHatch
  3
AutoCAD 2000
 90
        0
280
     0
281
     1
  0
CLASS
  1
XRECORD
  2
AcDbXrecord
  3
AutoCAD 2000
 90
        0
280
     0
281
     0
  0
CLASS
  1
LONG_TRANSACTION
  2
AcDbLongTransaction
  3
AutoCAD 2000
 90
        0
280
     0
281
     0
  0
CLASS
  1
LWPOLYLINE
  2
AcDbPolyline
  3
AutoCAD 2000
 90
        0
280
     0
281
     1
  0
CLASS
  1
HATCH
  2
AcDbHatch
  3
AutoCAD 2000
 90
        0
280
     0
281
     1
  0
CLASS
  1
XRECORD
  2
AcDbXrecord
  3
AutoCAD 2000
 90
        0
280
     0
281
     0
  0
CLASS
  1
LONG_TRANSACTION
  2
AcDbLongTransaction
  3
AutoCAD 2000
 90
        0
280
     0
281
     0
  0
CLASS
  1
LWPOLYLINE
  2
AcDbPolyline
  3
AutoCAD 2000
 90
        0
280
     0
281
     1
  0
CLASS
  1
HATCH
  2
AcDbHatch
  3
AutoCAD 2000
 90
        0
280
     0
281
     1
  0
CLASS
  1
XRECORD
  2
AcDbXrecord
  3
AutoCAD 2000
 90
        0
280
     0
281
     0
  0
ENDSEC
  0
SECTION
  2
TABLES
  0
TABLE
  2
VPORT
  5
458C7
330
0
100
AcDbSymbolTable
 70
     2
  0
VPORT
  5
45CE1
330
458C7
100
AcDbSymbolTableRecord
100
AcDbViewportTableRecord
  2
*ACTIVE
 70
     0
 10
0.0
 20
0.0
 11
1.0
 21
1.0
 12
5.125594095863789
 22
3.552328079022558
 13
0.0
 23
0.0
 14
0.25
 24
0.25
 15
0.25
 25
0.25
 16
0.0
 26
0.0
 36
1.0
 17
38.75377486314018
 27
-29.74148197454848
 37
15.62101925152382
 40
75.09169314321969
 41
1.83009708737864
 42
50.0
 43
0.0
 44
0.0
 50
0.0
 51
0.0
 71
     0
 72
 20000
 73
     1
 74
     1
 75
     0
 76
     0
 77
     0
 78
     0
  0
ENDTAB
  0
TABLE
  2
LTYPE
  5
458C4
330
0
100
AcDbSymbolTable
 70
     1
  0
LTYPE
  5
458D0
330
458C4
100
AcDbSymbolTableRecord
100
AcDbLinetypeTableRecord
  2
BYBLOCK
 70
     0
  3

 72
    65
 73
     0
 40
0.0
  0
LTYPE
  5
458D1
330
458C4
100
AcDbSymbolTableRecord
100
AcDbLinetypeTableRecord
  2
BYLAYER
 70
     0
  3

 72
    65
 73
     0
 40
0.0
  0
LTYPE
  5
458D2
330
458C4
100
AcDbSymbolTableRecord
100
AcDbLinetypeTableRecord
  2
CONTINUOUS
 70
     0
  3
Solid line
 72
    65
 73
     0
 40
0.0
  0
ENDTAB
  0
TABLE
  2
LAYER
  5
458C1
330
0
100
AcDbSymbolTable
 70
     8
  0
LAYER
  5
458CD
330
458C1
100
AcDbSymbolTableRecord
100
AcDbLayerTableRecord
  2
0
 70
     0
 62
     7
  6
CONTINUOUS
  0
LAYER
  5
458EA
330
458C1
100
AcDbSymbolTableRecord
100
AcDbLayerTableRecord
  2
DIMS-MTG-HOLES
 70
     0
 62
     1
  6
CONTINUOUS
  0
LAYER
  5
458EB
330
458C1
100
AcDbSymbolTableRecord
100
AcDbLayerTableRecord
  2
ATTRIBUTES
 70
     0
 62
     7
  6
CONTINUOUS
  0
LAYER
  5
4593F
330
458C1
100
AcDbSymbolTableRecord
100
AcDbLayerTableRecord
  2
AREA1
 70
     0
 62
    -7
  6
CONTINUOUS
  0
LAYER
  5
45946
330
458C1
100
AcDbSymbolTableRecord
100
AcDbLayerTableRecord
  2
DEFPOINTS
 70
     0
 62
    -7
  6
CONTINUOUS
  0
LAYER
  5
45972
330
458C1
100
AcDbSymbolTableRecord
100
AcDbLayerTableRecord
  2
SCALE
 70
     0
 62
    -7
  6
CONTINUOUS
  0
LAYER
  5
4597A
330
458C1
100
AcDbSymbolTableRecord
100
AcDbLayerTableRecord
  2
SNAP_POINTS
 70
     0
 62
    -1
  6
CONTINUOUS
  0
LAYER
  5
459D2
330
458C1
100
AcDbSymbolTableRecord
100
AcDbLayerTableRecord
  2
AREA2
 70
     0
 62
    -7
  6
CONTINUOUS
  0
ENDTAB
  0
TABLE
  2
STYLE
  5
458C2
330
0
100
AcDbSymbolTable
 70
     1
  0
STYLE
  5
458CE
330
458C2
100
AcDbSymbolTableRecord
100
AcDbTextStyleTableRecord
  2
STANDARD
 70
     0
 40
0.0
 41
1.0
 50
0.0
 71
     0
 42
0.12
  3
txt
  4

  0
ENDTAB
  0
TABLE
  2
VIEW
  5
458C5
330
0
100
AcDbSymbolTable
 70
     0
  0
ENDTAB
  0
TABLE
  2
UCS
  5
458C6
330
0
100
AcDbSymbolTable
 70
     0
  0
ENDTAB
  0
TABLE
  2
APPID
  5
458C8
330
0
100
AcDbSymbolTable
 70
     1
  0
APPID
  5
458CF
330
458C8
100
AcDbSymbolTableRecord
100
AcDbRegAppTableRecord
  2
ACAD
 70
     0
  0
ENDTAB
  0
TABLE
  2
DIMSTYLE
  5
458C9
330
0
100
AcDbSymbolTable
 70
     2
  0
DIMSTYLE
105
458F6
102
{ACAD_REACTORS
330
45A4C
330
45A64
330
45BC9
102
}
330
458C9
100
AcDbSymbolTableRecord
100
AcDbDimStyleTableRecord
  2
ABECAD_3D
 70
     0
  3

  4

  5

  6

  7

 40
1.0
 41
4.572
 42
1.587499999999999
 43
9.525
 44
4.572
 45
0.0
 46
0.0
 47
0.0
 48
0.0
140
4.572
141
2.286
142
0.0
143
0.03937
144
1.0
145
0.0
146
1.5
147
2.286
 71
     0
 72
     0
 73
     0
 74
     1
 75
     0
 76
     0
 77
     0
 78
     4
170
     1
171
     6
172
     0
173
     0
174
     0
175
     0
176
     0
177
     0
178
     0
270
     2
271
     2
272
     2
273
     7
274
     6
340
458CE
275
     0
280
     0
281
     0
282
     0
283
     1
284
     4
285
     4
286
     4
287
     5
288
     1
  0
DIMSTYLE
105
459E0
330
458C9
100
AcDbSymbolTableRecord
100
AcDbDimStyleTableRecord
  2
STANDARD
 70
     0
  3

  4

  5

  6

  7

 40
1.0
 41
0.18
 42
0.0625
 43
0.38
 44
0.18
 45
0.0
 46
0.0
 47
0.0
 48
0.0
140
0.18
141
0.09
142
0.0
143
25.4
144
1.0
145
0.0
146
1.0
147
0.09
 71
     0
 72
     0
 73
     1
 74
     1
 75
     0
 76
     0
 77
     0
 78
     0
170
     0
171
     2
172
     0
173
     0
174
     0
175
     0
176
     0
177
     0
178
     0
270
     2
271
     4
272
     4
273
     2
274
     2
340
458CE
275
     0
280
     0
281
     0
282
     0
283
     1
284
     0
285
     0
286
     0
287
     3
288
     0
  0
ENDTAB
  0
TABLE
  2
BLOCK_RECORD
  5
458C0
330
0
100
AcDbSymbolTable
 70
     3
  0
BLOCK_RECORD
  5
458D6
102
{ACAD_XDICTIONARY
360
45930
102
}
330
458C0
100
AcDbSymbolTableRecord
100
AcDbBlockTableRecord
  2
*MODEL_SPACE
  0
BLOCK_RECORD
  5
458D3
102
{ACAD_XDICTIONARY
360
4592E
102
}
330
458C0
100
AcDbSymbolTableRecord
100
AcDbBlockTableRecord
  2
*PAPER_SPACE
  0
BLOCK_RECORD
  5
45A4D
330
458C0
100
AcDbSymbolTableRecord
100
AcDbBlockTableRecord
  2
*D0
  0
BLOCK_RECORD
  5
45A65
330
458C0
100
AcDbSymbolTableRecord
100
AcDbBlockTableRecord
  2
*D1
  0
BLOCK_RECORD
  5
45BCA
330
458C0
100
AcDbSymbolTableRecord
100
AcDbBlockTableRecord
  2
*D2
  0
ENDTAB
  0
ENDSEC
  0
SECTION
  2
BLOCKS
  0
BLOCK
  5
458DF
330
458D6
100
AcDbEntity
  8
0
100
AcDbBlockBegin
  2
*MODEL_SPACE
 70
     0
 10
0.0
 20
0.0
 30
0.0
  3
*MODEL_SPACE
  1

  0
ENDBLK
  5
458E0
330
458D6
100
AcDbEntity
  8
0
100
AcDbBlockEnd
  0
BLOCK
  5
458DD
330
458D3
100
AcDbEntity
 67
     1
  8
0
100
AcDbBlockBegin
  2
*PAPER_SPACE
 70
     0
 10
0.0
 20
0.0
 30
0.0
  3
*PAPER_SPACE
  1

  0
ENDBLK
  5
458DE
330
458D3
100
AcDbEntity
 67
     1
  8
0
100
AcDbBlockEnd
  0
BLOCK
  5
45A58
330
45A4D
100
AcDbEntity
  8
0
100
AcDbBlockBegin
  2
*D0
 70
     1
 10
0.0
 20
0.0
 30
0.0
  3
*D0
  1

  0
LINE
  5
45C08
330
45A4D
100
AcDbEntity
  8
AREA1
 62
     0
100
AcDbLine
 10
42.20265361852987
 20
2.81146968756891
 30
0.0
 11
42.20265361852987
 21
8.643515565303797
 31
0.0
  0
LINE
  5
45C09
330
45A4D
100
AcDbEntity
  8
AREA1
 62
     0
100
AcDbLine
 10
43.70265361852986
 20
2.811469687565791
 30
0.0
 11
43.70265361852986
 21
8.643515565303797
 31
0.0
  0
LINE
  5
45C0A
330
45A4D
100
AcDbEntity
  8
AREA1
 62
     0
100
AcDbLine
 10
40.20265361852986
 20
4.071515565303798
 30
0.0
 11
38.20265361852986
 21
4.071515565303798
 31
0.0
  0
LINE
  5
45C0B
330
45A4D
100
AcDbEntity
  8
AREA1
 62
     0
100
AcDbLine
 10
45.70265361852986
 20
4.071515565303798
 30
0.0
 11
47.70265361852986
 21
4.071515565303798
 31
0.0
  0
MTEXT
  5
45C0C
330
45A4D
100
AcDbEntity
  8
AREA1
 62
     0
100
AcDbMText
 10
43.1629186434714
 20
9.993982897271763
 30
0.0
 40
2.0
 41
0.0
 71
     5
 72
     1
  1
\A1;1.50 [1/16]
1001
ACAD
1000
MTEXTBEGIN
1070
    73
1070
     1
1070
    44
1040
1.0
1070
    74
1070
     0
1000
MTEXTEND
  0
SOLID
  5
45C0D
330
45A4D
100
AcDbEntity
  8
AREA1
 62
     0
100
AcDbTrace
 10
40.20265361852986
 20
4.404848898637131
 30
0.0
 11
40.20265361852986
 21
3.738182231970464
 31
0.0
 12
42.20265361852987
 22
4.071515565303798
 32
0.0
 13
42.20265361852987
 23
4.071515565303798
 33
0.0
  0
SOLID
  5
45C0E
330
45A4D
100
AcDbEntity
  8
AREA1
 62
     0
100
AcDbTrace
 10
45.70265361852986
 20
4.404848898637131
 30
0.0
 11
45.70265361852986
 21
3.738182231970464
 31
0.0
 12
43.70265361852986
 22
4.071515565303798
 32
0.0
 13
43.70265361852986
 23
4.071515565303798
 33
0.0
  0
POINT
  5
45C0F
330
45A4D
100
AcDbEntity
  8
DEFPOINTS
 62
     0
100
AcDbPoint
 10
42.20265361852987
 20
1.22396968756891
 30
-1.000587891418945
  0
POINT
  5
45C10
330
45A4D
100
AcDbEntity
  8
DEFPOINTS
 62
     0
100
AcDbPoint
 10
43.70265361852986
 20
1.223969687565791
 30
-1.000587891418945
  0
POINT
  5
45C11
330
45A4D
100
AcDbEntity
  8
DEFPOINTS
 62
     0
100
AcDbPoint
 10
43.70265361852986
 20
4.071515565303798
 30
0.0
  0
ENDBLK
  5
45A59
330
45A4D
100
AcDbEntity
  8
0
100
AcDbBlockEnd
  0
BLOCK
  5
45A6F
330
45A65
100
AcDbEntity
  8
0
100
AcDbBlockBegin
  2
*D1
 70
     1
 10
0.0
 20
0.0
 30
0.0
  3
*D1
  1

  0
LINE
  5
45C12
330
45A65
100
AcDbEntity
  8
AREA1
 62
     0
100
AcDbLine
 10
45.29015361852986
 20
1.223969687597364
 30
0.0
 11
53.15242135427546
 21
1.223969687597361
 31
0.0
  0
LINE
  5
45C13
330
45A65
100
AcDbEntity
  8
AREA1
 62
     0
100
AcDbLine
 10
45.29015361841336
 20
-54.77603031240995
 30
0.0
 11
53.15242135427545
 21
-54.77603031240996
 31
0.0
  0
LINE
  5
45C14
330
45A65
100
AcDbEntity
  8
AREA1
 62
     0
100
AcDbLine
 10
48.58042135427546
 20
-0.776030312402637
 30
0.0
 11
48.58042135427546
 21
-9.548279175331462
 31
0.0
  0
LINE
  5
45C15
330
45A65
100
AcDbEntity
  8
AREA1
 62
     0
100
AcDbLine
 10
48.58042135427545
 20
-52.77603031240996
 30
0.0
 11
48.58042135427545
 21
-39.45361250866479
 31
0.0
  0
MTEXT
  5
45C16
330
45A65
100
AcDbEntity
  8
AREA1
 62
     0
100
AcDbMText
 10
48.58042135427545
 20
-24.50094584199812
 30
0.0
 40
2.0
 41
0.0
 71
     5
 72
     1
  1
\A1;56.00 [2 13/64]
 11
0.0000000000000001
 21
1.0
 31
0.0
1001
ACAD
1000
MTEXTBEGIN
1070
    73
1070
     1
1070
    44
1040
1.0
1070
    74
1070
     0
1000
MTEXTEND
  0
SOLID
  5
45C17
330
45A65
100
AcDbEntity
  8
AREA1
 62
     0
100
AcDbTrace
 10
48.24708802094213
 20
-0.7760303124026369
 30
0.0
 11
48.9137546876088
 21
-0.7760303124026371
 31
0.0
 12
48.58042135427546
 22
1.223969687597362
 32
0.0
 13
48.58042135427546
 23
1.223969687597362
 33
0.0
  0
SOLID
  5
45C18
330
45A65
100
AcDbEntity
  8
AREA1
 62
     0
100
AcDbTrace
 10
48.24708802094211
 20
-52.77603031240996
 30
0.0
 11
48.91375468760879
 21
-52.77603031240996
 31
0.0
 12
48.58042135427545
 22
-54.77603031240996
 32
0.0
 13
48.58042135427545
 23
-54.77603031240996
 33
0.0
  0
POINT
  5
45C19
330
45A65
100
AcDbEntity
  8
DEFPOINTS
 62
     0
100
AcDbPoint
 10
43.70265361852986
 20
1.223969687597364
 30
-1.000587891380485
  0
POINT
  5
45C1A
330
45A65
100
AcDbEntity
  8
DEFPOINTS
 62
     0
100
AcDbPoint
 10
43.70265361841336
 20
-54.77603031240995
 30
-2.85
  0
POINT
  5
45C1B
330
45A65
100
AcDbEntity
  8
DEFPOINTS
 62
     0
100
AcDbPoint
 10
48.58042135427545
 20
-54.77603031240996
 30
0.0
  0
ENDBLK
  5
45A70
330
45A65
100
AcDbEntity
  8
0
100
AcDbBlockEnd
  0
BLOCK
  5
45BD4
330
45BCA
100
AcDbEntity
  8
0
100
AcDbBlockBegin
  2
*D2
 70
     1
 10
0.0
 20
0.0
 30
0.0
  3
*D2
  1

  0
LINE
  5
45BF4
330
45BCA
100
AcDbEntity
  8
AREA2
 62
     0
100
AcDbLine
 10
44.72419048420994
 20
30.5
 30
0.0
 11
63.37229103461858
 21
30.5
 31
0.0
  0
LINE
  5
45BF5
330
45BCA
100
AcDbEntity
  8
AREA2
 62
     0
100
AcDbLine
 10
56.36353031240996
 20
-2.850000000000001
 30
0.0
 11
63.37229103461857
 21
-2.850000000000003
 31
0.0
  0
LINE
  5
45BF6
330
45BCA
100
AcDbEntity
  8
AREA2
 62
     0
100
AcDbLine
 10
58.80029103461858
 20
28.5
 30
0.0
 11
58.80029103461858
 21
27.62479405137825
 31
0.0
  0
LINE
  5
45BF7
330
45BCA
100
AcDbEntity
  8
AREA2
 62
     0
100
AcDbLine
 10
58.80029103461857
 20
-0.8500000000000021
 30
0.0
 11
58.80029103461857
 21
-0.2805392819550778
 31
0.0
  0
MTEXT
  5
45BF8
330
45BCA
100
AcDbEntity
  8
AREA2
 62
     0
100
AcDbMText
 10
58.80029103461857
 20
13.67212738471159
 30
0.0
 40
2.0
 41
0.0
 71
     5
 72
     1
  1
\A1;33.35 [1 5/16]
 11
0.0000000000000001
 21
1.0
 31
0.0
1001
ACAD
1000
MTEXTBEGIN
1070
    73
1070
     1
1070
    44
1040
1.0
1070
    74
1070
     0
1000
MTEXTEND
  0
SOLID
  5
45BF9
330
45BCA
100
AcDbEntity
  8
AREA2
 62
     0
100
AcDbTrace
 10
58.46695770128524
 20
28.5
 30
0.0
 11
59.13362436795191
 21
28.5
 31
0.0
 12
58.80029103461858
 22
30.5
 32
0.0
 13
58.80029103461858
 23
30.5
 33
0.0
  0
SOLID
  5
45BFA
330
45BCA
100
AcDbEntity
  8
AREA2
 62
     0
100
AcDbTrace
 10
58.46695770128523
 20
-0.8500000000000019
 30
0.0
 11
59.1336243679519
 21
-0.8500000000000021
 31
0.0
 12
58.80029103461857
 22
-2.850000000000001
 32
0.0
 13
58.80029103461857
 23
-2.850000000000001
 33
0.0
  0
POINT
  5
45BFB
330
45BCA
100
AcDbEntity
  8
DEFPOINTS
 62
     0
100
AcDbPoint
 10
43.13669048420995
 20
30.5
 30
-43.70265361843759
  0
POINT
  5
45BFC
330
45BCA
100
AcDbEntity
  8
DEFPOINTS
 62
     0
100
AcDbPoint
 10
54.77603031240995
 20
-2.85
 30
-43.70265361841336
  0
POINT
  5
45BFD
330
45BCA
100
AcDbEntity
  8
DEFPOINTS
 62
     0
100
AcDbPoint
 10
58.80029103461857
 20
-2.850000000000001
 30
0.0
  0
ENDBLK
  5
45BD5
330
45BCA
100
AcDbEntity
  8
0
100
AcDbBlockEnd
  0
ENDSEC
  0
SECTION
  2
ENTITIES
  0
ATTDEF
  5
1
330
458D6
100
AcDbEntity
  8
ATTRIBUTES
100
AcDbText
 10
42.24666542111932
 20
-26.49877889789167
 30
-2.846813029840858
 40
0.1101860314508167
  1
ALLEN-BRADLEY
100
AcDbAttributeDefinition
  3
MANUFACTURER NAME?
  2
AC_VND_LABEL
 70
     1
  0
ATTDEF
  5
2
330
458D6
100
AcDbEntity
  8
ATTRIBUTES
100
AcDbText
 10
42.24666542111932
 20
-26.72833313008087
 30
-2.846813029840858
 40
0.1101860314508167
  1
1492-EBJ3
100
AcDbAttributeDefinition
  3
CATALOG NUMBER?
  2
AC_PART_NO
 70
     1
  0
ATTDEF
  5
3
330
458D6
100
AcDbEntity
  8
ATTRIBUTES
100
AcDbText
 10
42.24666542111932
 20
-26.95788736227007
 30
-2.846813029840858
 40
0.1101860314508167
  1
End Barrier
100
AcDbAttributeDefinition
  3
PART DESCRIPTION?
  2
AC_DESCRIPTION
 70
     1
  0
ATTDEF
  5
4
330
458D6
100
AcDbEntity
  8
ATTRIBUTES
100
AcDbText
 10
42.24666542111932
 20
-27.18744159445927
 30
-2.846813029840858
 40
0.1101860314508167
  1

100
AcDbAttributeDefinition
  3
DEVICE ID?
  2
DEVICE_ID
 70
     1
  0
ATTDEF
  5
5
330
458D6
100
AcDbEntity
  8
ATTRIBUTES
100
AcDbText
 10
42.24666542111932
 20
-27.41699582664848
 30
-2.846813029840858
 40
0.1101860314508167
  1

100
AcDbAttributeDefinition
  3
CUSTOMER PART NUMBER?
  2
AC_CPART_NO
 70
     1
  0
ATTDEF
  5
6
330
458D6
100
AcDbEntity
  8
ATTRIBUTES
100
AcDbText
 10
42.24666542111932
 20
-27.64655005883768
 30
-2.846813029840858
 40
0.1101860314508167
  1

100
AcDbAttributeDefinition
  3
CUSTOMER NOTE?
  2
AC_NOTE
 70
     1
  0
ATTDEF
  5
7
330
458D6
100
AcDbEntity
  8
ATTRIBUTES
100
AcDbText
 10
42.24666542111932
 20
-27.87610429102688
 30
-2.846813029840858
 40
0.1101860314508167
  1

100
AcDbAttributeDefinition
  3
FASTENER DATA?
  2
FASTENER
 70
     1
  0
ATTDEF
  5
8
330
458D6
100
AcDbEntity
  8
ATTRIBUTES
100
AcDbText
 10
42.24666542111932
 20
-28.10565852321608
 30
-2.846813029840858
 40
0.1101860314508167
  1
MM
100
AcDbAttributeDefinition
  3
UNIT OF SCALE?
  2
AC_SCALE_UNIT
 70
     1
  0
ATTDEF
  5
9
330
458D6
100
AcDbEntity
  8
ATTRIBUTES
100
AcDbText
 10
42.24666542111932
 20
-28.33521275540528
 30
-2.846813029840858
 40
0.1101860314508167
  1
0
100
AcDbAttributeDefinition
  3
VIEW CODE?
  2
AC_VIEW_CODE
 70
     1
  0
LINE
  5
45967
330
458D6
100
AcDbEntity
  8
SCALE
100
AcDbLine
 10
2.057631564008595
 20
-20.58353988219963
 30
-2.85
 11
27.45763156400859
 21
-20.58353988219963
 31
-2.85
  0
LINE
  5
45968
330
458D6
100
AcDbEntity
  8
SCALE
100
AcDbLine
 10
27.45763156400859
 20
-23.12353988219963
 30
-2.85
 11
27.45763156400859
 21
-18.0435398821996
 31
-2.85
  0
LINE
  5
4596A
330
458D6
100
AcDbEntity
  8
SCALE
100
AcDbLine
 10
2.057631564008595
 20
-23.12353988219963
 30
-2.85
 11
2.057631564008595
 21
-18.0435398821996
 31
-2.85
  0
LINE
  5
4596B
330
458D6
100
AcDbEntity
  8
SCALE
100
AcDbLine
 10
2.057631564008683
 20
-15.39711614490639
 30
-2.85
 11
2.057631564008683
 21
-10.31711614490641
 31
-2.85
  0
LINE
  5
4596C
330
458D6
100
AcDbEntity
  8
SCALE
100
AcDbLine
 10
12.05761156400868
 20
-15.39711614490639
 30
-2.85
 11
12.05761156400868
 21
-10.31711614490641
 31
-2.85
  0
LINE
  5
4596D
330
458D6
100
AcDbEntity
  8
SCALE
100
AcDbLine
 10
2.057631564008683
 20
-12.8571161449064
 30
-2.85
 11
12.05761156400868
 21
-12.8571161449064
 31
-2.85
  0
TEXT
  5
4596E
330
458D6
100
AcDbEntity
  8
SCALE
100
AcDbText
 10
3.566954304782544
 20
-11.6953291549439
 30
-2.85
 40
1.587499999999999
  1
10 mm
100
AcDbText
  0
TEXT
  5
4596F
330
458D6
100
AcDbEntity
  8
SCALE
100
AcDbText
 10
9.655524297096594
 20
-18.82970301972032
 30
-2.85
 40
1.587499999999999
  1
[1 Inch]
100
AcDbText
  0
TEXT
  5
45970
330
458D6
100
AcDbEntity
  8
SCALE
100
AcDbText
 10
1.863715644137954
 20
-7.323578530054529
 30
-2.85
 40
1.587499999999999
  1
SCALE:
100
AcDbText
  0
3DSOLID
  5
45A4B
330
458D6
100
AcDbEntity
  8
0
100
AcDbModelerGeometry
 70
     1
  1
noi mno n o         
  1
=0;& {n {m {rn {rn |
  1
-:9@)+r3(;r>++-6= {rn {rn {rn {o {l {k |
  1
3*2/ {j {rn {i {o |
  1
-:961:2:1+ {rn o o o o oqnhnonhlllgijnijhn lo o o m o |
  1
):-+:'@+:2/3>+: {rn l o n g |
  1
-:9@)+r3(;r>++-6= {rn {rn {rn {m {l {k |
  1
,7:33 {h {rn {rn {g {m |
  1
-:9@)+r3(;r>++-6= {rn {rn {rn {i {l {k |
  1
9><: {f {no {nn {i {rn {nm -:):-,:; ,6183: |
  1
92:,7r3(;r>++-6= {rn {nl {rn {g |
  1
9><: {nk {nj {ni {i {rn {nh 90-(>-; ,6183: |
  1
300/ {rn {rn {ng {g |
  1
/3>1:r,*-9><: {rn klqhomijlingkohjjm rjhqjhiololnmklfgf lmqnihkffffffffffh rn mqogomfhjkfgfohiih:ronm mqmmokkiokfmjolnln:roni rmqogomfhjkfgfohiih:ronm rn o o V V V V |
  1
-:9@)+r3(;r>++-6= {rn {rn {f {g {l {k |
  1
92:,7r3(;r>++-6= {rn {nf {rn {no |
  1
9><: {mo {mn {mm {i {rn {ml -:):-,:; ,6183: |
  1
300/ {rn {rn {mk {no |
  1
/3>1:r,*-9><: {rn kmqmomijlingkohjjm rjhqjhiololnmklihhn lmqnihkffffffffffh rn mqogomfhjkfgfohiih:ronm mqmmokkiokfmjolnln:roni rmqogomfhjkfgfohiih:ronm rn o o V V V V |
  1
<0:;8: {rn {mj {mi {mh {mg n {nn {rn |
  1
-:9@)+r3(;r>++-6= {rn {rn {nk {no {l {k |
  1
92:,7r3(;r>++-6= {rn {mf {rn {nj |
  1
9><: {lo {ln {lm {i {rn {ll -:):-,:; ,6183: |
  1
300/ {rn {rn {lk {nj |
  1
<01:r,*-9><: {rn klqhhhijlingjkfhlj noqhhlmolfgjlgfggk noqilngfljklmoooom rn mqogomfhjkfgfohiih:ronm mqmmokkiokfmjolnln:roni lqnmogkijfhmfomhnj:ronn njqoonhfjikkoflmon nqmoljgfkolhifjjlk n V V o n o V V V V |
  1
<0:;8: {rn {lj {li {lh {lg n {ni {rn |
  1
<0:;8: {rn {lf {ng {ko {kn n {nn {rn |
  1
<0:;8: {rn {ng {km {lk {kl o {nn {rn |
  1
<0:;8: {rn {kk {kj {ng {mg o {ki {rn |
  1
:;8: {kh {kg {kf {ng {jo o |
  1
-:9@)+r3(;r>++-6= {rn {rn {mo {nj {l {k |
  1
92:,7r3(;r>++-6= {rn {jn {rn {mn |
  1
9><: {jm {jl {jk {i {rn {jj 90-(>-; ,6183: |
  1
300/ {rn {rn {ji {mn |
  1
/3>1:r,*-9><: {rn kmqnmhijlingjmfgim nqmmlfifighjflllnf rmqfkmkhoiojkmgkffj rmqogomfhjkfgfohiih:ronm rn o n rmqogomfhjkfgfohiih:ronm rmqmmokkiokfmjolnln:roni o V V V V |
  1
<0:;8: {rn {jh {jg {mi {kl n {mm {rn |
  1
<0:;8: {rn {jf {mk {io {in o {ni {rn |
  1
<0:;8: {rn {mk {im {il {ik o {ni {rn |
  1
<0:;8: {rn {jg {jh {mk {lg o {mm {rn |
  1
:;8: {ij {ii {ih {mk {ig o |
  1
<0:;8: {rn {if {mj {ho {hn n {nn {rn |
  1
<0:;8: {rn {hm {hl {mj {kn o {hk {rn |
  1
:;8: {hj {hi {kg {mj {hh o |
  1
<0:;8: {rn {mi {hg {hf {go n {nn {rn |
  1
:;8: {gn {gm {kf {mi {gl o |
  1
<0:;8: {rn {il {mh {jg {gk o {ki {rn |
  1
<0:;8: {rn {mh {il {hm {gj n {ki {rn |
  1
300/ {rn {rn {kk {gi |
  1
/+36,+r3(;r>++-6= {rn {rn {rn {mg |
  1
):-+:' {rn {mg {gh |
  1
):-+:' {rn {mg {gg |
  1
,+->687+r<*-): {rn klqhomijlingjojiik rnoqknjlhonkoinkgfh loqkffffffffffjojn nqkhofmmofohhlmhii:ronm oqhohnoihgnngijkhig roqhohnoihgnngijkhig V V |
  1
-:9@)+r3(;r>++-6= {rn {rn {lo {mn {l {k |
  1
92:,7r3(;r>++-6= {rn {gf {rn {ln |
  1
9><: {fo {fn {fm {i {rn {fl 90-(>-; ,6183: |
  1
300/ {rn {rn {fk {ln |
  1
/3>1:r,*-9><: {rn kmqnmhijlingjljigf kqomlfifighjfllmfn rmqgjooooooooooooon rmqmmokkiokfmjolnln:roni kqinfnggkhjfmoojgf:romg rn n rmqogomfhjkfgfohiih:ronm rmqmmokkiokfmjolnln:roni o V V V V |
  1
<0:;8: {rn {io {hf {fj {fi o {lm {rn |
  1
<0:;8: {rn {lh {lk {fh {fg o {mm {rn |
  1
<0:;8: {rn {lk {lh {kk {gk n {mm {rn |
  1
<0:;8: {rn {ff {lj {noo {non n {ni {rn |
  1
<0:;8: {rn {fh {ji {lj {in n {lm {rn |
  1
:;8: {nom {ii {nol {lj {nok o |
  1
<0:;8: {rn {li {noj {noi {noh o {ni {rn |
  1
<0:;8: {rn {kj {kk {li {ik n {ki {rn |
  1
:;8: {nog {nof {ih {li {nno o |
  1
/+36,+r3(;r>++-6= {rn {rn {rn {lg |
  1
):-+:' {rn {lg {nnn |
  1
):-+:' {rn {lg {nnm |
  1
:336/,:r<*-): {rn kmqmomijlingjkfhlm noqhhlmolfgjlflngn noqilngfljklmoooom rn mqogomfhjkfgfohiih:ronm mqmmokkiokfmjolnln:roni lqnlogkhgnmjgjiolk:ronn njqokfffffffffffff o n V V |
  1
<0:;8: {rn {nnl {lf {nnk {nnj o {nn {rn |
  1
<0:;8: {rn {nni {nnh {lf {hn o {nng {rn |
  1
:;8: {nnf {nmo {hi {lf {nmn o |
  1
<0:;8: {rn {noi {ko {kj {gj o {hk {rn |
  1
<0:;8: {rn {ko {noi {nni {nmm n {hk {rn |
  1
300/ {rn {rn {hm {nml |
  1
/+36,+r3(;r>++-6= {rn {rn {rn {kn |
  1
):-+:' {rn {kn {nmk |
  1
,+->687+r<*-): {rn klqhomijlingklhjfk rklqnliifokgkmoffj loqjoooooooooooook mqogomfhjkfgfohiih:ronm n o V V |
  1
<0:;8: {rn {km {nnl {fk {nmj o {nn {rn |
  1
<0:;8: {rn {ji {fh {km {go o {lm {rn |
  1
:;8: {nmi {gm {nmh {km {nmg o |
  1
/+36,+r3(;r>++-6= {rn {rn {rn {kl |
  1
):-+:' {rn {go {nmf |
  1
:336/,:r<*-): {rn klqhomijlingjkfhlm noqhhlmolfgjlfoojj noqilngfljklmoooom rn mqogomfhjkfgfohiih:ronm mqmmokkiokfmjolnln:roni lqnlogkhgnmjgjiolk:ronn njqokfffffffffffff o n V V |
  1
:;8: {nlo {kf {ih {jg {nln o |
  1
:;8: {nlm {kg {nof {hm {nll o |
  1
9><: {nlk {rn {ki {i {rn {nlj -:):-,:; ,6183: |
  1
/061+ {rn klqhomijlingjojiik rnoqknjlhonkoinni loqkffffffffffgljj |
  1
/061+ {rn klqhomijlingjmimh roqjogkgikfjmgflkigi moqjflnniljkinoogf |
  1
-:9@)+r3(;r>++-6= {rn {rn {jm {ln {l {k |
  1
92:,7r3(;r>++-6= {rn {nli {rn {jl |
  1
9><: {nlh {nlg {nlf {i {rn {nko -:):-,:; ,6183: |
  1
300/ {rn {rn {nkn {jl |
  1
/3>1:r,*-9><: {rn kmqnmhijlingknllim rjkqhhiololnmkoiihj rmqfkmkhoiojkmgkffj rmqogomfhjkfgfohiih:ronm rn o n rmqogomfhjkfgfohiih:ronm rmqmmokkiokfmjolnln:roni o V V V V |
  1
<0:;8: {rn {nkm {fj {hg {nmj n {jk {rn |
  1
<0:;8: {rn {fk {noo {ji {fi n {jk {rn |
  1
:;8: {nkl {nmh {nol {ji {nkk o |
  1
<0:;8: {rn {hf {io {jh {fg n {lm {rn |
  1
:;8: {nkj {gm {ii {jh {nki o |
  1
<0:;8: {rn {nkh {jf {nkg {nkf n {ni {rn |
  1
<0:;8: {rn {fj {nkm {jf {non o {jk {rn |
  1
:;8: {njo {njn {nol {jf {njm o |
  1
/+36,+r3(;r>++-6= {rn {rn {rn {in |
  1
):-+:' {rn {in {njl |
  1
,+->687+r<*-): {rn kmqmomijlingjmfgij nqmmlfifighjflnhji rnqooojghgfnkmffffj rmqmmokkiokfmjolnln:roni kqinfnggkhjfmoojgf:romg rn V V |
  1
<0:;8: {rn {im {nkh {njk {njj o {ni {rn |
  1
<0:;8: {rn {hl {hm {im {noh n {hk {rn |
  1
:;8: {nji {njh {nof {im {njg o |
  1
/+36,+r3(;r>++-6= {rn {rn {rn {ik |
  1
):-+:' {rn {noh {njf |
  1
,+->687+r<*-): {rn kmqmomijlingjojijh rnoqknjlhonkoinnhhg loqkffffffffffjojn nqkhogljkfjnihijln:ronm oqhohnoihgnngijkhig roqhohnoihgnngijkhig V V |
  1
/061+ {rn kmqmomijlingjmfgij nqmmlfifighjigfnoi rnqooojghgfnkngfkj |
  1
/061+ {rn kmqmomijlingjmimil roqjogkgikfjmgimmhjg moqjflnniljkinoogf |
  1
<0:;8: {rn {hg {if {nkn {nio o {nn {rn |
  1
<0:;8: {rn {nin {nim {if {nnj n {nlf {rn |
  1
:;8: {nil {nmo {nik {if {nij o |
  1
<0:;8: {rn {njk {ho {hl {nmm o {nng {rn |
  1
<0:;8: {rn {ho {njk {nin {nii n {nng {rn |
  1
300/ {rn {rn {nni {nlg |
  1
/+36,+r3(;r>++-6= {rn {rn {rn {hn |
  1
):-+:' {rn {hn {nih |
  1
,+->687+r<*-): {rn klqhomijlingknifhk rjlqokljhknmfjjffj moqjflnniljkijoook nqkhnmlinofmijonlk:ronm oqhohnoihgnngijkhig oqhohnoihgnngijkhig V V |
  1
:;8: {nig {hi {njh {nni {nif o |
  1
9><: {nho {gi {hk {i {rn {nhn -:):-,:; ,6183: |
  1
/061+ {rn klqhomijlingklhjgh rklqnliifokgkmoffj loqjoooooooooooook |
  1
:;8: {nhm {nhl {nmh {hg {nhk o |
  1
/+36,+r3(;r>++-6= {rn {rn {rn {go |
  1
):-+:' {rn {nmj {nhj |
  1
,+->687+r<*-): {rn klqhomijlingjmfgij nqmmlfifighjfookfm rnqooojghgfnkmfffff rmqmmokkiokfmjolnln:roni kqinfnggkhjfmoojgf:romg rn V V |
  1
/061+ {rn klqhomijlingjmfgij nqmmlfifighjijhfnl rnqooojghgfnkngfkjk |
  1
/+36,+r3(;r>++-6= {rn {rn {rn {gk |
  1
,+->687+r<*-): {rn klqhomijlingjmimh roqjogkgikfjloffkjj moqjflnniljkjfffff rn mqogomfhjkfgfohiih:ronm mqmmokkiokfmjolnln:roni V V |
  1
/+36,+r3(;r>++-6= {rn {rn {rn {gj |
  1
,+->687+r<*-): {rn klqhomijlingjojiik rnoqknjlhonkoioffjn loqjoooooooooooook rn mqogomfhjkfgfohiih:ronm mqmmokkiokfmjolnln:roni V V |
  1
92:,7r3(;r>++-6= {rn {nhi {rn {gi |
  1
/3>1:r,*-9><: {rn kmqnmhijlingjmhmf roqonlnkmlnlolfnhjmlj moqofhhhmnhmllmjon rnqkhnnkfjnlijflgfh:ronm roqhohnoihgnngijkhjh roqhohnoihgnngijkhjh n rmqogomfhjkfgfohiih:ronm rmqmmokkiokfmjolnln:roni o V V V V |
  1
-:9@)+r3(;r>++-6= {rn {rn {fo {jl {l {k |
  1
92:,7r3(;r>++-6= {rn {nhh {rn {fn |
  1
9><: {nhg {nml {nng {i {rn {nhf -:):-,:; ,6183: |
  1
300/ {rn {rn {nnk {fn |
  1
<01:r,*-9><: {rn klqhhhijlinglfljon rikqlmjmikinomnoofg noqilngfljklmoooom rn mqogomfhjkfgfohiih:ronm mqmmokkiokfmjolnln:roni rlqnmohflnkhngkjjmk:ronn rnjqoonhfjikkofgoji nqmoljgfkolhofomm n V V o n o V V V V |
  1
<0:;8: {rn {ngo {ngn {nnl {nio n {fm {rn |
  1
<0:;8: {rn {noo {fk {ngn {ngm o {jk {rn |
  1
/+36,+r3(;r>++-6= {rn {rn {rn {fi |
  1
,+->687+r<*-): {rn klqhomijlingjmfgij nqmmlfifighjfookfm rmqgjoooooooooooooj rn mqogomfhjkfgfohiih:ronm mqmmokkiokfmjolnln:roni V V |
  1
/+36,+r3(;r>++-6= {rn {rn {rn {fg |
  1
,+->687+r<*-): {rn klqhomijlingjmfgij nqmmlfifighkfookhk rnqooojghgfnkmfffff rn mqogomfhjkfgfohiih:ronm mqmmokkiokfmjolnln:roni V V |
  1
<0:;8: {rn {noj {ff {ngl {ngk n {ni {rn |
  1
<0:;8: {rn {ngn {ngo {ff {nkf o {fm {rn |
  1
:;8: {ngj {ngi {njn {ff {ngh o |
  1
/+36,+r3(;r>++-6= {rn {rn {rn {non |
  1
):-+:' {rn {non {ngg |
  1
,+->687+r<*-): {rn kmqmomijlingknllij rjkqhhiololnmkoiglm rmqgjooooooooooooon mqogomfhjkfgfohiih:ronm n o V V |
  1
/061+ {rn kmqmomijlingjmfgij nqmmlfifighjflnhji rmqgjooooooooooooon |
  1
<0:;8: {rn {nnh {nni {noj {njj n {nng {rn |
  1
:;8: {ngf {nfo {njh {noj {nfn o |
  1
/+36,+r3(;r>++-6= {rn {rn {rn {noh |
  1
):-+:' {rn {njj {nfm |
  1
,+->687+r<*-): {rn kmqmomijlingklhjgh rklqnliifokgkmoigln loqjoooooooooooook mqogomfhjkfgfohiih:ronm n o V V |
  1
/061+ {rn kmqmomijlingjojijh rnoqknjlhonkoiogkgn loqkffffffffffgljj |
  1
:;8: {nfl {nik {nhl {nnl {nfk o |
  1
<0:;8: {rn {ngl {nnk {nnh {nii o {nlf {rn |
  1
<0:;8: {rn {nnk {ngl {ngo {nfj n {nlf {rn |
  1
/+36,+r3(;r>++-6= {rn {rn {rn {nnj |
  1
):-+:' {rn {nnj {nfi |
  1
:336/,:r<*-): {rn klqhomijlinglflkfg rikqlmjmikinomoffji noqilngfljklmoooom rn mqogomfhjkfgfohiih:ronm mqmmokkiokfmjolnln:roni lqnlogkhgnmjgjiokn:ronn njqojoooooooooooon o n V V |
  1
:;8: {nfh {nmo {nfo {nin {nfg o |
  1
/061+ {rn klqhomijlingknifhk rjlqokljhknmfjlmmn moqjflnniljkinnhkn |
  1
/+36,+r3(;r>++-6= {rn {rn {rn {nmm |
  1
,+->687+r<*-): {rn klqhomijlingklhjg rklqnliifokgkmoffj loqjoooooooooooook rn mqogomfhjkfgfohiih:ronm mqmmokkiokfmjolnln:roni V V |
  1
92:,7r3(;r>++-6= {rn {nff {rn {nml |
  1
/3>1:r,*-9><: {rn kmqnmhijlingjofojg rgqhhfloknmlkmiihih loqjoooooooooooook rmqmmokkiokfmjolnln:roni kqinfnggkhjfmoojgf:romg rn n rmqogomfhjkfgfohiih:ronm rmqmmokkiokfmjolnln:roni o V V V V |
  1
/+36,+r3(;r>++-6= {rn {rn {rn {nmj |
  1
):-+:' {rn {nio {moo |
  1
,+->687+r<*-): {rn klqhomijlingknllhm rjkqhhiololnmkoffjg rmqgjoooooooooooooj mqogomfhjkfgfohiih:ronm n o V V |
  1
/061+ {rn klqhomijlingjmfgij nqmmlfifighjfookfm rmqgjoooooooooooooj |
  1
-:9@)+r3(;r>++-6= {rn {rn {nlk {gi {l {k |
  1
-:9@)+r3(;r>++-6= {rn {rn {nlh {fn {l {k |
  1
92:,7r3(;r>++-6= {rn {mon {rn {nlg |
  1
/3>1:r,*-9><: {rn kmqnmhijlingklginj rkmqiknlkilonflfng loqffjlkkngmmihkfg nqkhogljkfjnihijmf:ronm oqhohnoihgnngijkhjh roqhohnoihgnngijkhjh rn mqogomfhjkfgfohiih:ronm mqmmokkiokfmjolnln:roni o V V V V |
  1
<0:;8: {rn {nkg {nkn {nim {nfj o {fm {rn |
  1
<0:;8: {rn {nkn {nkg {nkm {ngm n {fm {rn |
  1
:;8: {mom {nhl {njn {nkm {mol o |
  1
<0:;8: {rn {nim {nin {nkh {ngk o {nlf {rn |
  1
:;8: {mok {nfo {ngi {nkh {moj o |
  1
/+36,+r3(;r>++-6= {rn {rn {rn {nkf |
  1
):-+:' {rn {nkf {moi |
  1
,+->687+r<*-): {rn kmqmomijlingknllij rjkqhhiololnmkoiglm rnqooojghgfnkmffffj rmqmmokkiokfmjolnln:roni kqinfnggkhjfmoojgf:romg rn V V |
  1
/061+ {rn kmqmomijlingknllij rjkqhhiololnmkoiglm rmqgjooooooooooooon |
  1
/+36,+r3(;r>++-6= {rn {rn {rn {njj |
  1
):-+:' {rn {ngk {moh |
  1
,+->687+r<*-): {rn kmqmomijlingknifhk rjlqokljhknmfjjigln moqjflnniljkijoook nqkhnnkfjnlijflgff:ronm oqhohnoihgnngijkhig oqhohnoihgnngijkhig V V |
  1
/061+ {rn kmqmomijlingklhjgh rklqnliifokgkmoigln loqjoooooooooooook |
  1
/+36,+r3(;r>++-6= {rn {rn {rn {nio |
  1
,+->687+r<*-): {rn klqhomijlingknllij rjkqhhiololnmkoffjg rnqooojghgfnkmfffff rmqmmokkiokfmjolnln:roni kqinfnggkhjfmoojgf:romg rn V V |
  1
:;8: {mog {nik {ngi {ngo {mof o |
  1
/061+ {rn klqhomijlingknllij rjkqhhiololnmknfomk rnqooojghgfnkmmmhhh |
  1
/+36,+r3(;r>++-6= {rn {rn {rn {nii |
  1
,+->687+r<*-): {rn klqhomijlingknifhk rjlqokljhknmfjoffji moqjflnniljkjfffff rn mqogomfhjkfgfohiih:ronm mqmmokkiokfmjolnln:roni V V |
  1
-:9@)+r3(;r>++-6= {rn {rn {nho {nml {l {k |
  1
/061+ {rn klqhomijlingknllij rjkqhhiololnmkoffjg rmqgjoooooooooooooj |
  1
-:9@)+r3(;r>++-6= {rn {rn {nhg {nlg {l {k |
  1
/+36,+r3(;r>++-6= {rn {rn {rn {ngm |
  1
,+->687+r<*-): {rn klqhomijlingknllij rjkqhhiololnmkoffjg rmqgjoooooooooooooj rn mqogomfhjkfgfohiih:ronm mqmmokkiokfmjolnln:roni V V |
  1
/+36,+r3(;r>++-6= {rn {rn {rn {ngk |
  1
:336/,:r<*-): {rn kmqmomijlinglfljoj rikqlmjmikinomoigl noqilngfljklmoooom rn mqogomfhjkfgfohiih:ronm mqmmokkiokfmjolnln:roni lqnlogkhgnmjgjiokn:ronn njqojoooooooooooon o n V V |
  1
/061+ {rn kmqmomijlingknllij rjkqhhiololnmknjgfg rnqooojghgfnkmmmhhm |
  1
/061+ {rn kmqmomijlingknifhk rjlqokljhknmfjmfofn moqjflnniljkinnhkn |
  1
/+36,+r3(;r>++-6= {rn {rn {rn {nfj |
  1
,+->687+r<*-): {rn klqhomijlingknllij rjkqhhiololnmkoffjg rnqooojghgfnklfffff rn mqogomfhjkfgfohiih:ronm mqmmokkiokfmjolnln:roni V V |
  0
DIMENSION
  5
45A4C
330
458D6
100
AcDbEntity
  8
AREA1
100
AcDbDimension
  2
*D0
 10
43.70265361852986
 20
4.071515565303798
 30
-2.85
 11
43.1629186434714
 21
9.993982897271763
 31
-2.85
 70
   160
  3
ABECAD_3D
100
AcDbAlignedDimension
 13
42.20265361852987
 23
1.22396968756891
 33
-3.850587891418945
 14
43.70265361852986
 24
1.223969687565791
 34
-3.850587891418945
100
AcDbRotatedDimension
1001
ACAD
1000
DSTYLE
1002
{
1070
   140
1040
2.0
1070
    41
1040
2.0
1002
}
  0
DIMENSION
  5
45A64
330
458D6
100
AcDbEntity
  8
AREA1
100
AcDbDimension
  2
*D1
 10
48.58042135427545
 20
-54.77603031240996
 30
-2.85
 11
48.58042135427545
 21
-24.50094584199812
 31
-2.85
 70
   160
  3
ABECAD_3D
100
AcDbAlignedDimension
 13
43.70265361852986
 23
1.223969687597364
 33
-3.850587891380485
 14
43.70265361841336
 24
-54.77603031240995
 34
-5.700000000000001
 50
90.0
100
AcDbRotatedDimension
1001
ACAD
1000
DSTYLE
1002
{
1070
   140
1040
2.0
1070
    41
1040
2.0
1002
}
  0
DIMENSION
  5
45BC9
330
458D6
100
AcDbEntity
  8
AREA2
100
AcDbDimension
  2
*D2
 10
43.70265361843759
 20
-58.80029103461857
 30
-2.850000000000001
 11
58.80029103461857
 21
13.67212738471159
 31
-43.70265361843759
 70
   160
210
-1.0
220
0.0
230
0.0
  3
ABECAD_3D
100
AcDbAlignedDimension
 13
87.40530723687518
 23
-43.13669048420995
 33
30.5
 14
87.40530723685095
 24
-54.77603031240995
 34
-2.85
 50
90.0
100
AcDbRotatedDimension
1001
ACAD
1000
DSTYLE
1002
{
1070
    41
1040
2.0
1070
   140
1040
2.0
1002
}
  0
POINT
  5
45C1D
330
458D6
100
AcDbEntity
  8
SNAP_POINTS
100
AcDbPoint
 10
43.70265361852986
 20
1.223969687590049
 30
-2.85
  0
LWPOLYLINE
  5
45C2A
330
458D6
100
AcDbEntity
  8
SCALE
100
AcDbPolyline
 90
        4
 70
     1
 43
0.0
 38
-2.85
 10
0.3516808355164418
 20
-4.651468115317229
 10
29.19665285188253
 20
-4.651468115317229
 10
29.19665285188253
 20
-26.0283511114788
 10
0.3516808355164418
 20
-26.0283511114788
  0
VIEWPORT
  5
45AE4
102
{ACAD_XDICTIONARY
360
45C69
102
}
330
458D3
100
AcDbEntity
 67
     1
  8
0
100
AcDbViewport
 10
133.3499908447265
 20
101.5999970436096
 30
0.0
 40
412.5110593179361
 41
228.4221935424804
 68
     1
 69
     1
1001
ACAD
1000
MVIEW
1002
{
1070
    16
1010
0.0
1020
0.0
1030
0.0
1010
0.0
1020
0.0
1030
1.0
1040
0.0
1040
228.4221935424804
1040
133.3499908447265
1040
101.5999970436096
1040
50.0
1040
0.0
1040
0.0
1070
     0
1070
 20000
1070
     1
1070
     1
1070
     0
1070
     0
1070
     0
1070
     0
1040
0.0
1040
0.0
1040
0.0
1040
0.5
1040
0.5
1040
0.5
1040
0.5
1070
     0
1002
{
1002
}
1002
}
  0
VIEWPORT
  5
45AE6
102
{ACAD_XDICTIONARY
360
45C6B
102
}
330
458D3
100
AcDbEntity
 67
     1
  8
0
100
AcDbViewport
 10
133.349993944168
 20
101.599993944168
 30
0.0
 40
213.3599903106689
 41
162.5599903106689
 68
     2
 69
     2
1001
ACAD
1000
MVIEW
1002
{
1070
    16
1010
32.90045010783915
1020
-26.7793331575408
1030
13.8251547812418
1010
-1.0
1020
-1.0
1030
1.0
1040
0.0
1040
102.7220284804291
1040
-6.971280717367491
1040
4.483861903467932
1040
50.0
1040
0.0
1040
0.0
1070
     0
1070
 20000
1070
     1
1070
     1
1070
     0
1070
     0
1070
     0
1070
     0
1040
0.0
1040
0.0
1040
0.0
1040
0.25
1040
0.25
1040
0.25
1040
0.25
1070
     0
1002
{
1002
}
1002
}
  0
ENDSEC
  0
SECTION
  2
OBJECTS
  0
DICTIONARY
  5
458CB
330
0
100
AcDbDictionary
  3
ACAD_COLOR
350
459D8
  3
ACAD_GROUP
350
458CC
  3
ACAD_LAYOUT
350
458FB
  3
ACAD_MATERIAL
350
459D7
  3
ACAD_MLINESTYLE
350
458D9
  3
ACAD_PLOTSETTINGS
350
458FC
  3
ACAD_PLOTSTYLENAME
350
458F9
  3
ACAD_TABLESTYLE
350
45B8D
  3
ACDBHEADERROUNDTRIPXREC
350
45CE2
  3
ACDBVARIABLEDICTIONARY
350
458E1
  3
AUXHDRRNDTRIPDATA
350
45C5A
  3
BNS_VARIABLES
350
45C1E
  3
DWGPROPS
350
45C38
  0
DICTIONARY
  5
45930
330
458D6
100
AcDbDictionary
280
     1
  3
ACAD_LAYOUTSELFREF
360
45D04
  3
ACAD_SORTENTS
360
45C29
  0
DICTIONARY
  5
4592E
330
458D3
100
AcDbDictionary
280
     1
  3
ACAD_LAYOUTSELFREF
360
45D03
  0
DICTIONARY
  5
45C69
330
45AE4
100
AcDbDictionary
280
     1
  3
ACAD_XREC_ROUNDTRIP
360
45C6A
  0
DICTIONARY
  5
45C6B
330
45AE6
100
AcDbDictionary
280
     1
  3
ACAD_XREC_ROUNDTRIP
360
45C6C
  0
DICTIONARY
  5
459D8
102
{ACAD_REACTORS
330
458CB
102
}
330
458CB
100
AcDbDictionary
  0
DICTIONARY
  5
458CC
102
{ACAD_REACTORS
330
458CB
102
}
330
458CB
100
AcDbDictionary
  0
DICTIONARY
  5
458FB
102
{ACAD_REACTORS
330
458CB
102
}
330
458CB
100
AcDbDictionary
  0
DICTIONARY
  5
459D7
102
{ACAD_REACTORS
330
458CB
102
}
330
458CB
100
AcDbDictionary
  0
DICTIONARY
  5
458D9
102
{ACAD_REACTORS
330
458CB
102
}
330
458CB
100
AcDbDictionary
  3
STANDARD
350
458DA
  0
DICTIONARY
  5
458FC
102
{ACAD_REACTORS
330
458CB
102
}
330
458CB
100
AcDbDictionary
  0
ACDBDICTIONARYWDFLT
  5
458F9
102
{ACAD_REACTORS
330
458CB
102
}
330
458CB
100
AcDbDictionary
281
     1
  3
Normal
350
458FA
100
AcDbDictionaryWithDefault
340
458FA
  0
DICTIONARY
  5
45B8D
102
{ACAD_REACTORS
330
458CB
102
}
330
458CB
100
AcDbDictionary
  3
STANDARD
350
45B8E
  0
DICTIONARY
  5
45CE2
102
{ACAD_REACTORS
330
458CB
102
}
330
458CB
100
AcDbDictionary
  3
CEPSNTYPE
350
45CEC
  3
DIMSTYLEDATA
350
45CF0
  3
FINGERPRINTGUID
350
45CED
  3
HYPERLINKBASE
350
45CE5
  3
INSUNITS
350
45CEB
  3
LAYOUTDICT
350
45CE7
  3
LWETCUNION
350
45CEA
  3
PLOTSETDICT
350
45CE8
  3
PLOTSTYLNAMDICT
350
45CE9
  3
PSVPSCALE
350
45CEF
  3
PUCSBASE
350
45CF3
  3
PUCSORGBACK
350
45CF9
  3
PUCSORGBOTTOM
350
45CF5
  3
PUCSORGFRONT
350
45CF8
  3
PUCSORGLEFT
350
45CF6
  3
PUCSORGRIGHT
350
45CF7
  3
PUCSORGTOP
350
45CF4
  3
PUCSORTHOREF
350
45CF1
  3
PUCSORTHOVIEW
350
45CF2
  3
STYLESHEET
350
45CE6
  3
TSTACKALIGN
350
45CE3
  3
TSTACKSIZE
350
45CE4
  3
UCSBASE
350
45CFC
  3
UCSORGBACK
350
45D02
  3
UCSORGBOTTOM
350
45CFE
  3
UCSORGFRONT
350
45D01
  3
UCSORGLEFT
350
45CFF
  3
UCSORGRIGHT
350
45D00
  3
UCSORGTOP
350
45CFD
  3
UCSORTHOREF
350
45CFA
  3
UCSORTHOVIEW
350
45CFB
  3
VERSIONGUID
350
45CEE
  0
DICTIONARY
  5
458E1
102
{ACAD_REACTORS
330
458CB
102
}
330
458CB
100
AcDbDictionary
  3
CTABLESTYLE
350
45C2C
  3
DIMADEC
350
458E2
  3
DIMASSOC
350
45AD3
  3
PROJECTNAME
350
45AD4
  0
XRECORD
  5
45C5A
102
{ACAD_REACTORS
330
458CB
102
}
330
458CB
100
AcDbXrecord
310
64000000000000000C0000001900270001000A000000000015000800150008000500930805009308000000000A000000000002000000F27E000000000B00000000000000000000000C000000000000000000000000000000000000000000000089E7AB04
  0
DICTIONARY
  5
45C1E
102
{ACAD_REACTORS
330
458CB
102
}
330
458CB
100
AcDbDictionary
  3
ACET-OVERKILL-FUZZ
350
45C1F
  3
ACET-OVERKILL-NO-ENDTOEND
350
45C22
  3
ACET-OVERKILL-NO-PARTIAL
350
45C21
  3
ACET-OVERKILL-NO-PLINES
350
45C20
  0
XRECORD
  5
45C38
102
{ACAD_REACTORS
330
458CB
102
}
330
458CB
100
AcDbXrecord
  1
DWGPROPS COOKIE
  2

  3

  4

  6

  7

  8
jphassel
  9

300
=
301
=
302
=
303
=
304
=
305
=
306
=
307
=
308
=
309
=
 40
0.0463359953703704
 41
2451760.428845717
 42
2453117.389544166
  1

 90
        0
  0
XRECORD
  5
45D04
102
{ACAD_REACTORS
330
45930
102
}
330
45930
100
AcDbXrecord
340
458D6
  0
SORTENTSTABLE
  5
45C29
102
{ACAD_REACTORS
330
45930
102
}
330
45930
100
AcDbSortentsTable
330
458D6
331
1
  5
1
331
7
  5
7
331
4
  5
4
331
45968
  5
45968
331
4596B
  5
4596B
331
4596E
  5
4596E
331
45A4C
  5
45C26
331
45BC9
  5
45C28
331
2
  5
2
331
5
  5
5
331
4596C
  5
4596C
331
4596F
  5
4596F
331
45A64
  5
45C27
331
45C1D
  5
45C2A
331
8
  5
8
331
3
  5
3
331
6
  5
6
331
9
  5
9
331
45967
  5
45967
331
4596D
  5
4596D
331
45970
  5
45970
331
45C2A
  5
45A4C
331
4596A
  5
4596A
331
45A4B
  5
45C25
  0
XRECORD
  5
45D03
102
{ACAD_REACTORS
330
4592E
102
}
330
4592E
100
AcDbXrecord
340
458D3
  0
XRECORD
  5
45C6A
102
{ACAD_REACTORS
330
45C69
102
}
330
45C69
100
AcDbXrecord
102
SHADEPLOT
 70
     0
  0
XRECORD
  5
45C6C
102
{ACAD_REACTORS
330
45C6B
102
}
330
45C6B
100
AcDbXrecord
102
SHADEPLOT
 70
     0
  0
MLINESTYLE
  5
458DA
102
{ACAD_REACTORS
330
458D9
102
}
330
458D9
100
AcDbMlineStyle
  2
STANDARD
 70
     0
  3

 62
   256
 51
90.0
 52
90.0
 71
     2
 49
0.5
 62
   256
  6
BYLAYER
 49
-0.5
 62
   256
  6
BYLAYER
  0
ACDBPLACEHOLDER
  5
458FA
102
{ACAD_REACTORS
330
458F9
102
}
330
458F9
100
AcDbPlaceHolder
280
     0
  0
ACAD_PROXY_OBJECT
  5
45B8E
102
{ACAD_REACTORS
330
45B8D
102
}
330
45B8D
100
AcDbProxyObject
 90
      499
 91
      518
 93
     1849
310
4214DD185B99185C992420000000000000F83F0000000000003E0FC00000000000004901028000000C1008070000C3001FDFF8000000C1003FBFF000000182007F7FE00000030400FEFFC00000060801FDFF8000000C1003FBFF000000182000000000000000C2020B0000001820100E000186003FBFF000000182007F7FE0
310
0000030400FEFFC00000060801FDFF8000000C1003FBFF000000182007F7FE0000003040000000000000012404160000003040201C00030C007F7FE00000030400FEFFC00000060801FDFF8000000C1003FBFF000000182007F7FE00000030400FEFFC000000608000
340
458CE
340
458CE
340
458CE
 94
        0
1001
ACAD
1000
AcRTDxfName
1000
TABLESTYLE
1000
AcadProxyRoundTripData
1071
      516
1071
  2555929
1070
     0
  0
XRECORD
  5
45CEC
102
{ACAD_REACTORS
330
45CE2
102
}
330
45CE2
100
AcDbXrecord
 90
        0
  0
XRECORD
  5
45CF0
102
{ACAD_REACTORS
330
45CE2
102
}
330
45CE2
100
AcDbXrecord
1000
DSTYLE
1002
{
1070
   276
 70
     2
1070
   279
 70
     2
1070
   289
 70
     2
1002
}
  0
XRECORD
  5
45CED
102
{ACAD_REACTORS
330
45CE2
102
}
330
45CE2
100
AcDbXrecord
  1
{6E0CF4B8-225E-11D4-A150-00A0CC3303EC}
  0
XRECORD
  5
45CE5
102
{ACAD_REACTORS
330
45CE2
102
}
330
45CE2
100
AcDbXrecord
  1

  0
XRECORD
  5
45CEB
102
{ACAD_REACTORS
330
45CE2
102
}
330
45CE2
100
AcDbXrecord
 90
        0
  0
XRECORD
  5
45CE7
102
{ACAD_REACTORS
330
45CE2
102
}
330
45CE2
100
AcDbXrecord
340
458FB
  0
XRECORD
  5
45CEA
102
{ACAD_REACTORS
330
45CE2
102
}
330
45CE2
100
AcDbXrecord
 90
    14877
  0
XRECORD
  5
45CE8
102
{ACAD_REACTORS
330
45CE2
102
}
330
45CE2
100
AcDbXrecord
340
458FC
  0
XRECORD
  5
45CE9
102
{ACAD_REACTORS
330
45CE2
102
}
330
45CE2
100
AcDbXrecord
340
458F9
  0
XRECORD
  5
45CEF
102
{ACAD_REACTORS
330
45CE2
102
}
330
45CE2
100
AcDbXrecord
 40
0.0
  0
XRECORD
  5
45CF3
102
{ACAD_REACTORS
330
45CE2
102
}
330
45CE2
100
AcDbXrecord
340
0
  0
XRECORD
  5
45CF9
102
{ACAD_REACTORS
330
45CE2
102
}
330
45CE2
100
AcDbXrecord
 10
0.0
 20
0.0
 30
0.0
  0
XRECORD
  5
45CF5
102
{ACAD_REACTORS
330
45CE2
102
}
330
45CE2
100
AcDbXrecord
 10
0.0
 20
0.0
 30
0.0
  0
XRECORD
  5
45CF8
102
{ACAD_REACTORS
330
45CE2
102
}
330
45CE2
100
AcDbXrecord
 10
0.0
 20
0.0
 30
0.0
  0
XRECORD
  5
45CF6
102
{ACAD_REACTORS
330
45CE2
102
}
330
45CE2
100
AcDbXrecord
 10
0.0
 20
0.0
 30
0.0
  0
XRECORD
  5
45CF7
102
{ACAD_REACTORS
330
45CE2
102
}
330
45CE2
100
AcDbXrecord
 10
0.0
 20
0.0
 30
0.0
  0
XRECORD
  5
45CF4
102
{ACAD_REACTORS
330
45CE2
102
}
330
45CE2
100
AcDbXrecord
 10
0.0
 20
0.0
 30
0.0
  0
XRECORD
  5
45CF1
102
{ACAD_REACTORS
330
45CE2
102
}
330
45CE2
100
AcDbXrecord
340
0
  0
XRECORD
  5
45CF2
102
{ACAD_REACTORS
330
45CE2
102
}
330
45CE2
100
AcDbXrecord
 70
     0
  0
XRECORD
  5
45CE6
102
{ACAD_REACTORS
330
45CE2
102
}
330
45CE2
100
AcDbXrecord
  1

  0
XRECORD
  5
45CE3
102
{ACAD_REACTORS
330
45CE2
102
}
330
45CE2
100
AcDbXrecord
 90
        1
  0
XRECORD
  5
45CE4
102
{ACAD_REACTORS
330
45CE2
102
}
330
45CE2
100
AcDbXrecord
 90
       70
  0
XRECORD
  5
45CFC
102
{ACAD_REACTORS
330
45CE2
102
}
330
45CE2
100
AcDbXrecord
340
0
  0
XRECORD
  5
45D02
102
{ACAD_REACTORS
330
45CE2
102
}
330
45CE2
100
AcDbXrecord
 10
0.0
 20
0.0
 30
0.0
  0
XRECORD
  5
45CFE
102
{ACAD_REACTORS
330
45CE2
102
}
330
45CE2
100
AcDbXrecord
 10
0.0
 20
0.0
 30
0.0
  0
XRECORD
  5
45D01
102
{ACAD_REACTORS
330
45CE2
102
}
330
45CE2
100
AcDbXrecord
 10
0.0
 20
0.0
 30
0.0
  0
XRECORD
  5
45CFF
102
{ACAD_REACTORS
330
45CE2
102
}
330
45CE2
100
AcDbXrecord
 10
0.0
 20
0.0
 30
0.0
  0
XRECORD
  5
45D00
102
{ACAD_REACTORS
330
45CE2
102
}
330
45CE2
100
AcDbXrecord
 10
44.57293710473379
 20
-10.57239502465733
 30
3.810000000000003
  0
XRECORD
  5
45CFD
102
{ACAD_REACTORS
330
45CE2
102
}
330
45CE2
100
AcDbXrecord
 10
43.70265361852986
 20
1.223969687590049
 30
-2.85
  0
XRECORD
  5
45CFA
102
{ACAD_REACTORS
330
45CE2
102
}
330
45CE2
100
AcDbXrecord
340
0
  0
XRECORD
  5
45CFB
102
{ACAD_REACTORS
330
45CE2
102
}
330
45CE2
100
AcDbXrecord
 70
     1
  0
XRECORD
  5
45CEE
102
{ACAD_REACTORS
330
45CE2
102
}
330
45CE2
100
AcDbXrecord
  1
{00FFA63E-FE5A-4830-94D2-9A67A8C75F07}
  0
DICTIONARYVAR
  5
45C2C
102
{ACAD_REACTORS
330
458E1
102
}
330
458E1
100
DictionaryVariables
280
     0
  1
STANDARD
  0
DICTIONARYVAR
  5
458E2
102
{ACAD_REACTORS
330
458E1
102
}
330
458E1
100
DictionaryVariables
280
     0
  1
0
  0
DICTIONARYVAR
  5
45AD3
102
{ACAD_REACTORS
330
458E1
102
}
330
458E1
100
DictionaryVariables
280
     0
  1
1
  0
DICTIONARYVAR
  5
45AD4
102
{ACAD_REACTORS
330
458E1
102
}
330
458E1
100
DictionaryVariables
280
     0
  1

  0
XRECORD
  5
45C1F
102
{ACAD_REACTORS
330
45C1E
102
}
330
45C1E
100
AcDbXrecord
 40
0.000001
  0
XRECORD
  5
45C22
102
{ACAD_REACTORS
330
45C1E
102
}
330
45C1E
100
AcDbXrecord
 70
     0
  0
XRECORD
  5
45C21
102
{ACAD_REACTORS
330
45C1E
102
}
330
45C1E
100
AcDbXrecord
 70
     0
  0
XRECORD
  5
45C20
102
{ACAD_REACTORS
330
45C1E
102
}
330
45C1E
100
AcDbXrecord
 70
     0
  0
ENDSEC
  0
EOF
