  0
SECTION
  2
HEADER
  9
$ACADVER
  1
AC1014
  9
$ACADMAINTVER
 70
     9
  9
$DWGCODEPAGE
  3
ANSI_1252
  9
$INSBASE
 10
46.34332776907307
 20
0.7022503140365615
 30
1.0
  9
$EXTMIN
 10
0.3516808355164418
 20
-73.85509428144186
 30
0.999999999999998
  9
$EXTMAX
 10
90.68665553814614
 20
9.907533766939724
 30
31.60000000000364
  9
$LIMMIN
 10
0.0
 20
0.0
  9
$LIMMAX
 10
12.0
 20
9.0
  9
$ORTHOMODE
 70
     0
  9
$REGENMODE
 70
     1
  9
$FILLMODE
 70
     1
  9
$QTEXTMODE
 70
     0
  9
$MIRRTEXT
 70
     1
  9
$DRAGMODE
 70
     2
  9
$LTSCALE
 40
1.0
  9
$OSMODE
 70
    37
  9
$ATTMODE
 70
     1
  9
$TEXTSIZE
 40
0.12
  9
$TRACEWID
 40
0.05
  9
$TEXTSTYLE
  7
STANDARD
  9
$CLAYER
  8
0
  9
$CELTYPE
  6
BYLAYER
  9
$CECOLOR
 62
   256
  9
$CELTSCALE
 40
1.0
  9
$DELOBJ
 70
     1
  9
$DISPSILH
 70
     0
  9
$DIMSCALE
 40
1.0
  9
$DIMASZ
 40
4.572
  9
$DIMEXO
 40
1.587499999999999
  9
$DIMDLI
 40
9.525
  9
$DIMRND
 40
0.0
  9
$DIMDLE
 40
0.0
  9
$DIMEXE
 40
4.572
  9
$DIMTP
 40
0.0
  9
$DIMTM
 40
0.0
  9
$DIMTXT
 40
4.572
  9
$DIMCEN
 40
2.286
  9
$DIMTSZ
 40
0.0
  9
$DIMTOL
 70
     0
  9
$DIMLIM
 70
     0
  9
$DIMTIH
 70
     0
  9
$DIMTOH
 70
     1
  9
$DIMSE1
 70
     0
  9
$DIMSE2
 70
     0
  9
$DIMTAD
 70
     0
  9
$DIMZIN
 70
     4
  9
$DIMBLK
  1

  9
$DIMASO
 70
     1
  9
$DIMSHO
 70
     1
  9
$DIMPOST
  1

  9
$DIMAPOST
  1

  9
$DIMALT
 70
     1
  9
$DIMALTD
 70
     6
  9
$DIMALTF
 40
0.03937
  9
$DIMLFAC
 40
1.0
  9
$DIMTOFL
 70
     0
  9
$DIMTVP
 40
0.0
  9
$DIMTIX
 70
     0
  9
$DIMSOXD
 70
     0
  9
$DIMSAH
 70
     0
  9
$DIMBLK1
  1

  9
$DIMBLK2
  1

  9
$DIMSTYLE
  2
ABECAD_3D
  9
$DIMCLRD
 70
     0
  9
$DIMCLRE
 70
     0
  9
$DIMCLRT
 70
     0
  9
$DIMTFAC
 40
1.5
  9
$DIMGAP
 40
2.286
  9
$DIMJUST
 70
     0
  9
$DIMSD1
 70
     0
  9
$DIMSD2
 70
     0
  9
$DIMTOLJ
 70
     1
  9
$DIMTZIN
 70
     4
  9
$DIMALTZ
 70
     4
  9
$DIMALTTZ
 70
     4
  9
$DIMFIT
 70
     5
  9
$DIMUPT
 70
     1
  9
$DIMUNIT
 70
     2
  9
$DIMDEC
 70
     2
  9
$DIMTDEC
 70
     2
  9
$DIMALTU
 70
     7
  9
$DIMALTTD
 70
     6
  9
$DIMTXSTY
  7
STANDARD
  9
$DIMAUNIT
 70
     0
  9
$LUNITS
 70
     2
  9
$LUPREC
 70
     4
  9
$SKETCHINC
 40
0.1
  9
$FILLETRAD
 40
0.0
  9
$AUNITS
 70
     0
  9
$AUPREC
 70
     0
  9
$MENU
  1
ACAD
  9
$ELEVATION
 40
0.0
  9
$PELEVATION
 40
0.0
  9
$THICKNESS
 40
0.0
  9
$LIMCHECK
 70
     0
  9
$BLIPMODE
 70
     0
  9
$CHAMFERA
 40
0.0
  9
$CHAMFERB
 40
0.0
  9
$CHAMFERC
 40
0.0
  9
$CHAMFERD
 40
0.0
  9
$SKPOLY
 70
     0
  9
$TDCREATE
 40
2451760.428845717
  9
$TDUPDATE
 40
2453137.551474953
  9
$TDINDWG
 40
0.3463970023
  9
$TDUSRTIMER
 40
0.3463970023
  9
$USRTIMER
 70
     1
  9
$ANGBASE
 50
0.0
  9
$ANGDIR
 70
     0
  9
$PDMODE
 70
     3
  9
$PDSIZE
 40
2.5
  9
$PLINEWID
 40
0.0
  9
$COORDS
 70
     1
  9
$SPLFRAME
 70
     1
  9
$SPLINETYPE
 70
     6
  9
$SPLINESEGS
 70
     8
  9
$ATTDIA
 70
     0
  9
$ATTREQ
 70
     1
  9
$HANDLING
 70
 22529
  9
$HANDSEED
  5
45D6C
  9
$SURFTAB1
 70
     6
  9
$SURFTAB2
 70
     6
  9
$SURFTYPE
 70
     6
  9
$SURFU
 70
     6
  9
$SURFV
 70
     6
  9
$UCSNAME
  2

  9
$UCSORG
 10
46.34332776907307
 20
0.7022503140365615
 30
1.0
  9
$UCSXDIR
 10
1.0
 20
0.0
 30
0.0
  9
$UCSYDIR
 10
0.0
 20
1.0
 30
0.0
  9
$PUCSNAME
  2

  9
$PUCSORG
 10
0.0
 20
0.0
 30
0.0
  9
$PUCSXDIR
 10
1.0
 20
0.0
 30
0.0
  9
$PUCSYDIR
 10
0.0
 20
1.0
 30
0.0
  9
$USERI1
 70
     0
  9
$USERI2
 70
     0
  9
$USERI3
 70
     0
  9
$USERI4
 70
     0
  9
$USERI5
 70
     0
  9
$USERR1
 40
0.0
  9
$USERR2
 40
0.0
  9
$USERR3
 40
0.0
  9
$USERR4
 40
0.0
  9
$USERR5
 40
0.0
  9
$WORLDVIEW
 70
     1
  9
$SHADEDGE
 70
     3
  9
$SHADEDIF
 70
    70
  9
$TILEMODE
 70
     1
  9
$MAXACTVP
 70
    16
  9
$PINSBASE
 10
0.0
 20
0.0
 30
0.0
  9
$PLIMCHECK
 70
     0
  9
$PEXTMIN
 10
1.000000000000000E+20
 20
1.000000000000000E+20
 30
1.000000000000000E+20
  9
$PEXTMAX
 10
-1.000000000000000E+20
 20
-1.000000000000000E+20
 30
-1.000000000000000E+20
  9
$PLIMMIN
 10
0.0
 20
0.0
  9
$PLIMMAX
 10
12.0
 20
9.0
  9
$UNITMODE
 70
     0
  9
$VISRETAIN
 70
     0
  9
$PLINEGEN
 70
     0
  9
$PSLTSCALE
 70
     1
  9
$TREEDEPTH
 70
  3020
  9
$PICKSTYLE
 70
     1
  9
$CMLSTYLE
  2
STANDARD
  9
$CMLJUST
 70
     0
  9
$CMLSCALE
 40
1.0
  9
$PROXYGRAPHICS
 70
     1
  9
$MEASUREMENT
 70
     1
  0
ENDSEC
  0
SECTION
  2
CLASSES
  0
CLASS
  1
DICTIONARYVAR
  2
AcDbDictionaryVar
  3
AutoCAD 2000
 90
        0
280
     0
281
     0
  0
CLASS
  1
ACDBDICTIONARYWDFLT
  2
AcDbDictionaryWithDefault
  3
AutoCAD 2000
 90
        0
280
     0
281
     0
  0
CLASS
  1
ACDBPLACEHOLDER
  2
AcDbPlaceHolder
  3
AutoCAD 2000
 90
        0
280
     0
281
     0
  0
CLASS
  1
LAYOUT
  2
AcDbLayout
  3
AutoCAD 2000
 90
        0
280
     0
281
     0
  0
CLASS
  1
LONG_TRANSACTION
  2
AcDbLongTransaction
  3
AutoCAD 2000
 90
        0
280
     0
281
     0
  0
CLASS
  1
LWPOLYLINE
  2
AcDbPolyline
  3
AutoCAD 2000
 90
        0
280
     0
281
     1
  0
CLASS
  1
HATCH
  2
AcDbHatch
  3
AutoCAD 2000
 90
        0
280
     0
281
     1
  0
CLASS
  1
XRECORD
  2
AcDbXrecord
  3
AutoCAD 2000
 90
        0
280
     0
281
     0
  0
CLASS
  1
LONG_TRANSACTION
  2
AcDbLongTransaction
  3
AutoCAD 2000
 90
        0
280
     0
281
     0
  0
CLASS
  1
LWPOLYLINE
  2
AcDbPolyline
  3
AutoCAD 2000
 90
        0
280
     0
281
     1
  0
CLASS
  1
HATCH
  2
AcDbHatch
  3
AutoCAD 2000
 90
        0
280
     0
281
     1
  0
CLASS
  1
XRECORD
  2
AcDbXrecord
  3
AutoCAD 2000
 90
        0
280
     0
281
     0
  0
CLASS
  1
LONG_TRANSACTION
  2
AcDbLongTransaction
  3
AutoCAD 2000
 90
        0
280
     0
281
     0
  0
CLASS
  1
LWPOLYLINE
  2
AcDbPolyline
  3
AutoCAD 2000
 90
        0
280
     0
281
     1
  0
CLASS
  1
HATCH
  2
AcDbHatch
  3
AutoCAD 2000
 90
        0
280
     0
281
     1
  0
CLASS
  1
XRECORD
  2
AcDbXrecord
  3
AutoCAD 2000
 90
        0
280
     0
281
     0
  0
CLASS
  1
TABLESTYLE
  2
AcDbTableStyle
  3
ObjectDBX Classes
 90
     2047
280
     0
281
     0
  0
CLASS
  1
SORTENTSTABLE
  2
AcDbSortentsTable
  3
AutoCAD 2000
 90
        0
280
     0
281
     0
  0
CLASS
  1
ACAD_PROXY_OBJECT_WRAPPER
  2
AcDbProxyObjectWrapper
  3
AutoCAD 2000
 90
        0
280
     0
281
     0
  0
CLASS
  1
LONG_TRANSACTION
  2
AcDbLongTransaction
  3
AutoCAD 2000
 90
        0
280
     0
281
     0
  0
CLASS
  1
LWPOLYLINE
  2
AcDbPolyline
  3
AutoCAD 2000
 90
        0
280
     0
281
     1
  0
CLASS
  1
HATCH
  2
AcDbHatch
  3
AutoCAD 2000
 90
        0
280
     0
281
     1
  0
CLASS
  1
XRECORD
  2
AcDbXrecord
  3
AutoCAD 2000
 90
        0
280
     0
281
     0
  0
CLASS
  1
LONG_TRANSACTION
  2
AcDbLongTransaction
  3
AutoCAD 2000
 90
        0
280
     0
281
     0
  0
CLASS
  1
LWPOLYLINE
  2
AcDbPolyline
  3
AutoCAD 2000
 90
        0
280
     0
281
     1
  0
CLASS
  1
HATCH
  2
AcDbHatch
  3
AutoCAD 2000
 90
        0
280
     0
281
     1
  0
CLASS
  1
XRECORD
  2
AcDbXrecord
  3
AutoCAD 2000
 90
        0
280
     0
281
     0
  0
CLASS
  1
LONG_TRANSACTION
  2
AcDbLongTransaction
  3
AutoCAD 2000
 90
        0
280
     0
281
     0
  0
CLASS
  1
LWPOLYLINE
  2
AcDbPolyline
  3
AutoCAD 2000
 90
        0
280
     0
281
     1
  0
CLASS
  1
HATCH
  2
AcDbHatch
  3
AutoCAD 2000
 90
        0
280
     0
281
     1
  0
CLASS
  1
XRECORD
  2
AcDbXrecord
  3
AutoCAD 2000
 90
        0
280
     0
281
     0
  0
ENDSEC
  0
SECTION
  2
TABLES
  0
TABLE
  2
VPORT
  5
458C7
330
0
100
AcDbSymbolTable
 70
     2
  0
VPORT
  5
45D48
330
458C7
100
AcDbSymbolTableRecord
100
AcDbViewportTableRecord
  2
*ACTIVE
 70
     0
 10
0.0
 20
0.0
 11
1.0
 21
1.0
 12
6.036274961817468
 22
-1.320055594667408
 13
0.0
 23
0.0
 14
0.25
 24
0.25
 15
0.25
 25
0.25
 16
0.0
 26
0.0
 36
1.0
 17
39.48348350843145
 27
-30.6537244675586
 37
14.96971128489151
 40
84.57970568808397
 41
1.83009708737864
 42
50.0
 43
0.0
 44
0.0
 50
0.0
 51
0.0
 71
     0
 72
 20000
 73
     1
 74
     1
 75
     0
 76
     0
 77
     0
 78
     0
  0
ENDTAB
  0
TABLE
  2
LTYPE
  5
458C4
330
0
100
AcDbSymbolTable
 70
     1
  0
LTYPE
  5
458D0
330
458C4
100
AcDbSymbolTableRecord
100
AcDbLinetypeTableRecord
  2
BYBLOCK
 70
     0
  3

 72
    65
 73
     0
 40
0.0
  0
LTYPE
  5
458D1
330
458C4
100
AcDbSymbolTableRecord
100
AcDbLinetypeTableRecord
  2
BYLAYER
 70
     0
  3

 72
    65
 73
     0
 40
0.0
  0
LTYPE
  5
458D2
330
458C4
100
AcDbSymbolTableRecord
100
AcDbLinetypeTableRecord
  2
CONTINUOUS
 70
     0
  3
Solid line
 72
    65
 73
     0
 40
0.0
  0
ENDTAB
  0
TABLE
  2
LAYER
  5
458C1
330
0
100
AcDbSymbolTable
 70
     8
  0
LAYER
  5
458CD
330
458C1
100
AcDbSymbolTableRecord
100
AcDbLayerTableRecord
  2
0
 70
     0
 62
     7
  6
CONTINUOUS
  0
LAYER
  5
458EA
330
458C1
100
AcDbSymbolTableRecord
100
AcDbLayerTableRecord
  2
DIMS-MTG-HOLES
 70
     0
 62
     1
  6
CONTINUOUS
  0
LAYER
  5
458EB
330
458C1
100
AcDbSymbolTableRecord
100
AcDbLayerTableRecord
  2
ATTRIBUTES
 70
     0
 62
     7
  6
CONTINUOUS
  0
LAYER
  5
4593F
330
458C1
100
AcDbSymbolTableRecord
100
AcDbLayerTableRecord
  2
AREA1
 70
     0
 62
    -7
  6
CONTINUOUS
  0
LAYER
  5
45946
330
458C1
100
AcDbSymbolTableRecord
100
AcDbLayerTableRecord
  2
DEFPOINTS
 70
     0
 62
    -7
  6
CONTINUOUS
  0
LAYER
  5
45972
330
458C1
100
AcDbSymbolTableRecord
100
AcDbLayerTableRecord
  2
SCALE
 70
     0
 62
    -7
  6
CONTINUOUS
  0
LAYER
  5
4597A
330
458C1
100
AcDbSymbolTableRecord
100
AcDbLayerTableRecord
  2
SNAP_POINTS
 70
     0
 62
    -1
  6
CONTINUOUS
  0
LAYER
  5
459D2
330
458C1
100
AcDbSymbolTableRecord
100
AcDbLayerTableRecord
  2
AREA2
 70
     0
 62
    -7
  6
CONTINUOUS
  0
ENDTAB
  0
TABLE
  2
STYLE
  5
458C2
330
0
100
AcDbSymbolTable
 70
     1
  0
STYLE
  5
458CE
330
458C2
100
AcDbSymbolTableRecord
100
AcDbTextStyleTableRecord
  2
STANDARD
 70
     0
 40
0.0
 41
1.0
 50
0.0
 71
     0
 42
0.12
  3
txt
  4

  0
ENDTAB
  0
TABLE
  2
VIEW
  5
458C5
330
0
100
AcDbSymbolTable
 70
     0
  0
ENDTAB
  0
TABLE
  2
UCS
  5
458C6
330
0
100
AcDbSymbolTable
 70
     0
  0
ENDTAB
  0
TABLE
  2
APPID
  5
458C8
330
0
100
AcDbSymbolTable
 70
     1
  0
APPID
  5
458CF
330
458C8
100
AcDbSymbolTableRecord
100
AcDbRegAppTableRecord
  2
ACAD
 70
     0
  0
ENDTAB
  0
TABLE
  2
DIMSTYLE
  5
458C9
330
0
100
AcDbSymbolTable
 70
     2
  0
DIMSTYLE
105
458F6
102
{ACAD_REACTORS
330
45A9A
330
45AC4
330
45A5A
102
}
330
458C9
100
AcDbSymbolTableRecord
100
AcDbDimStyleTableRecord
  2
ABECAD_3D
 70
     0
  3

  4

  5

  6

  7

 40
1.0
 41
4.572
 42
1.587499999999999
 43
9.525
 44
4.572
 45
0.0
 46
0.0
 47
0.0
 48
0.0
140
4.572
141
2.286
142
0.0
143
0.03937
144
1.0
145
0.0
146
1.5
147
2.286
 71
     0
 72
     0
 73
     0
 74
     1
 75
     0
 76
     0
 77
     0
 78
     4
170
     1
171
     6
172
     0
173
     0
174
     0
175
     0
176
     0
177
     0
178
     0
270
     2
271
     2
272
     2
273
     7
274
     6
340
458CE
275
     0
280
     0
281
     0
282
     0
283
     1
284
     4
285
     4
286
     4
287
     5
288
     1
  0
DIMSTYLE
105
459E0
330
458C9
100
AcDbSymbolTableRecord
100
AcDbDimStyleTableRecord
  2
STANDARD
 70
     0
  3

  4

  5

  6

  7

 40
1.0
 41
0.18
 42
0.0625
 43
0.38
 44
0.18
 45
0.0
 46
0.0
 47
0.0
 48
0.0
140
0.18
141
0.09
142
0.0
143
25.4
144
1.0
145
0.0
146
1.0
147
0.09
 71
     0
 72
     0
 73
     1
 74
     1
 75
     0
 76
     0
 77
     0
 78
     0
170
     0
171
     2
172
     0
173
     0
174
     0
175
     0
176
     0
177
     0
178
     0
270
     2
271
     4
272
     4
273
     2
274
     2
340
458CE
275
     0
280
     0
281
     0
282
     0
283
     1
284
     0
285
     0
286
     0
287
     3
288
     0
  0
ENDTAB
  0
TABLE
  2
BLOCK_RECORD
  5
458C0
330
0
100
AcDbSymbolTable
 70
     4
  0
BLOCK_RECORD
  5
458D6
102
{ACAD_XDICTIONARY
360
45930
102
}
330
458C0
100
AcDbSymbolTableRecord
100
AcDbBlockTableRecord
  2
*MODEL_SPACE
  0
BLOCK_RECORD
  5
458D3
102
{ACAD_XDICTIONARY
360
4592E
102
}
330
458C0
100
AcDbSymbolTableRecord
100
AcDbBlockTableRecord
  2
*PAPER_SPACE
  0
BLOCK_RECORD
  5
45947
330
458C0
100
AcDbSymbolTableRecord
100
AcDbBlockTableRecord
  2
SCALE
  0
BLOCK_RECORD
  5
45A5B
330
458C0
100
AcDbSymbolTableRecord
100
AcDbBlockTableRecord
  2
*D1
  0
BLOCK_RECORD
  5
45A9B
330
458C0
100
AcDbSymbolTableRecord
100
AcDbBlockTableRecord
  2
*D2
  0
BLOCK_RECORD
  5
45AC5
330
458C0
100
AcDbSymbolTableRecord
100
AcDbBlockTableRecord
  2
*D3
  0
ENDTAB
  0
ENDSEC
  0
SECTION
  2
BLOCKS
  0
BLOCK
  5
458DF
330
458D6
100
AcDbEntity
  8
0
100
AcDbBlockBegin
  2
*MODEL_SPACE
 70
     0
 10
0.0
 20
0.0
 30
0.0
  3
*MODEL_SPACE
  1

  0
ENDBLK
  5
458E0
330
458D6
100
AcDbEntity
  8
0
100
AcDbBlockEnd
  0
BLOCK
  5
458DD
330
458D3
100
AcDbEntity
 67
     1
  8
0
100
AcDbBlockBegin
  2
*PAPER_SPACE
 70
     0
 10
0.0
 20
0.0
 30
0.0
  3
*PAPER_SPACE
  1

  0
ENDBLK
  5
458DE
330
458D3
100
AcDbEntity
 67
     1
  8
0
100
AcDbBlockEnd
  0
BLOCK
  5
45953
330
45947
100
AcDbEntity
  8
0
100
AcDbBlockBegin
  2
SCALE
 70
     0
 10
0.0
 20
0.0
 30
0.0
  3
SCALE
  1

  0
LINE
  5
45957
330
45947
100
AcDbEntity
  8
ATTRIBUTES
100
AcDbLine
 10
0.0606232467511401
 20
-2.689964797007751
 30
0.0
 11
1.06062324675114
 21
-2.689964797007751
 31
0.0
  0
LINE
  5
45958
330
45947
100
AcDbEntity
  8
ATTRIBUTES
100
AcDbLine
 10
1.06062324675114
 20
-2.689964797007751
 30
0.0
 11
1.06062324675114
 21
-2.789964797007752
 31
0.0
  0
LINE
  5
45959
330
45947
100
AcDbEntity
  8
ATTRIBUTES
100
AcDbLine
 10
1.06062324675114
 20
-2.789964797007752
 30
0.0
 11
1.06062324675114
 21
-2.589964797007751
 31
0.0
  0
LINE
  5
4595A
330
45947
100
AcDbEntity
  8
ATTRIBUTES
100
AcDbLine
 10
0.0606232467511401
 20
-2.789964797007752
 30
0.0
 11
0.0606232467511401
 21
-2.589964797007751
 31
0.0
  0
LINE
  5
4595B
330
45947
100
AcDbEntity
  8
ATTRIBUTES
100
AcDbLine
 10
0.0606232467511436
 20
-2.485774886090695
 30
0.0
 11
0.0606232467511436
 21
-2.285774886090696
 31
0.0
  0
LINE
  5
4595C
330
45947
100
AcDbEntity
  8
ATTRIBUTES
100
AcDbLine
 10
0.4543232467511436
 20
-2.485774886090695
 30
0.0
 11
0.4543232467511436
 21
-2.285774886090696
 31
0.0
  0
LINE
  5
4595D
330
45947
100
AcDbEntity
  8
ATTRIBUTES
100
AcDbLine
 10
0.0606232467511436
 20
-2.385774886090695
 30
0.0
 11
0.4543232467511436
 21
-2.385774886090695
 31
0.0
  0
TEXT
  5
4595E
330
45947
100
AcDbEntity
  8
ATTRIBUTES
100
AcDbText
 10
0.1200454018997208
 20
-2.340035240816581
 30
0.0
 40
0.0625
  1
10 mm
100
AcDbText
  0
TEXT
  5
4595F
330
45947
100
AcDbEntity
  8
ATTRIBUTES
100
AcDbText
 10
0.359752881912085
 20
-2.62091610163455
 30
0.0
 40
0.0625
  1
[1 Inch]
100
AcDbText
  0
TEXT
  5
45960
330
45947
100
AcDbEntity
  8
ATTRIBUTES
100
AcDbText
 10
0.052988761716863
 20
-2.167919074482353
 30
0.0
 40
0.0625
  1
SCALE:
100
AcDbText
  0
LWPOLYLINE
  5
45961
330
45947
100
AcDbEntity
  8
ATTRIBUTES
100
AcDbPolyline
 90
        4
 70
     1
 43
0.0
 10
-0.006540167756425
 20
-2.062717877051751
 10
1.129088651785547
 20
-2.062717877051751
 10
1.129088651785547
 20
-2.904327443829766
 10
-0.006540167756425
 20
-2.904327443829766
  0
ENDBLK
  5
45954
330
45947
100
AcDbEntity
  8
0
100
AcDbBlockEnd
  0
BLOCK
  5
45A66
330
45A5B
100
AcDbEntity
  8
0
100
AcDbBlockBegin
  2
*D1
 70
     1
 10
0.0
 20
0.0
 30
0.0
  3
*D1
  1

  0
LINE
  5
45C82
330
45A5B
100
AcDbEntity
  8
AREA1
 62
     0
100
AcDbLine
 10
44.34332776907308
 20
2.289750314022691
 30
0.0
 11
44.34332776907308
 21
7.736739670232865
 31
0.0
  0
LINE
  5
45C83
330
45A5B
100
AcDbEntity
  8
AREA1
 62
     0
100
AcDbLine
 10
46.34332776907307
 20
2.289750314036561
 30
0.0
 11
46.34332776907307
 21
7.736739670232865
 31
0.0
  0
LINE
  5
45C84
330
45A5B
100
AcDbEntity
  8
AREA1
 62
     0
100
AcDbLine
 10
42.34332776907308
 20
3.164739670232865
 30
0.0
 11
40.34332776907308
 21
3.164739670232865
 31
0.0
  0
LINE
  5
45C85
330
45A5B
100
AcDbEntity
  8
AREA1
 62
     0
100
AcDbLine
 10
48.34332776907308
 20
3.164739670232865
 30
0.0
 11
50.34332776907308
 21
3.164739670232865
 31
0.0
  0
MTEXT
  5
45C86
330
45A5B
100
AcDbEntity
  8
AREA1
 62
     0
100
AcDbMText
 10
45.99644749038805
 20
8.907533766939724
 30
0.0
 40
2.0
 41
0.0
 71
     5
 72
     1
  1
\A1;2.00 [5/64]
1001
ACAD
1000
MTEXTBEGIN
1070
    73
1070
     1
1070
    44
1040
1.0
1070
    74
1070
     0
1000
MTEXTEND
  0
SOLID
  5
45C87
330
45A5B
100
AcDbEntity
  8
AREA1
 62
     0
100
AcDbTrace
 10
42.34332776907308
 20
3.498073003566199
 30
0.0
 11
42.34332776907308
 21
2.831406336899532
 31
0.0
 12
44.34332776907308
 22
3.164739670232865
 32
0.0
 13
44.34332776907308
 23
3.164739670232865
 33
0.0
  0
SOLID
  5
45C88
330
45A5B
100
AcDbEntity
  8
AREA1
 62
     0
100
AcDbTrace
 10
48.34332776907308
 20
3.498073003566199
 30
0.0
 11
48.34332776907308
 21
2.831406336899532
 31
0.0
 12
46.34332776907307
 22
3.164739670232865
 32
0.0
 13
46.34332776907307
 23
3.164739670232865
 33
0.0
  0
POINT
  5
45C89
330
45A5B
100
AcDbEntity
  8
DEFPOINTS
 62
     0
100
AcDbPoint
 10
44.34332776907308
 20
0.7022503140226917
 30
23.95665513559424
  0
POINT
  5
45C8A
330
45A5B
100
AcDbEntity
  8
DEFPOINTS
 62
     0
100
AcDbPoint
 10
46.34332776907307
 20
0.7022503140365615
 30
1.0
  0
POINT
  5
45C8B
330
45A5B
100
AcDbEntity
  8
DEFPOINTS
 62
     0
100
AcDbPoint
 10
46.34332776907307
 20
3.164739670232865
 30
0.0
  0
ENDBLK
  5
45A67
330
45A5B
100
AcDbEntity
  8
0
100
AcDbBlockEnd
  0
BLOCK
  5
45AA6
330
45A9B
100
AcDbEntity
  8
0
100
AcDbBlockBegin
  2
*D2
 70
     1
 10
0.0
 20
0.0
 30
0.0
  3
*D2
  1

  0
LINE
  5
45C1D
330
45A9B
100
AcDbEntity
  8
AREA1
 62
     0
100
AcDbLine
 10
47.93082776907308
 20
0.7022503140226913
 30
0.0
 11
56.82857938806741
 21
0.7022503140226887
 31
0.0
  0
LINE
  5
45C1E
330
45A9B
100
AcDbEntity
  8
AREA1
 62
     0
100
AcDbLine
 10
47.93082776907307
 20
-65.29774968595602
 30
0.0
 11
56.8285793880674
 21
-65.29774968595602
 31
0.0
  0
LINE
  5
45C1F
330
45A9B
100
AcDbEntity
  8
AREA1
 62
     0
100
AcDbLine
 10
52.25657938806741
 20
-1.297749685977309
 30
0.0
 11
52.2565793880674
 21
-17.3450830193
 31
0.0
  0
LINE
  5
45C20
330
45A9B
100
AcDbEntity
  8
AREA1
 62
     0
100
AcDbLine
 10
52.2565793880674
 20
-63.29774968595602
 30
0.0
 11
52.2565793880674
 21
-47.25041635263334
 31
0.0
  0
MTEXT
  5
45C21
330
45A9B
100
AcDbEntity
  8
AREA1
 62
     0
100
AcDbMText
 10
52.2565793880674
 20
-32.29774968596666
 30
0.0
 40
2.0
 41
0.0
 71
     5
 72
     1
  1
\A1;66.00 [2 19/32]
 11
0.0000000000000001
 21
1.0
 31
0.0
1001
ACAD
1000
MTEXTBEGIN
1070
    73
1070
     1
1070
    44
1040
1.0
1070
    74
1070
     0
1000
MTEXTEND
  0
SOLID
  5
45C22
330
45A9B
100
AcDbEntity
  8
AREA1
 62
     0
100
AcDbTrace
 10
51.92324605473408
 20
-1.297749685977309
 30
0.0
 11
52.58991272140075
 21
-1.29774968597731
 31
0.0
 12
52.25657938806741
 22
0.70225031402269
 32
0.0
 13
52.25657938806741
 23
0.70225031402269
 33
0.0
  0
SOLID
  5
45C23
330
45A9B
100
AcDbEntity
  8
AREA1
 62
     0
100
AcDbTrace
 10
51.92324605473406
 20
-63.29774968595602
 30
0.0
 11
52.58991272140074
 21
-63.29774968595602
 31
0.0
 12
52.2565793880674
 22
-65.29774968595602
 32
0.0
 13
52.2565793880674
 23
-65.29774968595602
 33
0.0
  0
POINT
  5
45C24
330
45A9B
100
AcDbEntity
  8
DEFPOINTS
 62
     0
100
AcDbPoint
 10
46.34332776907308
 20
0.7022503140226917
 30
23.95665513559424
  0
POINT
  5
45C25
330
45A9B
100
AcDbEntity
  8
DEFPOINTS
 62
     0
100
AcDbPoint
 10
46.34332776907307
 20
-65.29774968595602
 30
24.06288909769692
  0
POINT
  5
45C26
330
45A9B
100
AcDbEntity
  8
DEFPOINTS
 62
     0
100
AcDbPoint
 10
52.2565793880674
 20
-65.29774968595602
 30
0.0
  0
ENDBLK
  5
45AA7
330
45A9B
100
AcDbEntity
  8
0
100
AcDbBlockEnd
  0
BLOCK
  5
45ACF
330
45AC5
100
AcDbEntity
  8
0
100
AcDbBlockBegin
  2
*D3
 70
     1
 10
0.0
 20
0.0
 30
0.0
  3
*D3
  1

  0
LINE
  5
45C62
330
45AC5
100
AcDbEntity
  8
AREA2
 62
     0
100
AcDbLine
 10
63.76327612907224
 20
31.60000000000364
 30
0.0
 11
73.85509428144186
 21
31.60000000000364
 31
0.0
  0
LINE
  5
45C63
330
45AC5
100
AcDbEntity
  8
AREA2
 62
     0
100
AcDbLine
 10
66.88524968596344
 20
1.0
 30
0.0
 11
73.85509428144186
 21
0.999999999999998
 31
0.0
  0
LINE
  5
45C64
330
45AC5
100
AcDbEntity
  8
AREA2
 62
     0
100
AcDbLine
 10
69.28309428144186
 20
29.60000000000364
 30
0.0
 11
69.28309428144186
 21
29.37766666666847
 31
0.0
  0
LINE
  5
45C65
330
45AC5
100
AcDbEntity
  8
AREA2
 62
     0
100
AcDbLine
 10
69.28309428144186
 20
2.999999999999999
 30
0.0
 11
69.28309428144186
 21
3.222333333335142
 31
0.0
  0
MTEXT
  5
45C66
330
45AC5
100
AcDbEntity
  8
AREA2
 62
     0
100
AcDbMText
 10
69.28309428144186
 20
16.30000000000181
 30
0.0
 40
1.75
 41
0.0
 71
     5
 72
     1
  1
\A1;30.60 [1 13/64]
 11
0.0000000000000001
 21
1.0
 31
0.0
1001
ACAD
1000
MTEXTBEGIN
1070
    73
1070
     1
1070
    44
1040
1.0
1070
    74
1070
     0
1000
MTEXTEND
  0
SOLID
  5
45C67
330
45AC5
100
AcDbEntity
  8
AREA2
 62
     0
100
AcDbTrace
 10
68.94976094810854
 20
29.60000000000364
 30
0.0
 11
69.61642761477519
 21
29.60000000000364
 31
0.0
 12
69.28309428144186
 22
31.60000000000364
 32
0.0
 13
69.28309428144186
 23
31.60000000000364
 33
0.0
  0
SOLID
  5
45C68
330
45AC5
100
AcDbEntity
  8
AREA2
 62
     0
100
AcDbTrace
 10
68.94976094810854
 20
2.999999999999999
 30
0.0
 11
69.61642761477519
 21
2.999999999999999
 31
0.0
 12
69.28309428144186
 22
0.9999999999999992
 32
0.0
 13
69.28309428144186
 23
0.9999999999999992
 33
0.0
  0
POINT
  5
45C69
330
45AC5
100
AcDbEntity
  8
DEFPOINTS
 62
     0
100
AcDbPoint
 10
62.17577612907223
 20
31.60000000000364
 30
-44.34332776907306
  0
POINT
  5
45C6A
330
45AC5
100
AcDbEntity
  8
DEFPOINTS
 62
     0
100
AcDbPoint
 10
65.29774968596344
 20
1.0
 30
-44.34332776907306
  0
POINT
  5
45C6B
330
45AC5
100
AcDbEntity
  8
DEFPOINTS
 62
     0
100
AcDbPoint
 10
69.28309428144186
 20
0.9999999999999992
 30
0.0
  0
ENDBLK
  5
45AD0
330
45AC5
100
AcDbEntity
  8
0
100
AcDbBlockEnd
  0
ENDSEC
  0
SECTION
  2
ENTITIES
  0
ATTDEF
  5
1
330
458D6
100
AcDbEntity
  8
ATTRIBUTES
100
AcDbText
 10
44.56145981524498
 20
-26.67891332824743
 30
1.00337361983273
 40
0.11999952000048
  1
ALLEN-BRADLEY
100
AcDbAttributeDefinition
  3
MANUFACTURER NAME?
  2
AC_VND_LABEL
 70
     1
  0
ATTDEF
  5
2
330
458D6
100
AcDbEntity
  8
ATTRIBUTES
100
AcDbText
 10
44.56145981524498
 20
-26.92891232824843
 30
1.00337361983273
 40
0.11999952000048
  1
1492-EBL3T
100
AcDbAttributeDefinition
  3
CATALOG NUMBER?
  2
AC_PART_NO
 70
     1
  0
ATTDEF
  5
3
330
458D6
100
AcDbEntity
  8
ATTRIBUTES
100
AcDbText
 10
44.56145981524498
 20
-27.17891132824943
 30
1.00337361983273
 40
0.11999952000048
  1
End Barrier
100
AcDbAttributeDefinition
  3
PART DESCRIPTION?
  2
AC_DESCRIPTION
 70
     1
  0
ATTDEF
  5
4
330
458D6
100
AcDbEntity
  8
ATTRIBUTES
100
AcDbText
 10
44.56145981524498
 20
-27.42891032825044
 30
1.00337361983273
 40
0.11999952000048
  1

100
AcDbAttributeDefinition
  3
DEVICE ID?
  2
DEVICE_ID
 70
     1
  0
ATTDEF
  5
5
330
458D6
100
AcDbEntity
  8
ATTRIBUTES
100
AcDbText
 10
44.56145981524498
 20
-27.67890932825143
 30
1.00337361983273
 40
0.11999952000048
  1

100
AcDbAttributeDefinition
  3
CUSTOMER PART NUMBER?
  2
AC_CPART_NO
 70
     1
  0
ATTDEF
  5
6
330
458D6
100
AcDbEntity
  8
ATTRIBUTES
100
AcDbText
 10
44.56145981524498
 20
-27.92890832825243
 30
1.00337361983273
 40
0.11999952000048
  1

100
AcDbAttributeDefinition
  3
CUSTOMER NOTE?
  2
AC_NOTE
 70
     1
  0
ATTDEF
  5
7
330
458D6
100
AcDbEntity
  8
ATTRIBUTES
100
AcDbText
 10
44.56145981524498
 20
-28.17890732825343
 30
1.00337361983273
 40
0.11999952000048
  1

100
AcDbAttributeDefinition
  3
FASTENER DATA?
  2
FASTENER
 70
     1
  0
ATTDEF
  5
8
330
458D6
100
AcDbEntity
  8
ATTRIBUTES
100
AcDbText
 10
44.56145981524498
 20
-28.42890632825443
 30
1.00337361983273
 40
0.11999952000048
  1
MM
100
AcDbAttributeDefinition
  3
UNIT OF SCALE?
  2
AC_SCALE_UNIT
 70
     1
  0
ATTDEF
  5
9
330
458D6
100
AcDbEntity
  8
ATTRIBUTES
100
AcDbText
 10
44.56145981524498
 20
-28.67890532825543
 30
1.00337361983273
 40
0.11999952000048
  1
0
100
AcDbAttributeDefinition
  3
VIEW CODE?
  2
AC_VIEW_CODE
 70
     1
  0
LINE
  5
45967
330
458D6
100
AcDbEntity
  8
SCALE
100
AcDbLine
 10
2.057631564008593
 20
-20.58353988219963
 30
1.0
 11
27.45763156400859
 21
-20.58353988219963
 31
1.0
  0
LINE
  5
45968
330
458D6
100
AcDbEntity
  8
SCALE
100
AcDbLine
 10
27.45763156400859
 20
-23.12353988219963
 30
1.0
 11
27.45763156400859
 21
-18.0435398821996
 31
1.0
  0
LINE
  5
4596A
330
458D6
100
AcDbEntity
  8
SCALE
100
AcDbLine
 10
2.057631564008593
 20
-23.12353988219963
 30
1.0
 11
2.057631564008593
 21
-18.0435398821996
 31
1.0
  0
LINE
  5
4596B
330
458D6
100
AcDbEntity
  8
SCALE
100
AcDbLine
 10
2.057631564008683
 20
-15.39711614490639
 30
1.0
 11
2.057631564008683
 21
-10.31711614490641
 31
1.0
  0
LINE
  5
4596C
330
458D6
100
AcDbEntity
  8
SCALE
100
AcDbLine
 10
12.05761156400868
 20
-15.39711614490639
 30
1.0
 11
12.05761156400868
 21
-10.31711614490641
 31
1.0
  0
LINE
  5
4596D
330
458D6
100
AcDbEntity
  8
SCALE
100
AcDbLine
 10
2.057631564008683
 20
-12.8571161449064
 30
1.0
 11
12.05761156400868
 21
-12.8571161449064
 31
1.0
  0
TEXT
  5
4596E
330
458D6
100
AcDbEntity
  8
SCALE
100
AcDbText
 10
3.566954304782544
 20
-11.6953291549439
 30
1.0
 40
1.587499999999999
  1
10 mm
100
AcDbText
  0
TEXT
  5
4596F
330
458D6
100
AcDbEntity
  8
SCALE
100
AcDbText
 10
9.655524297096594
 20
-18.82970301972032
 30
1.0
 40
1.587499999999999
  1
[1 Inch]
100
AcDbText
  0
TEXT
  5
45970
330
458D6
100
AcDbEntity
  8
SCALE
100
AcDbText
 10
1.863715644137954
 20
-7.323578530054531
 30
1.0
 40
1.587499999999999
  1
SCALE:
100
AcDbText
  0
3DSOLID
  5
45A4B
330
458D6
100
AcDbEntity
  8
0
100
AcDbModelerGeometry
 70
     1
  1
noi nim n o         
  1
=0;& {n {m {rn {rn |
  1
-:9@)+r3(;r>++-6= {rn {rn {rn {o {l {k |
  1
3*2/ {j {rn {i {o |
  1
-:961:2:1+ {rn o o o o oqnfmimjhhjfllmijif lo o o m o |
  1
):-+:'@+:2/3>+: {rn l o n g |
  1
-:9@)+r3(;r>++-6= {rn {rn {rn {m {l {k |
  1
,7:33 {h {rn {rn {g {m |
  1
-:9@)+r3(;r>++-6= {rn {rn {rn {i {l {k |
  1
9><: {f {no {nn {i {rn {nm 90-(>-; ,6183: |
  1
92:,7r3(;r>++-6= {rn {nl {rn {g |
  1
9><: {nk {nj {ni {i {rn {nh -:):-,:; ,6183: |
  1
300/ {rn {rn {ng {g |
  1
/3>1:r,*-9><: {rn kkqlkllmhhifohloil rigqjfhhkfigjfilkli roqjloooooooooojkiol rn nqglifofjlohlljijf:roni mqmmokkiokfmjolnln:roni rnqglifofjlohlljijf:roni rn o o V V V V |
  1
-:9@)+r3(;r>++-6= {rn {rn {f {g {l {k |
  1
92:,7r3(;r>++-6= {rn {nf {rn {no |
  1
9><: {mo {mn {mm {i {rn {ml -:):-,:; ,6183: |
  1
300/ {rn {rn {mk {no |
  1
/3>1:r,*-9><: {rn kiqlkllmhhifohloil rigqjfhhkfigjfilkli roqjloooooooooojkikg rn nqglifofjlohlljijf:roni mqmmokkiokfmjolnln:roni rnqglifofjlohlljijf:roni rn o o V V V V |
  1
<0:;8: {rn {mj {mi {mh {mg n {nn {rn |
  1
-:9@)+r3(;r>++-6= {rn {rn {nk {no {l {k |
  1
92:,7r3(;r>++-6= {rn {mf {rn {nj |
  1
9><: {lo {ln {lm {i {rn {ll -:):-,:; ,6183: |
  1
300/ {rn {rn {lk {nj |
  1
/3>1:r,*-9><: {rn kiqkkllmhhifohlogi rmqimmomjikjgffifhn lnqfgmnihmklmnfkgi rmqjkignnolkomgloll:roni roqfmlghfjlmjnnmhijm roqlgmiglklmlijnnkjk n rnqglifofjlohlljijf:roni rmqmmokkiokfmjolnln:roni o V V V V |
  1
<0:;8: {rn {lj {li {lh {lg o {ni {rn |
  1
<0:;8: {rn {lf {ng {ko {kn n {nn {rn |
  1
<0:;8: {rn {ng {km {kl {kk n {nn {rn |
  1
<0:;8: {rn {lk {kj {ng {mg o {mm {rn |
  1
:;8: {ki {kh {kg {ng {kf o |
  1
-:9@)+r3(;r>++-6= {rn {rn {mo {nj {l {k |
  1
92:,7r3(;r>++-6= {rn {jo {rn {mn |
  1
9><: {jn {jm {jl {i {rn {jk 90-(>-; ,6183: |
  1
300/ {rn {rn {jj {mn |
  1
/3>1:r,*-9><: {rn kiqkkllmhhifohlohf oqhommjolnkolijinki mjqnokkghgfmlg rnqglifofjlohlljijf:roni rn o n rnqglifofjlohlljijf:roni rmqmmokkiokfmjolnln:roni o V V V V |
  1
<0:;8: {rn {ji {mh {jh {jg o {mm {rn |
  1
<0:;8: {rn {jf {mk {io {in n {ni {rn |
  1
<0:;8: {rn {mk {im {ji {il o {ni {rn |
  1
<0:;8: {rn {jh {ik {mk {lg n {ij {rn |
  1
:;8: {ii {ih {ig {mk {if o |
  1
<0:;8: {rn {ho {mj {hn {hm o {nn {rn |
  1
<0:;8: {rn {jj {hl {mj {kn o {lm {rn |
  1
:;8: {hk {hj {kh {mj {hi o |
  1
<0:;8: {rn {mi {ho {hh {hg o {nn {rn |
  1
<0:;8: {rn {ik {jh {mi {kk o {ij {rn |
  1
:;8: {hf {kg {go {mi {gn o |
  1
<0:;8: {rn {mh {ji {jj {gm n {mm {rn |
  1
/+36,+r3(;r>++-6= {rn {rn {rn {mg |
  1
):-+:' {rn {mg {gl |
  1
):-+:' {rn {mg {gk |
  1
,+->687+r<*-): {rn kkqlkllmhhifohlogj oqhommjolnlffkfmlii mlqfjiijjnljjgmhjh nqlkgkifgnlhgmjgkk:roni roqlgmiglklmlijnnmok oqfmlghfjlmjnnmhhil V V |
  1
-:9@)+r3(;r>++-6= {rn {rn {lo {mn {l {k |
  1
92:,7r3(;r>++-6= {rn {gj {rn {ln |
  1
9><: {gi {gh {gg {i {rn {gf 90-(>-; ,6183: |
  1
300/ {rn {rn {hn {ln |
  1
/3>1:r,*-9><: {rn kiqkkllmhhifohloij rigqjfhhkfigjfilkli n rmqmmokkiokfmjolnln:roni kqohghjgjnolkhjfmf:rolm rn n rnqglifofjlohlljijf:roni rmqmmokkiokfmjolnln:roni o V V V V |
  1
<0:;8: {rn {fo {ko {kj {gm o {lm {rn |
  1
<0:;8: {rn {kj {lk {li {il n {mm {rn |
  1
<0:;8: {rn {kl {lh {lk {jg n {ij {rn |
  1
:;8: {fn {kg {ih {lk {fm o |
  1
<0:;8: {rn {fl {lj {fk {fj n {ni {rn |
  1
<0:;8: {rn {fi {fh {lj {in o {fg {rn |
  1
:;8: {ff {noo {ig {lj {non o |
  1
<0:;8: {rn {li {fl {fo {nom o {ni {rn |
  1
:;8: {nol {nok {ih {li {noj o |
  1
<0:;8: {rn {lh {kl {fi {noi o {ij {rn |
  1
300/ {rn {rn {ik {noh |
  1
/+36,+r3(;r>++-6= {rn {rn {rn {lg |
  1
):-+:' {rn {lg {nog |
  1
):-+:' {rn {lg {nof |
  1
,+->687+r<*-): {rn kiqlkllmhhifohlogj rmqkilhmihfoiilkklj lnqiooooooooooooon rnqglifofjlohlljijf:roni rn o V V |
  1
<0:;8: {rn {km {lf {nno {nnn o {nn {rn |
  1
<0:;8: {rn {nnm {nnl {lf {hm n {jl {rn |
  1
:;8: {nnk {hj {nnj {lf {nni o |
  1
<0:;8: {rn {ko {fo {nnm {nnh n {lm {rn |
  1
/+36,+r3(;r>++-6= {rn {rn {rn {kn |
  1
):-+:' {rn {kn {nng |
  1
,+->687+r<*-): {rn kkqlkllmhhifohlohg oqhommjolnkolijinki nqoooooooooooooook mqmmokkiokfmjolnln:roni rkqohghjgjnolkhjfmf:rolm n V V |
  1
<0:;8: {rn {fh {fi {km {hg n {fg {rn |
  1
:;8: {nnf {nmo {go {km {nmn o |
  1
/+36,+r3(;r>++-6= {rn {rn {rn {kk |
  1
):-+:' {rn {hg {nmm |
  1
,+->687+r<*-): {rn kkqlkllmhhifohlogj rmqkilhmihfoiilkklj lnqiooooooooooooon rnqglifofjlohlljijf:roni rn o V V |
  1
:;8: {nml {kh {nok {kj {nmk o |
  1
/061+ {rn kkqlkllmhhifohlogj oqhommjolnkommifnih mlqfjiijjnljjfkmj |
  1
/061+ {rn kkqlkllmhhifohlogj rmqkilhmihfoigjifhh lnqjffffffffffohgi |
  1
-:9@)+r3(;r>++-6= {rn {rn {jn {ln {l {k |
  1
92:,7r3(;r>++-6= {rn {nmj {rn {jm |
  1
9><: {nmi {noh {fg {i {rn {nmh 90-(>-; ,6183: |
  1
300/ {rn {rn {nno {jm |
  1
/3>1:r,*-9><: {rn kiqkkllmhhifohlohm rijqmfhhkfigjfilklf mjqmniolljjmjgjooh rnqglifofjlohlljijf:roni rn o n rnqglifofjlohlljijf:roni rmqmmokkiokfmjolnln:roni o V V V V |
  1
<0:;8: {rn {hl {jj {im {nom n {lm {rn |
  1
/+36,+r3(;r>++-6= {rn {rn {rn {jg |
  1
,+->687+r<*-): {rn kkqlkllmhhifohlogj rmqkilhmihfoiilkklj lnqiooooooooooooon n rnqglifofjlohlljijf:roni rmqmmokkiokfmjolnln:roni V V |
  1
<0:;8: {rn {im {jf {nmg {nmf n {ni {rn |
  1
<0:;8: {rn {nlo {nln {jf {fj o {gg {rn |
  1
:;8: {nlm {nll {noo {jf {nlk o |
  1
<0:;8: {rn {hh {io {ik {noi n {fg {rn |
  1
<0:;8: {rn {io {hh {nlo {nlj o {fg {rn |
  1
300/ {rn {rn {hh {gh |
  1
/+36,+r3(;r>++-6= {rn {rn {rn {in |
  1
):-+:' {rn {in {nli |
  1
,+->687+r<*-): {rn kiqlkllmhhifohloh rijqmfhhkfigjfknnh mkqoimggfofhifohgm mqhngnginfmhgmlfnn:roni oqlgmiglklmlijnnlkf oqfmlghfjlmjnnmhifh V V |
  1
:;8: {nlh {nlg {nok {im {nlf o |
  1
/+36,+r3(;r>++-6= {rn {rn {rn {il |
  1
):-+:' {rn {nom {nko |
  1
,+->687+r<*-): {rn kiqlkllmhhifohlogj oqhommjolnlffkfmlii mlqfjiijjnljjgmhjh nqlmkfmollklnlnhhl:roni roqlgmiglklmlijnnmok oqfmlghfjlmjnnmhhil V V |
  1
:;8: {nkn {go {ig {fi {nkm o |
  1
9><: {nkl {rn {ij {i {rn {nkk -:):-,:; ,6183: |
  1
/061+ {rn kiqlkllmhhifohlogj rmqkilhmihfoigjifhh lnqjffffffffffohgi |
  1
/061+ {rn kiqlkllmhhifohloh rimqnhjhhinmfohmmk lnqioooooooooolikl |
  1
<0:;8: {rn {nln {nlo {ho {nnn n {gg {rn |
  1
:;8: {nkj {nnj {nmo {ho {nki o |
  1
<0:;8: {rn {nmg {hn {hl {nnh o {jl {rn |
  1
<0:;8: {rn {hn {nmg {nln {nkh n {jl {rn |
  1
/+36,+r3(;r>++-6= {rn {rn {rn {hm |
  1
):-+:' {rn {hm {nkg |
  1
,+->687+r<*-): {rn kkqlkllmhhifohlohg oqhommjolnkolijinki nqoooooooooooooook rnqglifofjlohlljijf:roni rn o V V |
  1
:;8: {nkf {hj {nlg {hl {njo o |
  1
/061+ {rn kkqlkllmhhifohlohg oqhommjolnkolijinki nqoooooooooooooook |
  1
/+36,+r3(;r>++-6= {rn {rn {rn {hg |
  1
):-+:' {rn {nnn {njn |
  1
,+->687+r<*-): {rn kkqlkllmhhifohloh rijqmfhhkfigjfknnh mkqoimggfofhifohgm mqhjklhfjomnnlmoml:roni oqlgmiglklmlijnnlkf oqfmlghfjlmjnnmhifh V V |
  1
/061+ {rn kkqlkllmhhifohloh rimqnhjhhinmfohmmk lnqioooooooooolikl |
  1
/+36,+r3(;r>++-6= {rn {rn {rn {gm |
  1
,+->687+r<*-): {rn kkqlkllmhhifohlogj oqhommjolnkolijinki mlqfjiijjnljioooom n rnqglifofjlohlljijf:roni rmqmmokkiokfmjolnln:roni V V |
  1
-:9@)+r3(;r>++-6= {rn {rn {gi {jm {l {k |
  1
92:,7r3(;r>++-6= {rn {njm {rn {gh |
  1
/3>1:r,*-9><: {rn kiqkkllmhhifohlohm rimqonfihhkjnmmoghm lnqfhigjjjkjnnion rgqkhljjmolonofihml:ronh roqfmlghfjlmjnnmhijm oqlgmiglklmlijnnkjk n rnqglifofjlohlljijf:roni rmqmmokkiokfmjolnln:roni o V V V V |
  1
<0:;8: {rn {nnl {nnm {fl {nmf o {jl {rn |
  1
:;8: {njl {nlg {nll {fl {njk o |
  1
<0:;8: {rn {nno {fk {fh {nlj n {gg {rn |
  1
<0:;8: {rn {fk {nno {nnl {nkh o {gg {rn |
  1
/+36,+r3(;r>++-6= {rn {rn {rn {fj |
  1
):-+:' {rn {fj {njj |
  1
,+->687+r<*-): {rn kiqlkllmhhifohloil rijqmfhhkfigjfilklf n mqmmokkiokfmjolnln:roni rkqohghjgjnolkhjfmf:rolm n V V |
  1
:;8: {nji {nmo {noo {nlo {njh o |
  1
/061+ {rn kiqlkllmhhifohloh rijqmfhhkfigjfjiom mkqoimggfofhififmg |
  1
/+36,+r3(;r>++-6= {rn {rn {rn {nom |
  1
):-+:' {rn {nmf {njg |
  1
,+->687+r<*-): {rn kiqlkllmhhifohlohg oqhommjolnkolijinki n mqmmokkiokfmjolnln:roni rkqohghjgjnolkhjfmf:rolm n V V |
  1
/061+ {rn kiqlkllmhhifohlogj oqhommjolnkommifnih mlqfjiijjnljjfkmj |
  1
/+36,+r3(;r>++-6= {rn {rn {rn {noi |
  1
,+->687+r<*-): {rn kkqlkllmhhifohloh rimqnhjhhinmfoilkkl lnqiooooooooooooon n rnqglifofjlohlljijf:roni rmqmmokkiokfmjolnln:roni V V |
  1
92:,7r3(;r>++-6= {rn {njf {rn {noh |
  1
/3>1:r,*-9><: {rn kiqkkllmhhifohlohm rijqninlhgjfjfglkj lnqiooooooooooooon rmqmmokkiokfmjolnln:roni kqohghjgjnolkhjfmf:rolm rn n rnqglifofjlohlljijf:roni rmqmmokkiokfmjolnln:roni o V V V V |
  1
/+36,+r3(;r>++-6= {rn {rn {rn {nnn |
  1
,+->687+r<*-): {rn kkqlkllmhhifohloil rijqmfhhkfigjfilklf nqoooooooooooooook mqmmokkiokfmjolnln:roni rkqohghjgjnolkhjfmf:rolm n V V |
  1
:;8: {nio {nnj {nll {nnl {nin o |
  1
/061+ {rn kkqlkllmhhifohloil rijqmfhhkfigjfilklf nqoooooooooooooook |
  1
/+36,+r3(;r>++-6= {rn {rn {rn {nnh |
  1
,+->687+r<*-): {rn kkqlkllmhhifohlohg oqhommjolnkolijinki nqoooooooooooooook n rnqglifofjlohlljijf:roni rmqmmokkiokfmjolnln:roni V V |
  1
/061+ {rn kkqlkllmhhifohloh rijqmfhhkfigjfjiom mkqoimggfofhififmg |
  1
-:9@)+r3(;r>++-6= {rn {rn {nmi {gh {l {k |
  1
/+36,+r3(;r>++-6= {rn {rn {rn {nmf |
  1
,+->687+r<*-): {rn kiqlkllmhhifohlohg oqhommjolnkolijinki n rnqglifofjlohlljijf:roni rn o V V |
  1
/061+ {rn kiqlkllmhhifohloil rijqmfhhkfigjfilklf n |
  1
/+36,+r3(;r>++-6= {rn {rn {rn {nlj |
  1
,+->687+r<*-): {rn kkqlkllmhhifohloh rijqmfhhkfigjfilklf mkqoimggfofhhoooon n rnqglifofjlohlljijf:roni rmqmmokkiokfmjolnln:roni V V |
  1
/061+ {rn kiqlkllmhhifohlohg oqhommjolnkolijinki n |
  1
-:9@)+r3(;r>++-6= {rn {rn {nkl {noh {l {k |
  1
/+36,+r3(;r>++-6= {rn {rn {rn {nkh |
  1
,+->687+r<*-): {rn kkqlkllmhhifohloil rijqmfhhkfigjfilklf nqoooooooooooooook n rnqglifofjlohlljijf:roni rmqmmokkiokfmjolnln:roni V V |
  0
DIMENSION
  5
45A5A
330
458D6
100
AcDbEntity
  8
AREA1
100
AcDbDimension
  2
*D1
 10
46.34332776907307
 20
3.164739670232865
 30
1.0
 11
45.99644749038805
 21
8.907533766939724
 31
1.0
 70
   160
  3
ABECAD_3D
100
AcDbAlignedDimension
 13
44.34332776907308
 23
0.7022503140226917
 33
24.95665513559425
 14
46.34332776907307
 24
0.7022503140365615
 34
2.0
100
AcDbRotatedDimension
1001
ACAD
1000
DSTYLE
1002
{
1070
   140
1040
2.0
1070
    41
1040
2.0
1002
}
  0
DIMENSION
  5
45A9A
330
458D6
100
AcDbEntity
  8
AREA1
100
AcDbDimension
  2
*D2
 10
52.2565793880674
 20
-65.29774968595602
 30
1.0
 11
52.2565793880674
 21
-32.29774968596666
 31
1.0
 70
   160
  3
ABECAD_3D
100
AcDbAlignedDimension
 13
46.34332776907308
 23
0.7022503140226917
 33
24.95665513559425
 14
46.34332776907307
 24
-65.29774968595602
 34
25.06288909769692
 50
90.0
100
AcDbRotatedDimension
1001
ACAD
1000
DSTYLE
1002
{
1070
   140
1040
2.0
1070
    41
1040
2.0
1002
}
  0
DIMENSION
  5
45AC4
330
458D6
100
AcDbEntity
  8
AREA2
100
AcDbDimension
  2
*D3
 10
46.34332776907307
 20
-69.28309428144186
 30
0.9999999999999992
 11
69.28309428144186
 21
16.30000000000181
 31
-46.34332776907307
 70
   160
210
-1.0
220
0.0
230
0.0
  3
ABECAD_3D
100
AcDbAlignedDimension
 13
90.68665553814614
 23
-62.17577612907223
 33
31.60000000000364
 14
90.68665553814614
 24
-65.29774968596344
 34
1.0
 50
90.0
100
AcDbRotatedDimension
1001
ACAD
1000
DSTYLE
1002
{
1070
   140
1040
1.75
1070
    41
1040
2.0
1002
}
  0
POINT
  5
45C6D
330
458D6
100
AcDbEntity
  8
SNAP_POINTS
100
AcDbPoint
 10
46.34332776907307
 20
0.7022503140365615
 30
1.0
  0
LWPOLYLINE
  5
45C98
330
458D6
100
AcDbEntity
  8
SCALE
100
AcDbPolyline
 90
        4
 70
     1
 43
0.0
 38
1.0
 10
0.3516808355164418
 20
-4.651468115317229
 10
29.19665285188253
 20
-4.651468115317229
 10
29.19665285188253
 20
-26.0283511114788
 10
0.3516808355164418
 20
-26.0283511114788
  0
ENDSEC
  0
SECTION
  2
OBJECTS
  0
DICTIONARY
  5
458CB
330
0
100
AcDbDictionary
  3
ACAD_COLOR
350
459D8
  3
ACAD_GROUP
350
458CC
  3
ACAD_LAYOUT
350
458FB
  3
ACAD_MATERIAL
350
459D7
  3
ACAD_MLINESTYLE
350
458D9
  3
ACAD_PLOTSETTINGS
350
458FC
  3
ACAD_PLOTSTYLENAME
350
458F9
  3
ACAD_TABLESTYLE
350
45B9E
  3
ACDBHEADERROUNDTRIPXREC
350
45D49
  3
ACDBVARIABLEDICTIONARY
350
458E1
  3
AUXHDRRNDTRIPDATA
350
45CC7
  3
BNS_VARIABLES
350
45C8C
  3
DWGPROPS
350
45CA5
  0
DICTIONARY
  5
45930
330
458D6
100
AcDbDictionary
280
     1
  3
ACAD_LAYOUTSELFREF
360
45D6B
  3
ACAD_SORTENTS
360
45C97
  0
DICTIONARY
  5
4592E
330
458D3
100
AcDbDictionary
280
     1
  3
ACAD_LAYOUTSELFREF
360
45D6A
  0
DICTIONARY
  5
459D8
102
{ACAD_REACTORS
330
458CB
102
}
330
458CB
100
AcDbDictionary
  0
DICTIONARY
  5
458CC
102
{ACAD_REACTORS
330
458CB
102
}
330
458CB
100
AcDbDictionary
  0
DICTIONARY
  5
458FB
102
{ACAD_REACTORS
330
458CB
102
}
330
458CB
100
AcDbDictionary
  0
DICTIONARY
  5
459D7
102
{ACAD_REACTORS
330
458CB
102
}
330
458CB
100
AcDbDictionary
  0
DICTIONARY
  5
458D9
102
{ACAD_REACTORS
330
458CB
102
}
330
458CB
100
AcDbDictionary
  3
STANDARD
350
458DA
  0
DICTIONARY
  5
458FC
102
{ACAD_REACTORS
330
458CB
102
}
330
458CB
100
AcDbDictionary
  0
ACDBDICTIONARYWDFLT
  5
458F9
102
{ACAD_REACTORS
330
458CB
102
}
330
458CB
100
AcDbDictionary
281
     1
  3
Normal
350
458FA
100
AcDbDictionaryWithDefault
340
458FA
  0
DICTIONARY
  5
45B9E
102
{ACAD_REACTORS
330
458CB
102
}
330
458CB
100
AcDbDictionary
  3
STANDARD
350
45B9F
  0
DICTIONARY
  5
45D49
102
{ACAD_REACTORS
330
458CB
102
}
330
458CB
100
AcDbDictionary
  3
CEPSNTYPE
350
45D53
  3
DIMSTYLEDATA
350
45D57
  3
FINGERPRINTGUID
350
45D54
  3
HYPERLINKBASE
350
45D4C
  3
INSUNITS
350
45D52
  3
LAYOUTDICT
350
45D4E
  3
LWETCUNION
350
45D51
  3
PLOTSETDICT
350
45D4F
  3
PLOTSTYLNAMDICT
350
45D50
  3
PSVPSCALE
350
45D56
  3
PUCSBASE
350
45D5A
  3
PUCSORGBACK
350
45D60
  3
PUCSORGBOTTOM
350
45D5C
  3
PUCSORGFRONT
350
45D5F
  3
PUCSORGLEFT
350
45D5D
  3
PUCSORGRIGHT
350
45D5E
  3
PUCSORGTOP
350
45D5B
  3
PUCSORTHOREF
350
45D58
  3
PUCSORTHOVIEW
350
45D59
  3
STYLESHEET
350
45D4D
  3
TSTACKALIGN
350
45D4A
  3
TSTACKSIZE
350
45D4B
  3
UCSBASE
350
45D63
  3
UCSORGBACK
350
45D69
  3
UCSORGBOTTOM
350
45D65
  3
UCSORGFRONT
350
45D68
  3
UCSORGLEFT
350
45D66
  3
UCSORGRIGHT
350
45D67
  3
UCSORGTOP
350
45D64
  3
UCSORTHOREF
350
45D61
  3
UCSORTHOVIEW
350
45D62
  3
VERSIONGUID
350
45D55
  0
DICTIONARY
  5
458E1
102
{ACAD_REACTORS
330
458CB
102
}
330
458CB
100
AcDbDictionary
  3
CTABLESTYLE
350
45C9A
  3
DIMADEC
350
458E2
  3
DIMASSOC
350
45A55
  3
PROJECTNAME
350
45A56
  0
XRECORD
  5
45CC7
102
{ACAD_REACTORS
330
458CB
102
}
330
458CB
100
AcDbXrecord
310
64000000000000000D0000001900270002000A000000000015000800150008000500930805009308000000000B000000000002000000F27E000000000C00000000000000000000000D000000000000000000000000000000000000000000000084F7A8F4
  0
DICTIONARY
  5
45C8C
102
{ACAD_REACTORS
330
458CB
102
}
330
458CB
100
AcDbDictionary
  3
ACET-OVERKILL-FUZZ
350
45C8D
  3
ACET-OVERKILL-NO-ENDTOEND
350
45C90
  3
ACET-OVERKILL-NO-PARTIAL
350
45C8F
  3
ACET-OVERKILL-NO-PLINES
350
45C8E
  0
XRECORD
  5
45CA5
102
{ACAD_REACTORS
330
458CB
102
}
330
458CB
100
AcDbXrecord
  1
DWGPROPS COOKIE
  2

  3

  4

  6

  7

  8
jphassel
  9

300
=
301
=
302
=
303
=
304
=
305
=
306
=
307
=
308
=
309
=
 40
0.3463895833333333
 41
2451760.428845717
 42
2453115.709645069
  1

 90
        0
  0
XRECORD
  5
45D6B
102
{ACAD_REACTORS
330
45930
102
}
330
45930
100
AcDbXrecord
340
458D6
  0
SORTENTSTABLE
  5
45C97
102
{ACAD_REACTORS
330
45930
102
}
330
45930
100
AcDbSortentsTable
330
458D6
331
45968
  5
45968
331
45C98
  5
45A5A
331
4596B
  5
4596B
331
45A5A
  5
45C94
331
2
  5
2
331
45C6D
  5
45C98
331
4596E
  5
4596E
331
5
  5
5
331
45967
  5
45967
331
45A4B
  5
45C93
331
8
  5
8
331
3
  5
3
331
4596C
  5
4596C
331
6
  5
6
331
9
  5
9
331
45A9A
  5
45C95
331
4596F
  5
4596F
331
45AC4
  5
45C96
331
4596A
  5
4596A
331
4596D
  5
4596D
331
45970
  5
45970
331
7
  5
7
331
4
  5
4
331
1
  5
1
  0
XRECORD
  5
45D6A
102
{ACAD_REACTORS
330
4592E
102
}
330
4592E
100
AcDbXrecord
340
458D3
  0
MLINESTYLE
  5
458DA
102
{ACAD_REACTORS
330
458D9
102
}
330
458D9
100
AcDbMlineStyle
  2
STANDARD
 70
     0
  3

 62
   256
 51
90.0
 52
90.0
 71
     2
 49
0.5
 62
   256
  6
BYLAYER
 49
-0.5
 62
   256
  6
BYLAYER
  0
ACDBPLACEHOLDER
  5
458FA
102
{ACAD_REACTORS
330
458F9
102
}
330
458F9
100
AcDbPlaceHolder
280
     0
  0
ACAD_PROXY_OBJECT
  5
45B9F
102
{ACAD_REACTORS
330
45B9E
102
}
330
45B9E
100
AcDbProxyObject
 90
      499
 91
      518
 93
     1849
310
4214DD185B99185C992420000000000000F83F0000000000003E0FC00000000000004901028000000C1008070000C3001FDFF8000000C1003FBFF000000182007F7FE00000030400FEFFC00000060801FDFF8000000C1003FBFF000000182000000000000000C2020B0000001820100E000186003FBFF000000182007F7FE0
310
0000030400FEFFC00000060801FDFF8000000C1003FBFF000000182007F7FE0000003040000000000000012404160000003040201C00030C007F7FE00000030400FEFFC00000060801FDFF8000000C1003FBFF000000182007F7FE00000030400FEFFC000000608000
340
458CE
340
458CE
340
458CE
 94
        0
1001
ACAD
1000
AcRTDxfName
1000
TABLESTYLE
1000
AcadProxyRoundTripData
1071
      516
1071
  2555929
1070
     0
  0
XRECORD
  5
45D53
102
{ACAD_REACTORS
330
45D49
102
}
330
45D49
100
AcDbXrecord
 90
        0
  0
XRECORD
  5
45D57
102
{ACAD_REACTORS
330
45D49
102
}
330
45D49
100
AcDbXrecord
1000
DSTYLE
1002
{
1070
   276
 70
     2
1070
   279
 70
     2
1070
   289
 70
     2
1002
}
  0
XRECORD
  5
45D54
102
{ACAD_REACTORS
330
45D49
102
}
330
45D49
100
AcDbXrecord
  1
{6E0CF4B8-225E-11D4-A150-00A0CC3303EC}
  0
XRECORD
  5
45D4C
102
{ACAD_REACTORS
330
45D49
102
}
330
45D49
100
AcDbXrecord
  1

  0
XRECORD
  5
45D52
102
{ACAD_REACTORS
330
45D49
102
}
330
45D49
100
AcDbXrecord
 90
        0
  0
XRECORD
  5
45D4E
102
{ACAD_REACTORS
330
45D49
102
}
330
45D49
100
AcDbXrecord
340
458FB
  0
XRECORD
  5
45D51
102
{ACAD_REACTORS
330
45D49
102
}
330
45D49
100
AcDbXrecord
 90
    14877
  0
XRECORD
  5
45D4F
102
{ACAD_REACTORS
330
45D49
102
}
330
45D49
100
AcDbXrecord
340
458FC
  0
XRECORD
  5
45D50
102
{ACAD_REACTORS
330
45D49
102
}
330
45D49
100
AcDbXrecord
340
458F9
  0
XRECORD
  5
45D56
102
{ACAD_REACTORS
330
45D49
102
}
330
45D49
100
AcDbXrecord
 40
0.0
  0
XRECORD
  5
45D5A
102
{ACAD_REACTORS
330
45D49
102
}
330
45D49
100
AcDbXrecord
340
0
  0
XRECORD
  5
45D60
102
{ACAD_REACTORS
330
45D49
102
}
330
45D49
100
AcDbXrecord
 10
0.0
 20
0.0
 30
0.0
  0
XRECORD
  5
45D5C
102
{ACAD_REACTORS
330
45D49
102
}
330
45D49
100
AcDbXrecord
 10
0.0
 20
0.0
 30
0.0
  0
XRECORD
  5
45D5F
102
{ACAD_REACTORS
330
45D49
102
}
330
45D49
100
AcDbXrecord
 10
0.0
 20
0.0
 30
0.0
  0
XRECORD
  5
45D5D
102
{ACAD_REACTORS
330
45D49
102
}
330
45D49
100
AcDbXrecord
 10
0.0
 20
0.0
 30
0.0
  0
XRECORD
  5
45D5E
102
{ACAD_REACTORS
330
45D49
102
}
330
45D49
100
AcDbXrecord
 10
0.0
 20
0.0
 30
0.0
  0
XRECORD
  5
45D5B
102
{ACAD_REACTORS
330
45D49
102
}
330
45D49
100
AcDbXrecord
 10
0.0
 20
0.0
 30
0.0
  0
XRECORD
  5
45D58
102
{ACAD_REACTORS
330
45D49
102
}
330
45D49
100
AcDbXrecord
340
0
  0
XRECORD
  5
45D59
102
{ACAD_REACTORS
330
45D49
102
}
330
45D49
100
AcDbXrecord
 70
     0
  0
XRECORD
  5
45D4D
102
{ACAD_REACTORS
330
45D49
102
}
330
45D49
100
AcDbXrecord
  1

  0
XRECORD
  5
45D4A
102
{ACAD_REACTORS
330
45D49
102
}
330
45D49
100
AcDbXrecord
 90
        1
  0
XRECORD
  5
45D4B
102
{ACAD_REACTORS
330
45D49
102
}
330
45D49
100
AcDbXrecord
 90
       70
  0
XRECORD
  5
45D63
102
{ACAD_REACTORS
330
45D49
102
}
330
45D49
100
AcDbXrecord
340
0
  0
XRECORD
  5
45D69
102
{ACAD_REACTORS
330
45D49
102
}
330
45D49
100
AcDbXrecord
 10
0.0
 20
0.0
 30
0.0
  0
XRECORD
  5
45D65
102
{ACAD_REACTORS
330
45D49
102
}
330
45D49
100
AcDbXrecord
 10
0.0
 20
0.0
 30
0.0
  0
XRECORD
  5
45D68
102
{ACAD_REACTORS
330
45D49
102
}
330
45D49
100
AcDbXrecord
 10
0.0
 20
0.0
 30
0.0
  0
XRECORD
  5
45D66
102
{ACAD_REACTORS
330
45D49
102
}
330
45D49
100
AcDbXrecord
 10
0.0
 20
0.0
 30
0.0
  0
XRECORD
  5
45D67
102
{ACAD_REACTORS
330
45D49
102
}
330
45D49
100
AcDbXrecord
 10
44.57293710473379
 20
-10.57239502465733
 30
3.810000000000003
  0
XRECORD
  5
45D64
102
{ACAD_REACTORS
330
45D49
102
}
330
45D49
100
AcDbXrecord
 10
46.34332776907307
 20
0.7022503140365615
 30
1.0
  0
XRECORD
  5
45D61
102
{ACAD_REACTORS
330
45D49
102
}
330
45D49
100
AcDbXrecord
340
0
  0
XRECORD
  5
45D62
102
{ACAD_REACTORS
330
45D49
102
}
330
45D49
100
AcDbXrecord
 70
     1
  0
XRECORD
  5
45D55
102
{ACAD_REACTORS
330
45D49
102
}
330
45D49
100
AcDbXrecord
  1
{4C0B0266-85B8-4236-B8A1-7D9D8F46E5BE}
  0
DICTIONARYVAR
  5
45C9A
102
{ACAD_REACTORS
330
458E1
102
}
330
458E1
100
DictionaryVariables
280
     0
  1
STANDARD
  0
DICTIONARYVAR
  5
458E2
102
{ACAD_REACTORS
330
458E1
102
}
330
458E1
100
DictionaryVariables
280
     0
  1
0
  0
DICTIONARYVAR
  5
45A55
102
{ACAD_REACTORS
330
458E1
102
}
330
458E1
100
DictionaryVariables
280
     0
  1
1
  0
DICTIONARYVAR
  5
45A56
102
{ACAD_REACTORS
330
458E1
102
}
330
458E1
100
DictionaryVariables
280
     0
  1

  0
XRECORD
  5
45C8D
102
{ACAD_REACTORS
330
45C8C
102
}
330
45C8C
100
AcDbXrecord
 40
0.000001
  0
XRECORD
  5
45C90
102
{ACAD_REACTORS
330
45C8C
102
}
330
45C8C
100
AcDbXrecord
 70
     0
  0
XRECORD
  5
45C8F
102
{ACAD_REACTORS
330
45C8C
102
}
330
45C8C
100
AcDbXrecord
 70
     0
  0
XRECORD
  5
45C8E
102
{ACAD_REACTORS
330
45C8C
102
}
330
45C8C
100
AcDbXrecord
 70
     0
  0
ENDSEC
  0
EOF
