  0
SECTION
  2
HEADER
  9
$ACADVER
  1
AC1014
  9
$ACADMAINTVER
 70
     8
  9
$DWGCODEPAGE
  3
ANSI_1252
  9
$INSBASE
 10
0.0
 20
0.0
 30
0.0
  9
$EXTMIN
 10
-0.7409
 20
-3.183388
 30
0.0
  9
$EXTMAX
 10
1.829065
 20
1.817125
 30
3.332
  9
$LIMMIN
 10
0.0
 20
0.0
  9
$LIMMAX
 10
12.0
 20
9.0
  9
$ORTHOMODE
 70
     0
  9
$REGENMODE
 70
     1
  9
$FILLMODE
 70
     1
  9
$QTEXTMODE
 70
     0
  9
$MIRRTEXT
 70
     1
  9
$DRAGMODE
 70
     2
  9
$LTSCALE
 40
1.0
  9
$OSMODE
 70
    37
  9
$ATTMODE
 70
     1
  9
$TEXTSIZE
 40
0.12
  9
$TRACEWID
 40
0.05
  9
$TEXTSTYLE
  7
STANDARD
  9
$CLAYER
  8
0
  9
$CELTYPE
  6
BYLAYER
  9
$CECOLOR
 62
   256
  9
$CELTSCALE
 40
1.0
  9
$DELOBJ
 70
     1
  9
$DISPSILH
 70
     0
  9
$DIMSCALE
 40
1.0
  9
$DIMASZ
 40
0.18
  9
$DIMEXO
 40
0.0625
  9
$DIMDLI
 40
0.375
  9
$DIMRND
 40
0.0
  9
$DIMDLE
 40
0.0
  9
$DIMEXE
 40
0.18
  9
$DIMTP
 40
0.0
  9
$DIMTM
 40
0.0
  9
$DIMTXT
 40
0.14
  9
$DIMCEN
 40
0.09
  9
$DIMTSZ
 40
0.0
  9
$DIMTOL
 70
     0
  9
$DIMLIM
 70
     0
  9
$DIMTIH
 70
     0
  9
$DIMTOH
 70
     1
  9
$DIMSE1
 70
     0
  9
$DIMSE2
 70
     0
  9
$DIMTAD
 70
     0
  9
$DIMZIN
 70
     4
  9
$DIMBLK
  1

  9
$DIMASO
 70
     1
  9
$DIMSHO
 70
     1
  9
$DIMPOST
  1

  9
$DIMAPOST
  1

  9
$DIMALT
 70
     1
  9
$DIMALTD
 70
     2
  9
$DIMALTF
 40
25.4
  9
$DIMLFAC
 40
1.0
  9
$DIMTOFL
 70
     0
  9
$DIMTVP
 40
0.0
  9
$DIMTIX
 70
     0
  9
$DIMSOXD
 70
     0
  9
$DIMSAH
 70
     0
  9
$DIMBLK1
  1

  9
$DIMBLK2
  1

  9
$DIMSTYLE
  2
ABECAD_3D
  9
$DIMCLRD
 70
     0
  9
$DIMCLRE
 70
     0
  9
$DIMCLRT
 70
     0
  9
$DIMTFAC
 40
1.5
  9
$DIMGAP
 40
0.09
  9
$DIMJUST
 70
     0
  9
$DIMSD1
 70
     0
  9
$DIMSD2
 70
     0
  9
$DIMTOLJ
 70
     1
  9
$DIMTZIN
 70
     4
  9
$DIMALTZ
 70
     4
  9
$DIMALTTZ
 70
     4
  9
$DIMFIT
 70
     5
  9
$DIMUPT
 70
     1
  9
$DIMUNIT
 70
     7
  9
$DIMDEC
 70
     6
  9
$DIMTDEC
 70
     6
  9
$DIMALTU
 70
     2
  9
$DIMALTTD
 70
     2
  9
$DIMTXSTY
  7
STANDARD
  9
$DIMAUNIT
 70
     0
  9
$LUNITS
 70
     2
  9
$LUPREC
 70
     4
  9
$SKETCHINC
 40
0.1
  9
$FILLETRAD
 40
0.0
  9
$AUNITS
 70
     0
  9
$AUPREC
 70
     0
  9
$MENU
  1
ACAD
  9
$ELEVATION
 40
0.0
  9
$PELEVATION
 40
0.0
  9
$THICKNESS
 40
0.0
  9
$LIMCHECK
 70
     0
  9
$BLIPMODE
 70
     0
  9
$CHAMFERA
 40
0.0
  9
$CHAMFERB
 40
0.0
  9
$CHAMFERC
 40
0.0
  9
$CHAMFERD
 40
0.0
  9
$SKPOLY
 70
     0
  9
$TDCREATE
 40
2451726.438389120
  9
$TDUPDATE
 40
2452010.489909953
  9
$TDINDWG
 40
0.7305748843
  9
$TDUSRTIMER
 40
0.7305748843
  9
$USRTIMER
 70
     1
  9
$ANGBASE
 50
0.0
  9
$ANGDIR
 70
     0
  9
$PDMODE
 70
     3
  9
$PDSIZE
 40
0.09
  9
$PLINEWID
 40
0.0
  9
$COORDS
 70
     1
  9
$SPLFRAME
 70
     1
  9
$SPLINETYPE
 70
     6
  9
$SPLINESEGS
 70
     8
  9
$ATTDIA
 70
     0
  9
$ATTREQ
 70
     1
  9
$HANDLING
 70
     1
  9
$HANDSEED
  5
654B5
  9
$SURFTAB1
 70
     6
  9
$SURFTAB2
 70
     6
  9
$SURFTYPE
 70
     6
  9
$SURFU
 70
     6
  9
$SURFV
 70
     6
  9
$UCSNAME
  2

  9
$UCSORG
 10
0.0
 20
0.0
 30
0.0
  9
$UCSXDIR
 10
1.0
 20
0.0
 30
0.0
  9
$UCSYDIR
 10
0.0
 20
1.0
 30
0.0
  9
$PUCSNAME
  2

  9
$PUCSORG
 10
0.0
 20
0.0
 30
0.0
  9
$PUCSXDIR
 10
1.0
 20
0.0
 30
0.0
  9
$PUCSYDIR
 10
0.0
 20
1.0
 30
0.0
  9
$USERI1
 70
     0
  9
$USERI2
 70
     0
  9
$USERI3
 70
     0
  9
$USERI4
 70
     0
  9
$USERI5
 70
     0
  9
$USERR1
 40
0.0
  9
$USERR2
 40
0.0
  9
$USERR3
 40
0.0
  9
$USERR4
 40
0.0
  9
$USERR5
 40
0.0
  9
$WORLDVIEW
 70
     1
  9
$SHADEDGE
 70
     3
  9
$SHADEDIF
 70
    70
  9
$TILEMODE
 70
     1
  9
$MAXACTVP
 70
    16
  9
$PINSBASE
 10
0.0
 20
0.0
 30
0.0
  9
$PLIMCHECK
 70
     0
  9
$PEXTMIN
 10
1.05
 20
0.8
 30
0.0
  9
$PEXTMAX
 10
9.45
 20
7.2
 30
0.0
  9
$PLIMMIN
 10
-0.25
 20
-0.25
  9
$PLIMMAX
 10
10.75
 20
8.25
  9
$UNITMODE
 70
     0
  9
$VISRETAIN
 70
     0
  9
$PLINEGEN
 70
     0
  9
$PSLTSCALE
 70
     1
  9
$TREEDEPTH
 70
  3020
  9
$PICKSTYLE
 70
     1
  9
$CMLSTYLE
  2
STANDARD
  9
$CMLJUST
 70
     0
  9
$CMLSCALE
 40
1.0
  9
$PROXYGRAPHICS
 70
     1
  9
$MEASUREMENT
 70
     0
  0
ENDSEC
  0
SECTION
  2
CLASSES
  0
CLASS
  1
DICTIONARYVAR
  2
AcDbDictionaryVar
  3
"AutoCAD"
 90
        0
280
     0
281
     0
  0
CLASS
  1
ACDBDICTIONARYWDFLT
  2
AcDbDictionaryWithDefault
  3
AutoCAD 2000
 90
        0
280
     0
281
     0
  0
CLASS
  1
ACDBPLACEHOLDER
  2
AcDbPlaceHolder
  3
AutoCAD 2000
 90
        0
280
     0
281
     0
  0
CLASS
  1
LAYOUT
  2
AcDbLayout
  3
AutoCAD 2000
 90
        0
280
     0
281
     0
  0
CLASS
  1
LONG_TRANSACTION
  2
AcDbLongTransaction
  3
AutoCAD 2000
 90
        0
280
     0
281
     0
  0
CLASS
  1
LWPOLYLINE
  2
AcDbPolyline
  3
"AutoCAD"
 90
        0
280
     0
281
     1
  0
CLASS
  1
HATCH
  2
AcDbHatch
  3
"ACAD_SEDONA"
 90
        0
280
     0
281
     1
  0
CLASS
  1
XRECORD
  2
AcDbXrecord
  3
"<Built In>"
 90
        0
280
     0
281
     0
  0
CLASS
  1
LONG_TRANSACTION
  2
AcDbLongTransaction
  3
AutoCAD 2000
 90
        0
280
     0
281
     0
  0
CLASS
  1
LWPOLYLINE
  2
AcDbPolyline
  3
"AutoCAD"
 90
        0
280
     0
281
     1
  0
CLASS
  1
HATCH
  2
AcDbHatch
  3
"ACAD_SEDONA"
 90
        0
280
     0
281
     1
  0
CLASS
  1
XRECORD
  2
AcDbXrecord
  3
"<Built In>"
 90
        0
280
     0
281
     0
  0
CLASS
  1
LONG_TRANSACTION
  2
AcDbLongTransaction
  3
AutoCAD 2000
 90
        0
280
     0
281
     0
  0
CLASS
  1
LWPOLYLINE
  2
AcDbPolyline
  3
"AutoCAD"
 90
        0
280
     0
281
     1
  0
CLASS
  1
HATCH
  2
AcDbHatch
  3
"ACAD_SEDONA"
 90
        0
280
     0
281
     1
  0
CLASS
  1
XRECORD
  2
AcDbXrecord
  3
"<Built In>"
 90
        0
280
     0
281
     0
  0
CLASS
  1
LONG_TRANSACTION
  2
AcDbLongTransaction
  3
AutoCAD 2000
 90
        0
280
     0
281
     0
  0
CLASS
  1
LWPOLYLINE
  2
AcDbPolyline
  3
"AutoCAD"
 90
        0
280
     0
281
     1
  0
CLASS
  1
HATCH
  2
AcDbHatch
  3
"ACAD_SEDONA"
 90
        0
280
     0
281
     1
  0
CLASS
  1
XRECORD
  2
AcDbXrecord
  3
"<Built In>"
 90
        0
280
     0
281
     0
  0
CLASS
  1
LONG_TRANSACTION
  2
AcDbLongTransaction
  3
AutoCAD 2000
 90
        0
280
     0
281
     0
  0
CLASS
  1
LWPOLYLINE
  2
AcDbPolyline
  3
"AutoCAD"
 90
        0
280
     0
281
     1
  0
CLASS
  1
HATCH
  2
AcDbHatch
  3
"ACAD_SEDONA"
 90
        0
280
     0
281
     1
  0
CLASS
  1
XRECORD
  2
AcDbXrecord
  3
"<Built In>"
 90
        0
280
     0
281
     0
  0
CLASS
  1
LONG_TRANSACTION
  2
AcDbLongTransaction
  3
AutoCAD 2000
 90
        0
280
     0
281
     0
  0
CLASS
  1
LWPOLYLINE
  2
AcDbPolyline
  3
"AutoCAD"
 90
        0
280
     0
281
     1
  0
CLASS
  1
HATCH
  2
AcDbHatch
  3
"ACAD_SEDONA"
 90
        0
280
     0
281
     1
  0
CLASS
  1
XRECORD
  2
AcDbXrecord
  3
"<Built In>"
 90
        0
280
     0
281
     0
  0
CLASS
  1
LONG_TRANSACTION
  2
AcDbLongTransaction
  3
AutoCAD 2000
 90
        0
280
     0
281
     0
  0
CLASS
  1
LWPOLYLINE
  2
AcDbPolyline
  3
"AutoCAD"
 90
        0
280
     0
281
     1
  0
CLASS
  1
HATCH
  2
AcDbHatch
  3
"ACAD_SEDONA"
 90
        0
280
     0
281
     1
  0
CLASS
  1
XRECORD
  2
AcDbXrecord
  3
"<Built In>"
 90
        0
280
     0
281
     0
  0
CLASS
  1
LONG_TRANSACTION
  2
AcDbLongTransaction
  3
AutoCAD 2000
 90
        0
280
     0
281
     0
  0
CLASS
  1
LWPOLYLINE
  2
AcDbPolyline
  3
"AutoCAD"
 90
        0
280
     0
281
     1
  0
CLASS
  1
HATCH
  2
AcDbHatch
  3
"ACAD_SEDONA"
 90
        0
280
     0
281
     1
  0
CLASS
  1
XRECORD
  2
AcDbXrecord
  3
"<Built In>"
 90
        0
280
     0
281
     0
  0
CLASS
  1
LONG_TRANSACTION
  2
AcDbLongTransaction
  3
AutoCAD 2000
 90
        0
280
     0
281
     0
  0
CLASS
  1
LWPOLYLINE
  2
AcDbPolyline
  3
"AutoCAD"
 90
        0
280
     0
281
     1
  0
CLASS
  1
HATCH
  2
AcDbHatch
  3
"ACAD_SEDONA"
 90
        0
280
     0
281
     1
  0
CLASS
  1
XRECORD
  2
AcDbXrecord
  3
"<Built In>"
 90
        0
280
     0
281
     0
  0
CLASS
  1
LONG_TRANSACTION
  2
AcDbLongTransaction
  3
AutoCAD 2000
 90
        0
280
     0
281
     0
  0
CLASS
  1
LWPOLYLINE
  2
AcDbPolyline
  3
"AutoCAD"
 90
        0
280
     0
281
     1
  0
CLASS
  1
HATCH
  2
AcDbHatch
  3
"ACAD_SEDONA"
 90
        0
280
     0
281
     1
  0
CLASS
  1
XRECORD
  2
AcDbXrecord
  3
"<Built In>"
 90
        0
280
     0
281
     0
  0
CLASS
  1
LONG_TRANSACTION
  2
AcDbLongTransaction
  3
AutoCAD 2000
 90
        0
280
     0
281
     0
  0
CLASS
  1
LWPOLYLINE
  2
AcDbPolyline
  3
"AutoCAD"
 90
        0
280
     0
281
     1
  0
CLASS
  1
HATCH
  2
AcDbHatch
  3
"ACAD_SEDONA"
 90
        0
280
     0
281
     1
  0
CLASS
  1
XRECORD
  2
AcDbXrecord
  3
"<Built In>"
 90
        0
280
     0
281
     0
  0
CLASS
  1
LONG_TRANSACTION
  2
AcDbLongTransaction
  3
AutoCAD 2000
 90
        0
280
     0
281
     0
  0
CLASS
  1
LWPOLYLINE
  2
AcDbPolyline
  3
"AutoCAD"
 90
        0
280
     0
281
     1
  0
CLASS
  1
HATCH
  2
AcDbHatch
  3
"ACAD_SEDONA"
 90
        0
280
     0
281
     1
  0
CLASS
  1
XRECORD
  2
AcDbXrecord
  3
"<Built In>"
 90
        0
280
     0
281
     0
  0
CLASS
  1
LONG_TRANSACTION
  2
AcDbLongTransaction
  3
AutoCAD 2000
 90
        0
280
     0
281
     0
  0
CLASS
  1
LWPOLYLINE
  2
AcDbPolyline
  3
"AutoCAD"
 90
        0
280
     0
281
     1
  0
CLASS
  1
HATCH
  2
AcDbHatch
  3
"ACAD_SEDONA"
 90
        0
280
     0
281
     1
  0
CLASS
  1
XRECORD
  2
AcDbXrecord
  3
"<Built In>"
 90
        0
280
     0
281
     0
  0
CLASS
  1
LONG_TRANSACTION
  2
AcDbLongTransaction
  3
AutoCAD 2000
 90
        0
280
     0
281
     0
  0
CLASS
  1
LWPOLYLINE
  2
AcDbPolyline
  3
"AutoCAD"
 90
        0
280
     0
281
     1
  0
CLASS
  1
HATCH
  2
AcDbHatch
  3
"ACAD_SEDONA"
 90
        0
280
     0
281
     1
  0
CLASS
  1
XRECORD
  2
AcDbXrecord
  3
"<Built In>"
 90
        0
280
     0
281
     0
  0
CLASS
  1
LONG_TRANSACTION
  2
AcDbLongTransaction
  3
AutoCAD 2000
 90
        0
280
     0
281
     0
  0
CLASS
  1
LWPOLYLINE
  2
AcDbPolyline
  3
"AutoCAD"
 90
        0
280
     0
281
     1
  0
CLASS
  1
HATCH
  2
AcDbHatch
  3
"ACAD_SEDONA"
 90
        0
280
     0
281
     1
  0
CLASS
  1
XRECORD
  2
AcDbXrecord
  3
"<Built In>"
 90
        0
280
     0
281
     0
  0
CLASS
  1
LONG_TRANSACTION
  2
AcDbLongTransaction
  3
AutoCAD 2000
 90
        0
280
     0
281
     0
  0
CLASS
  1
LWPOLYLINE
  2
AcDbPolyline
  3
"AutoCAD"
 90
        0
280
     0
281
     1
  0
CLASS
  1
HATCH
  2
AcDbHatch
  3
"ACAD_SEDONA"
 90
        0
280
     0
281
     1
  0
CLASS
  1
XRECORD
  2
AcDbXrecord
  3
"<Built In>"
 90
        0
280
     0
281
     0
  0
CLASS
  1
LONG_TRANSACTION
  2
AcDbLongTransaction
  3
AutoCAD 2000
 90
        0
280
     0
281
     0
  0
CLASS
  1
LWPOLYLINE
  2
AcDbPolyline
  3
"AutoCAD"
 90
        0
280
     0
281
     1
  0
CLASS
  1
HATCH
  2
AcDbHatch
  3
"ACAD_SEDONA"
 90
        0
280
     0
281
     1
  0
CLASS
  1
XRECORD
  2
AcDbXrecord
  3
"<Built In>"
 90
        0
280
     0
281
     0
  0
CLASS
  1
LONG_TRANSACTION
  2
AcDbLongTransaction
  3
AutoCAD 2000
 90
        0
280
     0
281
     0
  0
CLASS
  1
LWPOLYLINE
  2
AcDbPolyline
  3
"AutoCAD"
 90
        0
280
     0
281
     1
  0
CLASS
  1
HATCH
  2
AcDbHatch
  3
"ACAD_SEDONA"
 90
        0
280
     0
281
     1
  0
CLASS
  1
XRECORD
  2
AcDbXrecord
  3
"<Built In>"
 90
        0
280
     0
281
     0
  0
CLASS
  1
LONG_TRANSACTION
  2
AcDbLongTransaction
  3
AutoCAD 2000
 90
        0
280
     0
281
     0
  0
CLASS
  1
LWPOLYLINE
  2
AcDbPolyline
  3
"AutoCAD"
 90
        0
280
     0
281
     1
  0
CLASS
  1
HATCH
  2
AcDbHatch
  3
"ACAD_SEDONA"
 90
        0
280
     0
281
     1
  0
CLASS
  1
XRECORD
  2
AcDbXrecord
  3
"<Built In>"
 90
        0
280
     0
281
     0
  0
CLASS
  1
LONG_TRANSACTION
  2
AcDbLongTransaction
  3
AutoCAD 2000
 90
        0
280
     0
281
     0
  0
CLASS
  1
LWPOLYLINE
  2
AcDbPolyline
  3
"AutoCAD"
 90
        0
280
     0
281
     1
  0
CLASS
  1
HATCH
  2
AcDbHatch
  3
"ACAD_SEDONA"
 90
        0
280
     0
281
     1
  0
CLASS
  1
XRECORD
  2
AcDbXrecord
  3
"<Built In>"
 90
        0
280
     0
281
     0
  0
CLASS
  1
LONG_TRANSACTION
  2
AcDbLongTransaction
  3
AutoCAD 2000
 90
        0
280
     0
281
     0
  0
CLASS
  1
LWPOLYLINE
  2
AcDbPolyline
  3
"AutoCAD"
 90
        0
280
     0
281
     1
  0
CLASS
  1
HATCH
  2
AcDbHatch
  3
"ACAD_SEDONA"
 90
        0
280
     0
281
     1
  0
CLASS
  1
XRECORD
  2
AcDbXrecord
  3
"<Built In>"
 90
        0
280
     0
281
     0
  0
CLASS
  1
LONG_TRANSACTION
  2
AcDbLongTransaction
  3
AutoCAD 2000
 90
        0
280
     0
281
     0
  0
CLASS
  1
LWPOLYLINE
  2
AcDbPolyline
  3
"AutoCAD"
 90
        0
280
     0
281
     1
  0
CLASS
  1
HATCH
  2
AcDbHatch
  3
"ACAD_SEDONA"
 90
        0
280
     0
281
     1
  0
CLASS
  1
XRECORD
  2
AcDbXrecord
  3
"<Built In>"
 90
        0
280
     0
281
     0
  0
ENDSEC
  0
SECTION
  2
TABLES
  0
TABLE
  2
VPORT
  5
458C7
100
AcDbSymbolTable
 70
     1
  0
VPORT
  5
65480
102
{ACAD_XDICTIONARY
360
65483
102
}
100
AcDbSymbolTableRecord
100
AcDbViewportTableRecord
  2
*ACTIVE
 70
     0
 10
0.0
 20
0.0
 11
1.0
 21
1.0
 12
-0.019192
 22
0.197247
 13
0.0
 23
0.0
 14
0.25
 24
0.25
 15
0.25
 25
0.25
 16
0.0
 26
0.0
 36
1.0
 17
0.563444
 27
-0.880137
 37
1.686493
 40
5.085803
 41
1.960674
 42
50.0
 43
0.0
 44
0.0
 50
0.0
 51
0.0
 71
     0
 72
 20000
 73
     1
 74
     1
 75
     0
 76
     0
 77
     0
 78
     0
  0
ENDTAB
  0
TABLE
  2
LTYPE
  5
458C4
100
AcDbSymbolTable
 70
     1
  0
LTYPE
  5
458D0
100
AcDbSymbolTableRecord
100
AcDbLinetypeTableRecord
  2
BYBLOCK
 70
     0
  3

 72
    65
 73
     0
 40
0.0
  0
LTYPE
  5
458D1
100
AcDbSymbolTableRecord
100
AcDbLinetypeTableRecord
  2
BYLAYER
 70
     0
  3

 72
    65
 73
     0
 40
0.0
  0
LTYPE
  5
458D2
100
AcDbSymbolTableRecord
100
AcDbLinetypeTableRecord
  2
CONTINUOUS
 70
     0
  3
Solid line
 72
    65
 73
     0
 40
0.0
  0
ENDTAB
  0
TABLE
  2
LAYER
  5
458C1
100
AcDbSymbolTable
 70
     7
  0
LAYER
  5
458CD
100
AcDbSymbolTableRecord
100
AcDbLayerTableRecord
  2
0
 70
     0
 62
     7
  6
CONTINUOUS
  0
LAYER
  5
458EA
100
AcDbSymbolTableRecord
100
AcDbLayerTableRecord
  2
DIMS-MTG-HOLES
 70
     0
 62
     1
  6
CONTINUOUS
  0
LAYER
  5
458EB
100
AcDbSymbolTableRecord
100
AcDbLayerTableRecord
  2
ATTRIBUTES
 70
     0
 62
     7
  6
CONTINUOUS
  0
LAYER
  5
4593B
102
{ACAD_XDICTIONARY
360
654AC
102
}
100
AcDbSymbolTableRecord
100
AcDbLayerTableRecord
  2
AREA1
 70
     0
 62
    -7
  6
CONTINUOUS
  0
LAYER
  5
45940
102
{ACAD_XDICTIONARY
360
65481
102
}
100
AcDbSymbolTableRecord
100
AcDbLayerTableRecord
  2
DEFPOINTS
 70
     0
 62
    -7
  6
CONTINUOUS
  0
LAYER
  5
45954
100
AcDbSymbolTableRecord
100
AcDbLayerTableRecord
  2
SCALE
 70
     0
 62
    -7
  6
CONTINUOUS
  0
LAYER
  5
4D59A
100
AcDbSymbolTableRecord
100
AcDbLayerTableRecord
  2
SNAP_POINTS
 70
     0
 62
    -1
  6
CONTINUOUS
  0
ENDTAB
  0
TABLE
  2
STYLE
  5
458C2
100
AcDbSymbolTable
 70
     1
  0
STYLE
  5
458CE
100
AcDbSymbolTableRecord
100
AcDbTextStyleTableRecord
  2
STANDARD
 70
     0
 40
0.0
 41
1.0
 50
0.0
 71
     0
 42
0.12
  3
txt
  4

  0
ENDTAB
  0
TABLE
  2
VIEW
  5
458C5
100
AcDbSymbolTable
 70
     0
  0
ENDTAB
  0
TABLE
  2
UCS
  5
458C6
100
AcDbSymbolTable
 70
     0
  0
ENDTAB
  0
TABLE
  2
APPID
  5
458C8
100
AcDbSymbolTable
 70
     2
  0
APPID
  5
458CF
100
AcDbSymbolTableRecord
100
AcDbRegAppTableRecord
  2
ACAD
 70
     0
  0
APPID
  5
5FD5B
100
AcDbSymbolTableRecord
100
AcDbRegAppTableRecord
  2
AVE_RENDER
 70
     0
  0
ENDTAB
  0
TABLE
  2
DIMSTYLE
  5
458C9
100
AcDbSymbolTable
 70
     1
  0
DIMSTYLE
105
458F6
102
{ACAD_XDICTIONARY
360
654A8
102
}
102
{ACAD_REACTORS
330
653D8
330
653E6
102
}
100
AcDbSymbolTableRecord
100
AcDbDimStyleTableRecord
  2
ABECAD_3D
 70
     0
  3

  4

  5

  6

  7

 40
1.0
 41
0.18
 42
0.0625
 43
0.375
 44
0.18
 45
0.0
 46
0.0
 47
0.0
 48
0.0
140
0.14
141
0.09
142
0.0
143
25.4
144
1.0
145
0.0
146
1.5
147
0.09
 71
     0
 72
     0
 73
     0
 74
     1
 75
     0
 76
     0
 77
     0
 78
     4
170
     1
171
     2
172
     0
173
     0
174
     0
175
     0
176
     0
177
     0
178
     0
270
     7
271
     6
272
     6
273
     2
274
     2
340
458CE
275
     0
280
     0
281
     0
282
     0
283
     1
284
     4
285
     4
286
     4
287
     5
288
     1
  0
ENDTAB
  0
TABLE
  2
BLOCK_RECORD
  5
458C0
100
AcDbSymbolTable
 70
     3
  0
BLOCK_RECORD
  5
458D6
102
{ACAD_XDICTIONARY
360
4592C
102
}
100
AcDbSymbolTableRecord
100
AcDbBlockTableRecord
  2
*MODEL_SPACE
  0
BLOCK_RECORD
  5
458D3
102
{ACAD_XDICTIONARY
360
4592A
102
}
100
AcDbSymbolTableRecord
100
AcDbBlockTableRecord
  2
*PAPER_SPACE
  0
BLOCK_RECORD
  5
63BAF
100
AcDbSymbolTableRecord
100
AcDbBlockTableRecord
  2
AVE_RENDER
  0
BLOCK_RECORD
  5
653D9
100
AcDbSymbolTableRecord
100
AcDbBlockTableRecord
  2
*D1
  0
BLOCK_RECORD
  5
653E7
100
AcDbSymbolTableRecord
100
AcDbBlockTableRecord
  2
*D2
  0
ENDTAB
  0
ENDSEC
  0
SECTION
  2
BLOCKS
  0
BLOCK
  5
458DF
100
AcDbEntity
  8
0
100
AcDbBlockBegin
  2
*MODEL_SPACE
 70
     0
 10
0.0
 20
0.0
 30
0.0
  3
*MODEL_SPACE
  1

  0
ENDBLK
  5
458E0
100
AcDbEntity
  8
0
100
AcDbBlockEnd
  0
BLOCK
  5
458DD
100
AcDbEntity
 67
     1
  8
0
100
AcDbBlockBegin
  2
*PAPER_SPACE
 70
     0
 10
0.0
 20
0.0
 30
0.0
  3
*PAPER_SPACE
  1

  0
ENDBLK
  5
458DE
100
AcDbEntity
 67
     1
  8
0
100
AcDbBlockEnd
  0
BLOCK
  5
63BB0
100
AcDbEntity
  8
0
100
AcDbBlockBegin
  2
AVE_RENDER
 70
     0
 10
0.0
 20
0.0
 30
0.0
  3
AVE_RENDER
  1
AVE_RENDER
  0
ENDBLK
  5
63BB1
100
AcDbEntity
  8
0
100
AcDbBlockEnd
  0
BLOCK
  5
653E4
100
AcDbEntity
  8
0
100
AcDbBlockBegin
  2
*D1
 70
     1
 10
0.0
 20
0.0
 30
0.0
  3
*D1
  1

  0
LINE
  5
653DA
100
AcDbEntity
  8
AREA1
 62
     0
100
AcDbLine
 10
0.27021
 20
0.9585
 30
0.0
 11
-0.7409
 21
0.9585
 31
0.0
1001
ACAD
1000
RTLwPs
1070
   158
  0
LINE
  5
653DB
100
AcDbEntity
  8
AREA1
 62
     0
100
AcDbLine
 10
0.63721
 20
-2.2215
 30
0.0
 11
-0.7409
 21
-2.2215
 31
0.0
1001
ACAD
1000
RTLwPs
1070
   158
  0
LINE
  5
653DC
100
AcDbEntity
  8
AREA1
 62
     0
100
AcDbLine
 10
-0.5609
 20
0.7785
 30
0.0
 11
-0.5609
 21
0.306344
 31
0.0
1001
ACAD
1000
RTLwPs
1070
   158
  0
LINE
  5
653DD
100
AcDbEntity
  8
AREA1
 62
     0
100
AcDbLine
 10
-0.5609
 20
-2.0415
 30
0.0
 11
-0.5609
 21
-1.530323
 31
0.0
1001
ACAD
1000
RTLwPs
1070
   158
  0
MTEXT
  5
653DE
100
AcDbEntity
  8
AREA1
 62
     0
100
AcDbMText
 10
-0.5609
 20
-0.611989
 30
0.0
 40
0.14
 41
0.0
 71
     5
 72
     1
  1
\A1;3 3/16 [80.77]
 11
0.0
 21
1.0
 31
0.0
1001
ACAD
1000
MTEXTBEGIN
1070
    73
1070
     1
1070
    44
1040
1.0
1070
    74
1070
     0
1000
MTEXTEND
1000
MTEXTBEGIN
1070
    73
1070
     1
1070
    44
1040
1.0
1070
    74
1070
     0
1000
MTEXTEND
1000
MTEXTBEGIN
1070
    73
1070
     1
1070
    44
1040
1.0
1070
    74
1070
     0
1000
MTEXTEND
  0
SOLID
  5
653DF
100
AcDbEntity
  8
AREA1
 62
     0
100
AcDbTrace
 10
-0.5909
 20
0.7785
 30
0.0
 11
-0.5309
 21
0.7785
 31
0.0
 12
-0.5609
 22
0.9585
 32
0.0
 13
-0.5609
 23
0.9585
 33
0.0
  0
SOLID
  5
653E0
100
AcDbEntity
  8
AREA1
 62
     0
100
AcDbTrace
 10
-0.5909
 20
-2.0415
 30
0.0
 11
-0.5309
 21
-2.0415
 31
0.0
 12
-0.5609
 22
-2.2215
 32
0.0
 13
-0.5609
 23
-2.2215
 33
0.0
  0
POINT
  5
653E1
100
AcDbEntity
  8
DEFPOINTS
 62
     0
100
AcDbPoint
 10
0.33271
 20
0.9585
 30
1.386
  0
POINT
  5
653E2
100
AcDbEntity
  8
DEFPOINTS
 62
     0
100
AcDbPoint
 10
0.69971
 20
-2.2215
 30
1.386
  0
POINT
  5
653E3
100
AcDbEntity
  8
DEFPOINTS
 62
     0
100
AcDbPoint
 10
-0.5609
 20
-2.2215
 30
0.0
  0
ENDBLK
  5
653E5
100
AcDbEntity
  8
0
100
AcDbBlockEnd
  0
BLOCK
  5
653F1
100
AcDbEntity
  8
0
100
AcDbBlockBegin
  2
*D2
 70
     1
 10
0.0
 20
0.0
 30
0.0
  3
*D2
  1

  0
LINE
  5
653F3
100
AcDbEntity
  8
AREA1
 62
     0
100
AcDbLine
 10
0.00521
 20
0.781
 30
0.0
 11
0.00521
 21
1.559404
 31
0.0
1001
ACAD
1000
RTLwPs
1070
   158
  0
LINE
  5
653F4
100
AcDbEntity
  8
AREA1
 62
     0
100
AcDbLine
 10
1.76521
 20
0.637
 30
0.0
 11
1.76521
 21
1.559404
 31
0.0
1001
ACAD
1000
RTLwPs
1070
   158
  0
LINE
  5
653F5
100
AcDbEntity
  8
AREA1
 62
     0
100
AcDbLine
 10
0.18521
 20
1.379404
 30
0.0
 11
1.58521
 21
1.379404
 31
0.0
1001
ACAD
1000
RTLwPs
1070
   158
  0
MTEXT
  5
653F6
100
AcDbEntity
  8
AREA1
 62
     0
100
AcDbMText
 10
0.883387
 20
1.747125
 30
0.0
 40
0.14
 41
0.0
 71
     5
 72
     1
  1
\A1;1 49/64 [44.70]
1001
ACAD
1000
MTEXTBEGIN
1070
    73
1070
     1
1070
    44
1040
1.0
1070
    74
1070
     0
1000
MTEXTEND
1000
MTEXTBEGIN
1070
    73
1070
     1
1070
    44
1040
1.0
1070
    74
1070
     0
1000
MTEXTEND
1000
MTEXTBEGIN
1070
    73
1070
     1
1070
    44
1040
1.0
1070
    74
1070
     0
1000
MTEXTEND
  0
SOLID
  5
653F7
100
AcDbEntity
  8
AREA1
 62
     0
100
AcDbTrace
 10
0.18521
 20
1.409404
 30
0.0
 11
0.18521
 21
1.349404
 31
0.0
 12
0.00521
 22
1.379404
 32
0.0
 13
0.00521
 23
1.379404
 33
0.0
  0
SOLID
  5
653F8
100
AcDbEntity
  8
AREA1
 62
     0
100
AcDbTrace
 10
1.58521
 20
1.409404
 30
0.0
 11
1.58521
 21
1.349404
 31
0.0
 12
1.76521
 22
1.379404
 32
0.0
 13
1.76521
 23
1.379404
 33
0.0
  0
POINT
  5
653F9
100
AcDbEntity
  8
DEFPOINTS
 62
     0
100
AcDbPoint
 10
0.00521
 20
0.7185
 30
0.0
  0
POINT
  5
653FA
100
AcDbEntity
  8
DEFPOINTS
 62
     0
100
AcDbPoint
 10
1.76521
 20
0.5745
 30
0.0
  0
POINT
  5
653FB
100
AcDbEntity
  8
DEFPOINTS
 62
     0
100
AcDbPoint
 10
1.76521
 20
1.379404
 30
0.0
  0
ENDBLK
  5
653F2
100
AcDbEntity
  8
0
100
AcDbBlockEnd
  0
ENDSEC
  0
SECTION
  2
ENTITIES
  0
ATTDEF
  5
65000
100
AcDbEntity
  8
ATTRIBUTES
100
AcDbText
 10
0.100105
 20
-0.134243
 30
0.0
 40
0.08052
  1
ALLEN-BRADLEY
100
AcDbAttributeDefinition
  3
MANUFACTURER NAME?
  2
AC_VND_LABEL
 70
     1
  0
ATTDEF
  5
65001
100
AcDbEntity
  8
ATTRIBUTES
100
AcDbText
 10
0.100105
 20
-0.301994
 30
0.0
 40
0.08052
  1
100-C09, C12, C16, C23*00
100
AcDbAttributeDefinition
  3
CATALOG NUMBER?
  2
AC_PART_NO
 70
     1
  0
ATTDEF
  5
65002
100
AcDbEntity
  8
ATTRIBUTES
100
AcDbText
 10
0.100105
 20
-0.469745
 30
0.0
 40
0.08052
  1
MCS IEC AC CONTACTOR; 9A-23A; 4 Pole
100
AcDbAttributeDefinition
  3
PART DESCRIPTION?
  2
AC_DESCRIPTION
 70
     1
  0
ATTDEF
  5
65003
100
AcDbEntity
  8
ATTRIBUTES
100
AcDbText
 10
0.100105
 20
-0.637495
 30
0.0
 40
0.08052
  1

100
AcDbAttributeDefinition
  3
DEVICE ID?
  2
DEVICE_ID
 70
     1
  0
ATTDEF
  5
65004
100
AcDbEntity
  8
ATTRIBUTES
100
AcDbText
 10
0.100105
 20
-0.805246
 30
0.0
 40
0.08052
  1

100
AcDbAttributeDefinition
  3
CUSTOMER PART NUMBER?
  2
AC_CPART_NO
 70
     1
  0
ATTDEF
  5
65005
100
AcDbEntity
  8
ATTRIBUTES
100
AcDbText
 10
0.100105
 20
-0.972997
 30
0.0
 40
0.08052
  1

100
AcDbAttributeDefinition
  3
CUSTOMER NOTE?
  2
AC_NOTE
 70
     1
  0
ATTDEF
  5
65006
100
AcDbEntity
  8
ATTRIBUTES
100
AcDbText
 10
0.100105
 20
-1.140748
 30
0.0
 40
0.08052
  1

100
AcDbAttributeDefinition
  3
FASTENER DATA?
  2
FASTENER
 70
     1
  0
ATTDEF
  5
65007
100
AcDbEntity
  8
ATTRIBUTES
100
AcDbText
 10
0.100105
 20
-1.308498
 30
0.0
 40
0.08052
  1
INCH
100
AcDbAttributeDefinition
  3
UNIT OF SCALE?
  2
AC_SCALE_UNIT
 70
     1
  0
ATTDEF
  5
65008
100
AcDbEntity
  8
ATTRIBUTES
100
AcDbText
 10
0.100105
 20
-1.476249
 30
0.0
 40
0.08052
  1
0
100
AcDbAttributeDefinition
  3
VIEW CODE?
  2
AC_VIEW_CODE
 70
     1
  0
POLYLINE
  5
65009
100
AcDbEntity
  8
0
100
AcDbPolygonMesh
 66
     1
 10
0.0
 20
0.0
 30
0.0
 70
    16
 71
     6
 72
     3
  0
VERTEX
  5
6500A
100
AcDbEntity
  8
0
100
AcDbVertex
100
AcDbPolygonMeshVertex
 10
1.76521
 20
0.2385
 30
0.316
 70
    64
  0
VERTEX
  5
6500B
100
AcDbEntity
  8
0
100
AcDbVertex
100
AcDbPolygonMeshVertex
 10
1.76521
 20
0.2385
 30
0.0
 70
    64
  0
VERTEX
  5
6500C
100
AcDbEntity
  8
0
100
AcDbVertex
100
AcDbPolygonMeshVertex
 10
1.76521
 20
0.2385
 30
0.0
 70
    64
  0
VERTEX
  5
6500D
100
AcDbEntity
  8
0
100
AcDbVertex
100
AcDbPolygonMeshVertex
 10
1.37421
 20
0.2385
 30
0.316
 70
    64
  0
VERTEX
  5
6500E
100
AcDbEntity
  8
0
100
AcDbVertex
100
AcDbPolygonMeshVertex
 10
1.37421
 20
0.2385
 30
0.0
 70
    64
  0
VERTEX
  5
6500F
100
AcDbEntity
  8
0
100
AcDbVertex
100
AcDbPolygonMeshVertex
 10
1.37421
 20
0.2385
 30
0.0
 70
    64
  0
VERTEX
  5
65010
100
AcDbEntity
  8
0
100
AcDbVertex
100
AcDbPolygonMeshVertex
 10
1.37421
 20
0.5745
 30
0.316
 70
    64
  0
VERTEX
  5
65011
100
AcDbEntity
  8
0
100
AcDbVertex
100
AcDbPolygonMeshVertex
 10
1.37421
 20
0.5745
 30
0.0
 70
    64
  0
VERTEX
  5
65012
100
AcDbEntity
  8
0
100
AcDbVertex
100
AcDbPolygonMeshVertex
 10
1.37421
 20
0.2385
 30
0.0
 70
    64
  0
VERTEX
  5
65013
100
AcDbEntity
  8
0
100
AcDbVertex
100
AcDbPolygonMeshVertex
 10
1.76521
 20
0.5745
 30
0.316
 70
    64
  0
VERTEX
  5
65014
100
AcDbEntity
  8
0
100
AcDbVertex
100
AcDbPolygonMeshVertex
 10
1.76521
 20
0.5745
 30
0.0
 70
    64
  0
VERTEX
  5
65015
100
AcDbEntity
  8
0
100
AcDbVertex
100
AcDbPolygonMeshVertex
 10
1.76521
 20
0.2385
 30
0.0
 70
    64
  0
VERTEX
  5
65016
100
AcDbEntity
  8
0
100
AcDbVertex
100
AcDbPolygonMeshVertex
 10
1.76521
 20
0.5745
 30
0.316
 70
    64
  0
VERTEX
  5
65017
100
AcDbEntity
  8
0
100
AcDbVertex
100
AcDbPolygonMeshVertex
 10
1.76521
 20
0.5745
 30
0.316
 70
    64
  0
VERTEX
  5
65018
100
AcDbEntity
  8
0
100
AcDbVertex
100
AcDbPolygonMeshVertex
 10
1.76521
 20
0.2385
 30
0.316
 70
    64
  0
VERTEX
  5
65019
100
AcDbEntity
  8
0
100
AcDbVertex
100
AcDbPolygonMeshVertex
 10
1.37421
 20
0.5745
 30
0.316
 70
    64
  0
VERTEX
  5
6501A
100
AcDbEntity
  8
0
100
AcDbVertex
100
AcDbPolygonMeshVertex
 10
1.37421
 20
0.5745
 30
0.316
 70
    64
  0
VERTEX
  5
6501B
100
AcDbEntity
  8
0
100
AcDbVertex
100
AcDbPolygonMeshVertex
 10
1.37421
 20
0.2385
 30
0.316
 70
    64
  0
SEQEND
  5
6501C
100
AcDbEntity
  8
0
  0
POLYLINE
  5
6501D
100
AcDbEntity
  8
0
100
AcDbPolygonMesh
 66
     1
 10
0.0
 20
0.0
 30
0.0
 70
    16
 71
     6
 72
     3
  0
VERTEX
  5
6501E
100
AcDbEntity
  8
0
100
AcDbVertex
100
AcDbPolygonMeshVertex
 10
0.39621
 20
-1.6855
 30
1.318
 70
    64
  0
VERTEX
  5
6501F
100
AcDbEntity
  8
0
100
AcDbVertex
100
AcDbPolygonMeshVertex
 10
0.39621
 20
-1.6855
 30
0.187
 70
    64
  0
VERTEX
  5
65020
100
AcDbEntity
  8
0
100
AcDbVertex
100
AcDbPolygonMeshVertex
 10
0.39621
 20
-1.6855
 30
0.187
 70
    64
  0
VERTEX
  5
65021
100
AcDbEntity
  8
0
100
AcDbVertex
100
AcDbPolygonMeshVertex
 10
0.00521
 20
-1.6855
 30
1.318
 70
    64
  0
VERTEX
  5
65022
100
AcDbEntity
  8
0
100
AcDbVertex
100
AcDbPolygonMeshVertex
 10
0.00521
 20
-1.6855
 30
0.187
 70
    64
  0
VERTEX
  5
65023
100
AcDbEntity
  8
0
100
AcDbVertex
100
AcDbPolygonMeshVertex
 10
0.00521
 20
-1.6855
 30
0.187
 70
    64
  0
VERTEX
  5
65024
100
AcDbEntity
  8
0
100
AcDbVertex
100
AcDbPolygonMeshVertex
 10
0.00521
 20
0.5215
 30
1.318
 70
    64
  0
VERTEX
  5
65025
100
AcDbEntity
  8
0
100
AcDbVertex
100
AcDbPolygonMeshVertex
 10
0.00521
 20
0.5215
 30
0.187
 70
    64
  0
VERTEX
  5
65026
100
AcDbEntity
  8
0
100
AcDbVertex
100
AcDbPolygonMeshVertex
 10
0.00521
 20
-1.6855
 30
0.187
 70
    64
  0
VERTEX
  5
65027
100
AcDbEntity
  8
0
100
AcDbVertex
100
AcDbPolygonMeshVertex
 10
0.39621
 20
0.5215
 30
1.318
 70
    64
  0
VERTEX
  5
65028
100
AcDbEntity
  8
0
100
AcDbVertex
100
AcDbPolygonMeshVertex
 10
0.39621
 20
0.5215
 30
0.187
 70
    64
  0
VERTEX
  5
65029
100
AcDbEntity
  8
0
100
AcDbVertex
100
AcDbPolygonMeshVertex
 10
0.39621
 20
-1.6855
 30
0.187
 70
    64
  0
VERTEX
  5
6502A
100
AcDbEntity
  8
0
100
AcDbVertex
100
AcDbPolygonMeshVertex
 10
0.39621
 20
0.5215
 30
1.318
 70
    64
  0
VERTEX
  5
6502B
100
AcDbEntity
  8
0
100
AcDbVertex
100
AcDbPolygonMeshVertex
 10
0.39621
 20
0.5215
 30
1.318
 70
    64
  0
VERTEX
  5
6502C
100
AcDbEntity
  8
0
100
AcDbVertex
100
AcDbPolygonMeshVertex
 10
0.39621
 20
-1.6855
 30
1.318
 70
    64
  0
VERTEX
  5
6502D
100
AcDbEntity
  8
0
100
AcDbVertex
100
AcDbPolygonMeshVertex
 10
0.00521
 20
0.5215
 30
1.318
 70
    64
  0
VERTEX
  5
6502E
100
AcDbEntity
  8
0
100
AcDbVertex
100
AcDbPolygonMeshVertex
 10
0.00521
 20
0.5215
 30
1.318
 70
    64
  0
VERTEX
  5
6502F
100
AcDbEntity
  8
0
100
AcDbVertex
100
AcDbPolygonMeshVertex
 10
0.00521
 20
-1.6855
 30
1.318
 70
    64
  0
SEQEND
  5
65030
100
AcDbEntity
  8
0
  0
POLYLINE
  5
65031
100
AcDbEntity
  8
0
100
AcDbPolygonMesh
 66
     1
 10
0.0
 20
0.0
 30
0.0
 70
    16
 71
     6
 72
     3
  0
VERTEX
  5
65032
100
AcDbEntity
  8
0
100
AcDbVertex
100
AcDbPolygonMeshVertex
 10
1.76521
 20
-1.9685
 30
1.318
 70
    64
  0
VERTEX
  5
65033
100
AcDbEntity
  8
0
100
AcDbVertex
100
AcDbPolygonMeshVertex
 10
1.76521
 20
-1.9685
 30
0.187
 70
    64
  0
VERTEX
  5
65034
100
AcDbEntity
  8
0
100
AcDbVertex
100
AcDbPolygonMeshVertex
 10
1.76521
 20
-1.9685
 30
0.187
 70
    64
  0
VERTEX
  5
65035
100
AcDbEntity
  8
0
100
AcDbVertex
100
AcDbPolygonMeshVertex
 10
1.37421
 20
-1.9685
 30
1.318
 70
    64
  0
VERTEX
  5
65036
100
AcDbEntity
  8
0
100
AcDbVertex
100
AcDbPolygonMeshVertex
 10
1.37421
 20
-1.9685
 30
0.187
 70
    64
  0
VERTEX
  5
65037
100
AcDbEntity
  8
0
100
AcDbVertex
100
AcDbPolygonMeshVertex
 10
1.37421
 20
-1.9685
 30
0.187
 70
    64
  0
VERTEX
  5
65038
100
AcDbEntity
  8
0
100
AcDbVertex
100
AcDbPolygonMeshVertex
 10
1.37421
 20
0.2385
 30
1.318
 70
    64
  0
VERTEX
  5
65039
100
AcDbEntity
  8
0
100
AcDbVertex
100
AcDbPolygonMeshVertex
 10
1.37421
 20
0.2385
 30
0.187
 70
    64
  0
VERTEX
  5
6503A
100
AcDbEntity
  8
0
100
AcDbVertex
100
AcDbPolygonMeshVertex
 10
1.37421
 20
-1.9685
 30
0.187
 70
    64
  0
VERTEX
  5
6503B
100
AcDbEntity
  8
0
100
AcDbVertex
100
AcDbPolygonMeshVertex
 10
1.76521
 20
0.2385
 30
1.318
 70
    64
  0
VERTEX
  5
6503C
100
AcDbEntity
  8
0
100
AcDbVertex
100
AcDbPolygonMeshVertex
 10
1.76521
 20
0.2385
 30
0.187
 70
    64
  0
VERTEX
  5
6503D
100
AcDbEntity
  8
0
100
AcDbVertex
100
AcDbPolygonMeshVertex
 10
1.76521
 20
-1.9685
 30
0.187
 70
    64
  0
VERTEX
  5
6503E
100
AcDbEntity
  8
0
100
AcDbVertex
100
AcDbPolygonMeshVertex
 10
1.76521
 20
0.2385
 30
1.318
 70
    64
  0
VERTEX
  5
6503F
100
AcDbEntity
  8
0
100
AcDbVertex
100
AcDbPolygonMeshVertex
 10
1.76521
 20
0.2385
 30
1.318
 70
    64
  0
VERTEX
  5
65040
100
AcDbEntity
  8
0
100
AcDbVertex
100
AcDbPolygonMeshVertex
 10
1.76521
 20
-1.9685
 30
1.318
 70
    64
  0
VERTEX
  5
65041
100
AcDbEntity
  8
0
100
AcDbVertex
100
AcDbPolygonMeshVertex
 10
1.37421
 20
0.2385
 30
1.318
 70
    64
  0
VERTEX
  5
65042
100
AcDbEntity
  8
0
100
AcDbVertex
100
AcDbPolygonMeshVertex
 10
1.37421
 20
0.2385
 30
1.318
 70
    64
  0
VERTEX
  5
65043
100
AcDbEntity
  8
0
100
AcDbVertex
100
AcDbPolygonMeshVertex
 10
1.37421
 20
-1.9685
 30
1.318
 70
    64
  0
SEQEND
  5
65044
100
AcDbEntity
  8
0
  0
POLYLINE
  5
65045
100
AcDbEntity
  8
0
100
AcDbPolygonMesh
 66
     1
 10
0.0
 20
0.0
 30
0.0
 70
    16
 71
     6
 72
     3
  0
VERTEX
  5
65046
100
AcDbEntity
  8
0
100
AcDbVertex
100
AcDbPolygonMeshVertex
 10
1.37421
 20
-1.9685
 30
1.318
 70
    64
  0
VERTEX
  5
65047
100
AcDbEntity
  8
0
100
AcDbVertex
100
AcDbPolygonMeshVertex
 10
1.37421
 20
-1.9685
 30
0.187
 70
    64
  0
VERTEX
  5
65048
100
AcDbEntity
  8
0
100
AcDbVertex
100
AcDbPolygonMeshVertex
 10
1.37421
 20
-1.9685
 30
0.187
 70
    64
  0
VERTEX
  5
65049
100
AcDbEntity
  8
0
100
AcDbVertex
100
AcDbPolygonMeshVertex
 10
0.39621
 20
-1.9685
 30
1.318
 70
    64
  0
VERTEX
  5
6504A
100
AcDbEntity
  8
0
100
AcDbVertex
100
AcDbPolygonMeshVertex
 10
0.39621
 20
-1.9685
 30
0.187
 70
    64
  0
VERTEX
  5
6504B
100
AcDbEntity
  8
0
100
AcDbVertex
100
AcDbPolygonMeshVertex
 10
0.39621
 20
-1.9685
 30
0.187
 70
    64
  0
VERTEX
  5
6504C
100
AcDbEntity
  8
0
100
AcDbVertex
100
AcDbPolygonMeshVertex
 10
0.39621
 20
0.5215
 30
1.318
 70
    64
  0
VERTEX
  5
6504D
100
AcDbEntity
  8
0
100
AcDbVertex
100
AcDbPolygonMeshVertex
 10
0.39621
 20
0.5215
 30
0.187
 70
    64
  0
VERTEX
  5
6504E
100
AcDbEntity
  8
0
100
AcDbVertex
100
AcDbPolygonMeshVertex
 10
0.39621
 20
-1.9685
 30
0.187
 70
    64
  0
VERTEX
  5
6504F
100
AcDbEntity
  8
0
100
AcDbVertex
100
AcDbPolygonMeshVertex
 10
1.37421
 20
0.5215
 30
1.318
 70
    64
  0
VERTEX
  5
65050
100
AcDbEntity
  8
0
100
AcDbVertex
100
AcDbPolygonMeshVertex
 10
1.37421
 20
0.5215
 30
0.187
 70
    64
  0
VERTEX
  5
65051
100
AcDbEntity
  8
0
100
AcDbVertex
100
AcDbPolygonMeshVertex
 10
1.37421
 20
-1.9685
 30
0.187
 70
    64
  0
VERTEX
  5
65052
100
AcDbEntity
  8
0
100
AcDbVertex
100
AcDbPolygonMeshVertex
 10
1.37421
 20
0.5215
 30
1.318
 70
    64
  0
VERTEX
  5
65053
100
AcDbEntity
  8
0
100
AcDbVertex
100
AcDbPolygonMeshVertex
 10
1.37421
 20
0.5215
 30
1.318
 70
    64
  0
VERTEX
  5
65054
100
AcDbEntity
  8
0
100
AcDbVertex
100
AcDbPolygonMeshVertex
 10
1.37421
 20
-1.9685
 30
1.318
 70
    64
  0
VERTEX
  5
65055
100
AcDbEntity
  8
0
100
AcDbVertex
100
AcDbPolygonMeshVertex
 10
0.39621
 20
0.5215
 30
1.318
 70
    64
  0
VERTEX
  5
65056
100
AcDbEntity
  8
0
100
AcDbVertex
100
AcDbPolygonMeshVertex
 10
0.39621
 20
0.5215
 30
1.318
 70
    64
  0
VERTEX
  5
65057
100
AcDbEntity
  8
0
100
AcDbVertex
100
AcDbPolygonMeshVertex
 10
0.39621
 20
-1.9685
 30
1.318
 70
    64
  0
SEQEND
  5
65058
100
AcDbEntity
  8
0
  0
POLYLINE
  5
65059
100
AcDbEntity
  8
0
100
AcDbPolygonMesh
 66
     1
 10
0.0
 20
0.0
 30
0.0
 70
    16
 71
     6
 72
     3
  0
VERTEX
  5
6505A
100
AcDbEntity
  8
0
100
AcDbVertex
100
AcDbPolygonMeshVertex
 10
1.07071
 20
-2.2215
 30
2.06
 70
    64
  0
VERTEX
  5
6505B
100
AcDbEntity
  8
0
100
AcDbVertex
100
AcDbPolygonMeshVertex
 10
1.07071
 20
-2.2215
 30
1.386
 70
    64
  0
VERTEX
  5
6505C
100
AcDbEntity
  8
0
100
AcDbVertex
100
AcDbPolygonMeshVertex
 10
1.07071
 20
-2.2215
 30
1.386
 70
    64
  0
VERTEX
  5
6505D
100
AcDbEntity
  8
0
100
AcDbVertex
100
AcDbPolygonMeshVertex
 10
0.69971
 20
-2.2215
 30
2.06
 70
    64
  0
VERTEX
  5
6505E
100
AcDbEntity
  8
0
100
AcDbVertex
100
AcDbPolygonMeshVertex
 10
0.69971
 20
-2.2215
 30
1.386
 70
    64
  0
VERTEX
  5
6505F
100
AcDbEntity
  8
0
100
AcDbVertex
100
AcDbPolygonMeshVertex
 10
0.69971
 20
-2.2215
 30
1.386
 70
    64
  0
VERTEX
  5
65060
100
AcDbEntity
  8
0
100
AcDbVertex
100
AcDbPolygonMeshVertex
 10
0.69971
 20
-1.9685
 30
2.06
 70
    64
  0
VERTEX
  5
65061
100
AcDbEntity
  8
0
100
AcDbVertex
100
AcDbPolygonMeshVertex
 10
0.69971
 20
-1.9685
 30
1.386
 70
    64
  0
VERTEX
  5
65062
100
AcDbEntity
  8
0
100
AcDbVertex
100
AcDbPolygonMeshVertex
 10
0.69971
 20
-2.2215
 30
1.386
 70
    64
  0
VERTEX
  5
65063
100
AcDbEntity
  8
0
100
AcDbVertex
100
AcDbPolygonMeshVertex
 10
1.07071
 20
-1.9685
 30
2.06
 70
    64
  0
VERTEX
  5
65064
100
AcDbEntity
  8
0
100
AcDbVertex
100
AcDbPolygonMeshVertex
 10
1.07071
 20
-1.9685
 30
1.386
 70
    64
  0
VERTEX
  5
65065
100
AcDbEntity
  8
0
100
AcDbVertex
100
AcDbPolygonMeshVertex
 10
1.07071
 20
-2.2215
 30
1.386
 70
    64
  0
VERTEX
  5
65066
100
AcDbEntity
  8
0
100
AcDbVertex
100
AcDbPolygonMeshVertex
 10
1.07071
 20
-1.9685
 30
2.06
 70
    64
  0
VERTEX
  5
65067
100
AcDbEntity
  8
0
100
AcDbVertex
100
AcDbPolygonMeshVertex
 10
1.07071
 20
-1.9685
 30
2.06
 70
    64
  0
VERTEX
  5
65068
100
AcDbEntity
  8
0
100
AcDbVertex
100
AcDbPolygonMeshVertex
 10
1.07071
 20
-2.2215
 30
2.06
 70
    64
  0
VERTEX
  5
65069
100
AcDbEntity
  8
0
100
AcDbVertex
100
AcDbPolygonMeshVertex
 10
0.69971
 20
-1.9685
 30
2.06
 70
    64
  0
VERTEX
  5
6506A
100
AcDbEntity
  8
0
100
AcDbVertex
100
AcDbPolygonMeshVertex
 10
0.69971
 20
-1.9685
 30
2.06
 70
    64
  0
VERTEX
  5
6506B
100
AcDbEntity
  8
0
100
AcDbVertex
100
AcDbPolygonMeshVertex
 10
0.69971
 20
-2.2215
 30
2.06
 70
    64
  0
SEQEND
  5
6506C
100
AcDbEntity
  8
0
  0
LWPOLYLINE
  5
6506D
100
AcDbEntity
  8
0
100
AcDbPolyline
 90
        4
 70
     1
 43
0.0
 38
2.062
 10
0.75171
 20
-2.0205
 10
1.01871
 20
-2.0205
 10
1.01871
 20
-2.1695
 10
0.75171
 20
-2.1695
  0
LWPOLYLINE
  5
6506E
100
AcDbEntity
  8
0
100
AcDbPolyline
 90
        4
 70
     1
 43
0.0
 38
1.388
 10
0.75171
 20
-2.0205
 10
1.01871
 20
-2.0205
 10
1.01871
 20
-2.1695
 10
0.75171
 20
-2.1695
  0
POLYLINE
  5
6506F
100
AcDbEntity
  8
0
100
AcDbPolygonMesh
 66
     1
 10
0.0
 20
0.0
 30
0.0
 70
    16
 71
     6
 72
     3
  0
VERTEX
  5
65070
100
AcDbEntity
  8
0
100
AcDbVertex
100
AcDbPolygonMeshVertex
 10
0.33271
 20
0.9585
 30
2.06
 70
    64
  0
VERTEX
  5
65071
100
AcDbEntity
  8
0
100
AcDbVertex
100
AcDbPolygonMeshVertex
 10
0.33271
 20
0.9585
 30
1.386
 70
    64
  0
VERTEX
  5
65072
100
AcDbEntity
  8
0
100
AcDbVertex
100
AcDbPolygonMeshVertex
 10
0.33271
 20
0.9585
 30
1.386
 70
    64
  0
VERTEX
  5
65073
100
AcDbEntity
  8
0
100
AcDbVertex
100
AcDbPolygonMeshVertex
 10
1.43771
 20
0.9585
 30
2.06
 70
    64
  0
VERTEX
  5
65074
100
AcDbEntity
  8
0
100
AcDbVertex
100
AcDbPolygonMeshVertex
 10
1.43771
 20
0.9585
 30
1.386
 70
    64
  0
VERTEX
  5
65075
100
AcDbEntity
  8
0
100
AcDbVertex
100
AcDbPolygonMeshVertex
 10
1.43771
 20
0.9585
 30
1.386
 70
    64
  0
VERTEX
  5
65076
100
AcDbEntity
  8
0
100
AcDbVertex
100
AcDbPolygonMeshVertex
 10
1.43771
 20
0.5215
 30
2.06
 70
    64
  0
VERTEX
  5
65077
100
AcDbEntity
  8
0
100
AcDbVertex
100
AcDbPolygonMeshVertex
 10
1.43771
 20
0.5215
 30
1.386
 70
    64
  0
VERTEX
  5
65078
100
AcDbEntity
  8
0
100
AcDbVertex
100
AcDbPolygonMeshVertex
 10
1.43771
 20
0.9585
 30
1.386
 70
    64
  0
VERTEX
  5
65079
100
AcDbEntity
  8
0
100
AcDbVertex
100
AcDbPolygonMeshVertex
 10
0.33271
 20
0.5215
 30
2.06
 70
    64
  0
VERTEX
  5
6507A
100
AcDbEntity
  8
0
100
AcDbVertex
100
AcDbPolygonMeshVertex
 10
0.33271
 20
0.5215
 30
1.386
 70
    64
  0
VERTEX
  5
6507B
100
AcDbEntity
  8
0
100
AcDbVertex
100
AcDbPolygonMeshVertex
 10
0.33271
 20
0.9585
 30
1.386
 70
    64
  0
VERTEX
  5
6507C
100
AcDbEntity
  8
0
100
AcDbVertex
100
AcDbPolygonMeshVertex
 10
0.33271
 20
0.5215
 30
2.06
 70
    64
  0
VERTEX
  5
6507D
100
AcDbEntity
  8
0
100
AcDbVertex
100
AcDbPolygonMeshVertex
 10
0.33271
 20
0.5215
 30
2.06
 70
    64
  0
VERTEX
  5
6507E
100
AcDbEntity
  8
0
100
AcDbVertex
100
AcDbPolygonMeshVertex
 10
0.33271
 20
0.9585
 30
2.06
 70
    64
  0
VERTEX
  5
6507F
100
AcDbEntity
  8
0
100
AcDbVertex
100
AcDbPolygonMeshVertex
 10
1.43771
 20
0.5215
 30
2.06
 70
    64
  0
VERTEX
  5
65080
100
AcDbEntity
  8
0
100
AcDbVertex
100
AcDbPolygonMeshVertex
 10
1.43771
 20
0.5215
 30
2.06
 70
    64
  0
VERTEX
  5
65081
100
AcDbEntity
  8
0
100
AcDbVertex
100
AcDbPolygonMeshVertex
 10
1.43771
 20
0.9585
 30
2.06
 70
    64
  0
SEQEND
  5
65082
100
AcDbEntity
  8
0
  0
LINE
  5
65083
100
AcDbEntity
  8
0
100
AcDbLine
 10
0.74521
 20
0.5215
 30
2.06
 11
0.74521
 21
0.7565
 31
2.06
  0
LINE
  5
65084
100
AcDbEntity
  8
0
100
AcDbLine
 10
1.02521
 20
0.5215
 30
2.06
 11
1.02521
 21
0.7565
 31
2.06
  0
LINE
  5
65085
100
AcDbEntity
  8
0
100
AcDbLine
 10
1.02521
 20
0.7565
 30
2.06
 11
0.74521
 21
0.7565
 31
2.06
  0
CIRCLE
  5
65086
100
AcDbEntity
  8
0
100
AcDbCircle
 10
0.54621
 20
0.74
 30
2.06
 40
0.12
  0
CIRCLE
  5
65087
100
AcDbEntity
  8
0
100
AcDbCircle
 10
1.22421
 20
0.74
 30
2.06
 40
0.12
  0
POLYLINE
  5
65088
100
AcDbEntity
  8
0
100
AcDb3dPolyline
 66
     1
 10
0.0
 20
0.0
 30
0.0
 70
     8
  0
VERTEX
  5
65089
100
AcDbEntity
  8
0
100
AcDbVertex
100
AcDb3dPolylineVertex
 10
1.76521
 20
-1.3525
 30
0.187
 70
    32
  0
VERTEX
  5
6508A
100
AcDbEntity
  8
0
100
AcDbVertex
100
AcDb3dPolylineVertex
 10
1.76521
 20
-1.3525
 30
1.057
 70
    32
  0
VERTEX
  5
6508B
100
AcDbEntity
  8
0
100
AcDbVertex
100
AcDb3dPolylineVertex
 10
1.76521
 20
-1.5075
 30
1.057
 70
    32
  0
VERTEX
  5
6508C
100
AcDbEntity
  8
0
100
AcDbVertex
100
AcDb3dPolylineVertex
 10
1.76521
 20
-1.5075
 30
0.187
 70
    32
  0
SEQEND
  5
6508D
100
AcDbEntity
  8
0
  0
POLYLINE
  5
6508E
100
AcDbEntity
  8
0
100
AcDb3dPolyline
 66
     1
 10
0.0
 20
0.0
 30
0.0
 70
     8
  0
VERTEX
  5
6508F
100
AcDbEntity
  8
0
100
AcDbVertex
100
AcDb3dPolylineVertex
 10
1.76521
 20
0.0265
 30
0.187
 70
    32
  0
VERTEX
  5
65090
100
AcDbEntity
  8
0
100
AcDbVertex
100
AcDb3dPolylineVertex
 10
1.76521
 20
0.0265
 30
1.057
 70
    32
  0
VERTEX
  5
65091
100
AcDbEntity
  8
0
100
AcDbVertex
100
AcDb3dPolylineVertex
 10
1.76521
 20
-0.1285
 30
1.057
 70
    32
  0
VERTEX
  5
65092
100
AcDbEntity
  8
0
100
AcDbVertex
100
AcDb3dPolylineVertex
 10
1.76521
 20
-0.1285
 30
0.187
 70
    32
  0
SEQEND
  5
65093
100
AcDbEntity
  8
0
  0
LINE
  5
65094
100
AcDbEntity
  8
0
100
AcDbLine
 10
1.76521
 20
-0.6295
 30
0.517
 11
1.76521
 21
-0.8515
 31
0.517
  0
LINE
  5
65095
100
AcDbEntity
  8
0
100
AcDbLine
 10
1.76521
 20
-0.8515
 30
0.517
 11
1.76521
 21
-0.8515
 31
0.187
  0
LINE
  5
65096
100
AcDbEntity
  8
0
100
AcDbLine
 10
1.76521
 20
-0.6295
 30
0.517
 11
1.76521
 21
-0.6295
 31
0.187
  0
POLYLINE
  5
65097
100
AcDbEntity
  8
0
100
AcDb3dPolyline
 66
     1
 10
0.0
 20
0.0
 30
0.0
 70
     8
  0
VERTEX
  5
65098
100
AcDbEntity
  8
0
100
AcDbVertex
100
AcDb3dPolylineVertex
 10
0.00521
 20
0.0265
 30
0.187
 70
    32
  0
VERTEX
  5
65099
100
AcDbEntity
  8
0
100
AcDbVertex
100
AcDb3dPolylineVertex
 10
0.00521
 20
0.0265
 30
1.057
 70
    32
  0
VERTEX
  5
6509A
100
AcDbEntity
  8
0
100
AcDbVertex
100
AcDb3dPolylineVertex
 10
0.00521
 20
-0.1285
 30
1.057
 70
    32
  0
VERTEX
  5
6509B
100
AcDbEntity
  8
0
100
AcDbVertex
100
AcDb3dPolylineVertex
 10
0.00521
 20
-0.1285
 30
0.187
 70
    32
  0
SEQEND
  5
6509C
100
AcDbEntity
  8
0
  0
POLYLINE
  5
6509D
100
AcDbEntity
  8
0
100
AcDb3dPolyline
 66
     1
 10
0.0
 20
0.0
 30
0.0
 70
     8
  0
VERTEX
  5
6509E
100
AcDbEntity
  8
0
100
AcDbVertex
100
AcDb3dPolylineVertex
 10
0.00521
 20
-1.3525
 30
0.187
 70
    32
  0
VERTEX
  5
6509F
100
AcDbEntity
  8
0
100
AcDbVertex
100
AcDb3dPolylineVertex
 10
0.00521
 20
-1.3525
 30
1.057
 70
    32
  0
VERTEX
  5
650A0
100
AcDbEntity
  8
0
100
AcDbVertex
100
AcDb3dPolylineVertex
 10
0.00521
 20
-1.5075
 30
1.057
 70
    32
  0
VERTEX
  5
650A1
100
AcDbEntity
  8
0
100
AcDbVertex
100
AcDb3dPolylineVertex
 10
0.00521
 20
-1.5075
 30
0.187
 70
    32
  0
SEQEND
  5
650A2
100
AcDbEntity
  8
0
  0
LINE
  5
650A3
100
AcDbEntity
  8
0
100
AcDbLine
 10
1.76521
 20
-1.5675
 30
0.187
 11
1.76521
 21
-1.5675
 31
0.0
  0
LINE
  5
650A4
100
AcDbEntity
  8
0
100
AcDbLine
 10
1.76521
 20
-1.5675
 30
0.0
 11
0.88521
 21
-1.5675
 31
0.0
  0
POLYLINE
  5
650A5
100
AcDbEntity
  8
0
100
AcDbPolygonMesh
 66
     1
 10
0.0
 20
0.0
 30
0.0
 70
    16
 71
     6
 72
     3
  0
VERTEX
  5
650A6
100
AcDbEntity
  8
0
100
AcDbVertex
100
AcDbPolygonMeshVertex
 10
0.88521
 20
-1.5675
 30
0.187
 70
    64
  0
VERTEX
  5
650A7
100
AcDbEntity
  8
0
100
AcDbVertex
100
AcDbPolygonMeshVertex
 10
0.88521
 20
-1.5675
 30
0.0
 70
    64
  0
VERTEX
  5
650A8
100
AcDbEntity
  8
0
100
AcDbVertex
100
AcDbPolygonMeshVertex
 10
0.88521
 20
-1.5675
 30
0.0
 70
    64
  0
VERTEX
  5
650A9
100
AcDbEntity
  8
0
100
AcDbVertex
100
AcDbPolygonMeshVertex
 10
1.76521
 20
-1.5675
 30
0.187
 70
    64
  0
VERTEX
  5
650AA
100
AcDbEntity
  8
0
100
AcDbVertex
100
AcDbPolygonMeshVertex
 10
1.76521
 20
-1.5675
 30
0.0
 70
    64
  0
VERTEX
  5
650AB
100
AcDbEntity
  8
0
100
AcDbVertex
100
AcDbPolygonMeshVertex
 10
1.76521
 20
-1.5675
 30
0.0
 70
    64
  0
VERTEX
  5
650AC
100
AcDbEntity
  8
0
100
AcDbVertex
100
AcDbPolygonMeshVertex
 10
1.76521
 20
-2.1655
 30
0.187
 70
    64
  0
VERTEX
  5
650AD
100
AcDbEntity
  8
0
100
AcDbVertex
100
AcDbPolygonMeshVertex
 10
1.76521
 20
-2.1655
 30
0.0
 70
    64
  0
VERTEX
  5
650AE
100
AcDbEntity
  8
0
100
AcDbVertex
100
AcDbPolygonMeshVertex
 10
1.76521
 20
-1.5675
 30
0.0
 70
    64
  0
VERTEX
  5
650AF
100
AcDbEntity
  8
0
100
AcDbVertex
100
AcDbPolygonMeshVertex
 10
0.88521
 20
-2.1655
 30
0.187
 70
    64
  0
VERTEX
  5
650B0
100
AcDbEntity
  8
0
100
AcDbVertex
100
AcDbPolygonMeshVertex
 10
0.88521
 20
-2.1655
 30
0.0
 70
    64
  0
VERTEX
  5
650B1
100
AcDbEntity
  8
0
100
AcDbVertex
100
AcDbPolygonMeshVertex
 10
0.88521
 20
-1.5675
 30
0.0
 70
    64
  0
VERTEX
  5
650B2
100
AcDbEntity
  8
0
100
AcDbVertex
100
AcDbPolygonMeshVertex
 10
0.88521
 20
-2.1655
 30
0.187
 70
    64
  0
VERTEX
  5
650B3
100
AcDbEntity
  8
0
100
AcDbVertex
100
AcDbPolygonMeshVertex
 10
0.88521
 20
-2.1655
 30
0.187
 70
    64
  0
VERTEX
  5
650B4
100
AcDbEntity
  8
0
100
AcDbVertex
100
AcDbPolygonMeshVertex
 10
0.88521
 20
-1.5675
 30
0.187
 70
    64
  0
VERTEX
  5
650B5
100
AcDbEntity
  8
0
100
AcDbVertex
100
AcDbPolygonMeshVertex
 10
1.76521
 20
-2.1655
 30
0.187
 70
    64
  0
VERTEX
  5
650B6
100
AcDbEntity
  8
0
100
AcDbVertex
100
AcDbPolygonMeshVertex
 10
1.76521
 20
-2.1655
 30
0.187
 70
    64
  0
VERTEX
  5
650B7
100
AcDbEntity
  8
0
100
AcDbVertex
100
AcDbPolygonMeshVertex
 10
1.76521
 20
-1.5675
 30
0.187
 70
    64
  0
SEQEND
  5
650B8
100
AcDbEntity
  8
0
  0
POLYLINE
  5
650B9
100
AcDbEntity
  8
0
100
AcDbPolygonMesh
 66
     1
 10
0.0
 20
0.0
 30
0.0
 70
    16
 71
     6
 72
     3
  0
VERTEX
  5
650BA
100
AcDbEntity
  8
0
100
AcDbVertex
100
AcDbPolygonMeshVertex
 10
0.00521
 20
0.7185
 30
0.187
 70
    64
  0
VERTEX
  5
650BB
100
AcDbEntity
  8
0
100
AcDbVertex
100
AcDbPolygonMeshVertex
 10
0.00521
 20
0.7185
 30
0.0
 70
    64
  0
VERTEX
  5
650BC
100
AcDbEntity
  8
0
100
AcDbVertex
100
AcDbPolygonMeshVertex
 10
0.00521
 20
0.7185
 30
0.0
 70
    64
  0
VERTEX
  5
650BD
100
AcDbEntity
  8
0
100
AcDbVertex
100
AcDbPolygonMeshVertex
 10
0.88521
 20
0.7185
 30
0.187
 70
    64
  0
VERTEX
  5
650BE
100
AcDbEntity
  8
0
100
AcDbVertex
100
AcDbPolygonMeshVertex
 10
0.88521
 20
0.7185
 30
0.0
 70
    64
  0
VERTEX
  5
650BF
100
AcDbEntity
  8
0
100
AcDbVertex
100
AcDbPolygonMeshVertex
 10
0.88521
 20
0.7185
 30
0.0
 70
    64
  0
VERTEX
  5
650C0
100
AcDbEntity
  8
0
100
AcDbVertex
100
AcDbPolygonMeshVertex
 10
0.88521
 20
0.1205
 30
0.187
 70
    64
  0
VERTEX
  5
650C1
100
AcDbEntity
  8
0
100
AcDbVertex
100
AcDbPolygonMeshVertex
 10
0.88521
 20
0.1205
 30
0.0
 70
    64
  0
VERTEX
  5
650C2
100
AcDbEntity
  8
0
100
AcDbVertex
100
AcDbPolygonMeshVertex
 10
0.88521
 20
0.7185
 30
0.0
 70
    64
  0
VERTEX
  5
650C3
100
AcDbEntity
  8
0
100
AcDbVertex
100
AcDbPolygonMeshVertex
 10
0.00521
 20
0.1205
 30
0.187
 70
    64
  0
VERTEX
  5
650C4
100
AcDbEntity
  8
0
100
AcDbVertex
100
AcDbPolygonMeshVertex
 10
0.00521
 20
0.1205
 30
0.0
 70
    64
  0
VERTEX
  5
650C5
100
AcDbEntity
  8
0
100
AcDbVertex
100
AcDbPolygonMeshVertex
 10
0.00521
 20
0.7185
 30
0.0
 70
    64
  0
VERTEX
  5
650C6
100
AcDbEntity
  8
0
100
AcDbVertex
100
AcDbPolygonMeshVertex
 10
0.00521
 20
0.1205
 30
0.187
 70
    64
  0
VERTEX
  5
650C7
100
AcDbEntity
  8
0
100
AcDbVertex
100
AcDbPolygonMeshVertex
 10
0.00521
 20
0.1205
 30
0.187
 70
    64
  0
VERTEX
  5
650C8
100
AcDbEntity
  8
0
100
AcDbVertex
100
AcDbPolygonMeshVertex
 10
0.00521
 20
0.7185
 30
0.187
 70
    64
  0
VERTEX
  5
650C9
100
AcDbEntity
  8
0
100
AcDbVertex
100
AcDbPolygonMeshVertex
 10
0.88521
 20
0.1205
 30
0.187
 70
    64
  0
VERTEX
  5
650CA
100
AcDbEntity
  8
0
100
AcDbVertex
100
AcDbPolygonMeshVertex
 10
0.88521
 20
0.1205
 30
0.187
 70
    64
  0
VERTEX
  5
650CB
100
AcDbEntity
  8
0
100
AcDbVertex
100
AcDbPolygonMeshVertex
 10
0.88521
 20
0.7185
 30
0.187
 70
    64
  0
SEQEND
  5
650CC
100
AcDbEntity
  8
0
  0
LINE
  5
650CD
100
AcDbEntity
  8
0
100
AcDbLine
 10
1.76521
 20
-0.8065
 30
1.8785
 11
1.76521
 21
-0.6405
 31
1.8785
  0
POLYLINE
  5
650CE
100
AcDbEntity
  8
0
100
AcDb3dPolyline
 66
     1
 10
0.0
 20
0.0
 30
0.0
 70
     8
  0
VERTEX
  5
650CF
100
AcDbEntity
  8
0
100
AcDbVertex
100
AcDb3dPolylineVertex
 10
0.0
 20
-0.6405
 30
1.592
 70
    32
  0
VERTEX
  5
650D0
100
AcDbEntity
  8
0
100
AcDbVertex
100
AcDb3dPolylineVertex
 10
0.0
 20
-0.6405
 30
2.165
 70
    32
  0
VERTEX
  5
650D1
100
AcDbEntity
  8
0
100
AcDbVertex
100
AcDb3dPolylineVertex
 10
0.0
 20
-0.8065
 30
2.165
 70
    32
  0
VERTEX
  5
650D2
100
AcDbEntity
  8
0
100
AcDbVertex
100
AcDb3dPolylineVertex
 10
0.0
 20
-0.8065
 30
1.592
 70
    32
  0
VERTEX
  5
650D3
100
AcDbEntity
  8
0
100
AcDbVertex
100
AcDb3dPolylineVertex
 10
0.0
 20
-0.6405
 30
1.592
 70
    32
  0
SEQEND
  5
650D4
100
AcDbEntity
  8
0
  0
LINE
  5
650D5
100
AcDbEntity
  8
0
100
AcDbLine
 10
0.0
 20
-0.8065
 30
1.8785
 11
0.0
 21
-0.6405
 31
1.8785
  0
LINE
  5
650D6
100
AcDbEntity
  8
0
100
AcDbLine
 10
0.0
 20
-0.8065
 30
2.0685
 11
0.0
 21
-0.6405
 31
2.0685
  0
CIRCLE
  5
650D7
100
AcDbEntity
  8
0
100
AcDbCircle
 10
1.57121
 20
0.4255
 30
0.316
 40
0.086
  0
POLYLINE
  5
650D8
100
AcDbEntity
  8
0
100
AcDb3dPolyline
 66
     1
 10
0.0
 20
0.0
 30
0.0
 70
     8
  0
VERTEX
  5
650D9
100
AcDbEntity
  8
0
100
AcDbVertex
100
AcDb3dPolylineVertex
 10
0.550544
 20
0.5215
 30
0.187
 70
    32
  0
VERTEX
  5
650DA
100
AcDbEntity
  8
0
100
AcDbVertex
100
AcDb3dPolylineVertex
 10
0.550544
 20
0.6565
 30
0.187
 70
    32
  0
VERTEX
  5
650DB
100
AcDbEntity
  8
0
100
AcDbVertex
100
AcDb3dPolylineVertex
 10
0.339877
 20
0.6565
 30
0.187
 70
    32
  0
VERTEX
  5
650DC
100
AcDbEntity
  8
0
100
AcDbVertex
100
AcDb3dPolylineVertex
 10
0.339877
 20
0.5215
 30
0.187
 70
    32
  0
SEQEND
  5
650DD
100
AcDbEntity
  8
0
  0
POLYLINE
  5
650DE
100
AcDbEntity
  8
0
100
AcDb3dPolyline
 66
     1
 10
0.0
 20
0.0
 30
0.0
 70
     8
  0
VERTEX
  5
650DF
100
AcDbEntity
  8
0
100
AcDbVertex
100
AcDb3dPolylineVertex
 10
0.277877
 20
0.5215
 30
0.187
 70
    32
  0
VERTEX
  5
650E0
100
AcDbEntity
  8
0
100
AcDbVertex
100
AcDb3dPolylineVertex
 10
0.277877
 20
0.6565
 30
0.187
 70
    32
  0
VERTEX
  5
650E1
100
AcDbEntity
  8
0
100
AcDbVertex
100
AcDb3dPolylineVertex
 10
0.06721
 20
0.6565
 30
0.187
 70
    32
  0
VERTEX
  5
650E2
100
AcDbEntity
  8
0
100
AcDbVertex
100
AcDb3dPolylineVertex
 10
0.06721
 20
0.5215
 30
0.187
 70
    32
  0
SEQEND
  5
650E3
100
AcDbEntity
  8
0
  0
POLYLINE
  5
650E4
100
AcDbEntity
  8
0
100
AcDb3dPolyline
 66
     1
 10
0.0
 20
0.0
 30
0.0
 70
     8
  0
VERTEX
  5
650E5
100
AcDbEntity
  8
0
100
AcDbVertex
100
AcDb3dPolylineVertex
 10
0.82321
 20
0.5215
 30
0.187
 70
    32
  0
VERTEX
  5
650E6
100
AcDbEntity
  8
0
100
AcDbVertex
100
AcDb3dPolylineVertex
 10
0.82321
 20
0.6565
 30
0.187
 70
    32
  0
VERTEX
  5
650E7
100
AcDbEntity
  8
0
100
AcDbVertex
100
AcDb3dPolylineVertex
 10
0.612544
 20
0.6565
 30
0.187
 70
    32
  0
VERTEX
  5
650E8
100
AcDbEntity
  8
0
100
AcDbVertex
100
AcDb3dPolylineVertex
 10
0.612544
 20
0.5215
 30
0.187
 70
    32
  0
SEQEND
  5
650E9
100
AcDbEntity
  8
0
  0
POLYLINE
  5
650EA
100
AcDbEntity
  8
0
100
AcDb3dPolyline
 66
     1
 10
0.0
 20
0.0
 30
0.0
 70
     8
  0
VERTEX
  5
650EB
100
AcDbEntity
  8
0
100
AcDbVertex
100
AcDb3dPolylineVertex
 10
1.492544
 20
-1.9685
 30
0.187
 70
    32
  0
VERTEX
  5
650EC
100
AcDbEntity
  8
0
100
AcDbVertex
100
AcDb3dPolylineVertex
 10
1.492544
 20
-2.1035
 30
0.187
 70
    32
  0
VERTEX
  5
650ED
100
AcDbEntity
  8
0
100
AcDbVertex
100
AcDb3dPolylineVertex
 10
1.70321
 20
-2.1035
 30
0.187
 70
    32
  0
VERTEX
  5
650EE
100
AcDbEntity
  8
0
100
AcDbVertex
100
AcDb3dPolylineVertex
 10
1.70321
 20
-1.9685
 30
0.187
 70
    32
  0
SEQEND
  5
650EF
100
AcDbEntity
  8
0
  0
POLYLINE
  5
650F0
100
AcDbEntity
  8
0
100
AcDb3dPolyline
 66
     1
 10
0.0
 20
0.0
 30
0.0
 70
     8
  0
VERTEX
  5
650F1
100
AcDbEntity
  8
0
100
AcDbVertex
100
AcDb3dPolylineVertex
 10
1.219877
 20
-1.9685
 30
0.187
 70
    32
  0
VERTEX
  5
650F2
100
AcDbEntity
  8
0
100
AcDbVertex
100
AcDb3dPolylineVertex
 10
1.219877
 20
-2.1035
 30
0.187
 70
    32
  0
VERTEX
  5
650F3
100
AcDbEntity
  8
0
100
AcDbVertex
100
AcDb3dPolylineVertex
 10
1.430544
 20
-2.1035
 30
0.187
 70
    32
  0
VERTEX
  5
650F4
100
AcDbEntity
  8
0
100
AcDbVertex
100
AcDb3dPolylineVertex
 10
1.430544
 20
-1.9685
 30
0.187
 70
    32
  0
SEQEND
  5
650F5
100
AcDbEntity
  8
0
  0
POLYLINE
  5
650F6
100
AcDbEntity
  8
0
100
AcDb3dPolyline
 66
     1
 10
0.0
 20
0.0
 30
0.0
 70
     8
  0
VERTEX
  5
650F7
100
AcDbEntity
  8
0
100
AcDbVertex
100
AcDb3dPolylineVertex
 10
0.94721
 20
-1.9685
 30
0.187
 70
    32
  0
VERTEX
  5
650F8
100
AcDbEntity
  8
0
100
AcDbVertex
100
AcDb3dPolylineVertex
 10
0.94721
 20
-2.1035
 30
0.187
 70
    32
  0
VERTEX
  5
650F9
100
AcDbEntity
  8
0
100
AcDbVertex
100
AcDb3dPolylineVertex
 10
1.157877
 20
-2.1035
 30
0.187
 70
    32
  0
VERTEX
  5
650FA
100
AcDbEntity
  8
0
100
AcDbVertex
100
AcDb3dPolylineVertex
 10
1.157877
 20
-1.9685
 30
0.187
 70
    32
  0
SEQEND
  5
650FB
100
AcDbEntity
  8
0
  0
CIRCLE
  5
650FC
100
AcDbEntity
  8
0
100
AcDbCircle
 10
0.19121
 20
-1.9345
 30
0.316
 40
0.086
  0
INSERT
  5
650FD
100
AcDbEntity
  8
0
 62
     1
100
AcDbBlockReference
  2
AVE_RENDER
 10
-6.627499
 20
-2.735105
 30
0.0
1001
AVE_RENDER
1002
{
1070
     2
1000
Pref
1070
    30
1070
    20
1070
     0
1070
     0
1000

1070
    10
1070
     0
1070
    30
1040
1.0
1070
     1
1040
0.3
1040
0.4
1040
0.76
1040
1.538462
1010
-1.0
1020
-1.0
1030
-1.0
1040
0.3
1070
    49
1002
}
  0
INSERT
  5
650FE
100
AcDbEntity
  8
0
 62
     3
100
AcDbBlockReference
  2
AVE_RENDER
 10
-6.627499
 20
-2.735105
 30
0.0
1001
AVE_RENDER
1002
{
1070
     0
1000
Full Opt
1070
     0
1070
     1
1070
     1
1070
     1
1070
     0
1070
     0
1070
     0
1070
     1
1070
     1
1040
0.0001
1040
0.0001
1002
}
  0
INSERT
  5
650FF
100
AcDbEntity
  8
0
 62
     4
100
AcDbBlockReference
  2
AVE_RENDER
 10
-6.627499
 20
-2.735105
 30
0.0
1001
AVE_RENDER
1002
{
1070
     0
1000
Quick Opt
1070
     0
1070
     1
1070
     1
1070
     1
1070
     0
1070
     0
1070
     1
1002
}
  0
CIRCLE
  5
65100
100
AcDbEntity
  8
0
100
AcDbCircle
 10
0.19121
 20
-1.9345
 30
0.0
 40
0.086
  0
CIRCLE
  5
65101
100
AcDbEntity
  8
0
100
AcDbCircle
 10
1.57121
 20
0.4255
 30
0.0
 40
0.086
  0
POLYLINE
  5
65102
100
AcDbEntity
  8
0
100
AcDb3dPolyline
 66
     1
 10
0.0
 20
0.0
 30
0.0
 70
     8
  0
VERTEX
  5
65103
100
AcDbEntity
  8
0
100
AcDbVertex
100
AcDb3dPolylineVertex
 10
0.94721
 20
-1.9685
 30
0.0
 70
    32
  0
VERTEX
  5
65104
100
AcDbEntity
  8
0
100
AcDbVertex
100
AcDb3dPolylineVertex
 10
0.94721
 20
-2.1035
 30
0.0
 70
    32
  0
VERTEX
  5
65105
100
AcDbEntity
  8
0
100
AcDbVertex
100
AcDb3dPolylineVertex
 10
1.157877
 20
-2.1035
 30
0.0
 70
    32
  0
VERTEX
  5
65106
100
AcDbEntity
  8
0
100
AcDbVertex
100
AcDb3dPolylineVertex
 10
1.157877
 20
-1.9685
 30
0.0
 70
    32
  0
SEQEND
  5
65107
100
AcDbEntity
  8
0
  0
POLYLINE
  5
65108
100
AcDbEntity
  8
0
100
AcDb3dPolyline
 66
     1
 10
0.0
 20
0.0
 30
0.0
 70
     8
  0
VERTEX
  5
65109
100
AcDbEntity
  8
0
100
AcDbVertex
100
AcDb3dPolylineVertex
 10
1.219877
 20
-1.9685
 30
0.0
 70
    32
  0
VERTEX
  5
6510A
100
AcDbEntity
  8
0
100
AcDbVertex
100
AcDb3dPolylineVertex
 10
1.219877
 20
-2.1035
 30
0.0
 70
    32
  0
VERTEX
  5
6510B
100
AcDbEntity
  8
0
100
AcDbVertex
100
AcDb3dPolylineVertex
 10
1.430544
 20
-2.1035
 30
0.0
 70
    32
  0
VERTEX
  5
6510C
100
AcDbEntity
  8
0
100
AcDbVertex
100
AcDb3dPolylineVertex
 10
1.430544
 20
-1.9685
 30
0.0
 70
    32
  0
SEQEND
  5
6510D
100
AcDbEntity
  8
0
  0
POLYLINE
  5
6510E
100
AcDbEntity
  8
0
100
AcDb3dPolyline
 66
     1
 10
0.0
 20
0.0
 30
0.0
 70
     8
  0
VERTEX
  5
6510F
100
AcDbEntity
  8
0
100
AcDbVertex
100
AcDb3dPolylineVertex
 10
1.492544
 20
-1.9685
 30
0.0
 70
    32
  0
VERTEX
  5
65110
100
AcDbEntity
  8
0
100
AcDbVertex
100
AcDb3dPolylineVertex
 10
1.492544
 20
-2.1035
 30
0.0
 70
    32
  0
VERTEX
  5
65111
100
AcDbEntity
  8
0
100
AcDbVertex
100
AcDb3dPolylineVertex
 10
1.70321
 20
-2.1035
 30
0.0
 70
    32
  0
VERTEX
  5
65112
100
AcDbEntity
  8
0
100
AcDbVertex
100
AcDb3dPolylineVertex
 10
1.70321
 20
-1.9685
 30
0.0
 70
    32
  0
SEQEND
  5
65113
100
AcDbEntity
  8
0
  0
POLYLINE
  5
65114
100
AcDbEntity
  8
0
100
AcDb3dPolyline
 66
     1
 10
0.0
 20
0.0
 30
0.0
 70
     8
  0
VERTEX
  5
65115
100
AcDbEntity
  8
0
100
AcDbVertex
100
AcDb3dPolylineVertex
 10
0.82321
 20
0.5215
 30
0.0
 70
    32
  0
VERTEX
  5
65116
100
AcDbEntity
  8
0
100
AcDbVertex
100
AcDb3dPolylineVertex
 10
0.82321
 20
0.6565
 30
0.0
 70
    32
  0
VERTEX
  5
65117
100
AcDbEntity
  8
0
100
AcDbVertex
100
AcDb3dPolylineVertex
 10
0.612544
 20
0.6565
 30
0.0
 70
    32
  0
VERTEX
  5
65118
100
AcDbEntity
  8
0
100
AcDbVertex
100
AcDb3dPolylineVertex
 10
0.612544
 20
0.5215
 30
0.0
 70
    32
  0
SEQEND
  5
65119
100
AcDbEntity
  8
0
  0
POLYLINE
  5
6511A
100
AcDbEntity
  8
0
100
AcDb3dPolyline
 66
     1
 10
0.0
 20
0.0
 30
0.0
 70
     8
  0
VERTEX
  5
6511B
100
AcDbEntity
  8
0
100
AcDbVertex
100
AcDb3dPolylineVertex
 10
0.550544
 20
0.5215
 30
0.0
 70
    32
  0
VERTEX
  5
6511C
100
AcDbEntity
  8
0
100
AcDbVertex
100
AcDb3dPolylineVertex
 10
0.550544
 20
0.6565
 30
0.0
 70
    32
  0
VERTEX
  5
6511D
100
AcDbEntity
  8
0
100
AcDbVertex
100
AcDb3dPolylineVertex
 10
0.339877
 20
0.6565
 30
0.0
 70
    32
  0
VERTEX
  5
6511E
100
AcDbEntity
  8
0
100
AcDbVertex
100
AcDb3dPolylineVertex
 10
0.339877
 20
0.5215
 30
0.0
 70
    32
  0
SEQEND
  5
6511F
100
AcDbEntity
  8
0
  0
POLYLINE
  5
65120
100
AcDbEntity
  8
0
100
AcDb3dPolyline
 66
     1
 10
0.0
 20
0.0
 30
0.0
 70
     8
  0
VERTEX
  5
65121
100
AcDbEntity
  8
0
100
AcDbVertex
100
AcDb3dPolylineVertex
 10
0.277877
 20
0.5215
 30
0.0
 70
    32
  0
VERTEX
  5
65122
100
AcDbEntity
  8
0
100
AcDbVertex
100
AcDb3dPolylineVertex
 10
0.277877
 20
0.6565
 30
0.0
 70
    32
  0
VERTEX
  5
65123
100
AcDbEntity
  8
0
100
AcDbVertex
100
AcDb3dPolylineVertex
 10
0.06721
 20
0.6565
 30
0.0
 70
    32
  0
VERTEX
  5
65124
100
AcDbEntity
  8
0
100
AcDbVertex
100
AcDb3dPolylineVertex
 10
0.06721
 20
0.5215
 30
0.0
 70
    32
  0
SEQEND
  5
65125
100
AcDbEntity
  8
0
  0
LINE
  5
65126
100
AcDbEntity
  8
0
100
AcDbLine
 10
1.70321
 20
-1.9685
 30
0.0
 11
1.492544
 21
-1.9685
 31
0.0
  0
LINE
  5
65127
100
AcDbEntity
  8
0
100
AcDbLine
 10
1.430544
 20
-1.9685
 30
0.0
 11
1.219877
 21
-1.9685
 31
0.0
  0
LINE
  5
65128
100
AcDbEntity
  8
0
100
AcDbLine
 10
1.157877
 20
-1.9685
 30
0.0
 11
0.94721
 21
-1.9685
 31
0.0
  0
LINE
  5
65129
100
AcDbEntity
  8
0
100
AcDbLine
 10
0.82321
 20
0.5215
 30
0.0
 11
0.612544
 21
0.5215
 31
0.0
  0
LINE
  5
6512A
100
AcDbEntity
  8
0
100
AcDbLine
 10
0.550544
 20
0.5215
 30
0.0
 11
0.339877
 21
0.5215
 31
0.0
  0
LINE
  5
6512B
100
AcDbEntity
  8
0
100
AcDbLine
 10
0.277877
 20
0.5215
 30
0.0
 11
0.06721
 21
0.5215
 31
0.0
  0
POLYLINE
  5
6512C
100
AcDbEntity
  8
0
100
AcDbPolygonMesh
 66
     1
 10
0.0
 20
0.0
 30
0.0
 70
    16
 71
     6
 72
     3
  0
VERTEX
  5
6512D
100
AcDbEntity
  8
0
100
AcDbVertex
100
AcDbPolygonMeshVertex
 10
0.90571
 20
-1.9855
 30
2.929
 70
    64
  0
VERTEX
  5
6512E
100
AcDbEntity
  8
0
100
AcDbVertex
100
AcDbPolygonMeshVertex
 10
0.90571
 20
-1.9855
 30
2.319
 70
    64
  0
VERTEX
  5
6512F
100
AcDbEntity
  8
0
100
AcDbVertex
100
AcDbPolygonMeshVertex
 10
0.90571
 20
-1.9855
 30
2.319
 70
    64
  0
VERTEX
  5
65130
100
AcDbEntity
  8
0
100
AcDbVertex
100
AcDbPolygonMeshVertex
 10
0.85971
 20
-1.9855
 30
2.929
 70
    64
  0
VERTEX
  5
65131
100
AcDbEntity
  8
0
100
AcDbVertex
100
AcDbPolygonMeshVertex
 10
0.85971
 20
-1.9855
 30
2.319
 70
    64
  0
VERTEX
  5
65132
100
AcDbEntity
  8
0
100
AcDbVertex
100
AcDbPolygonMeshVertex
 10
0.85971
 20
-1.9855
 30
2.319
 70
    64
  0
VERTEX
  5
65133
100
AcDbEntity
  8
0
100
AcDbVertex
100
AcDbPolygonMeshVertex
 10
0.85971
 20
-1.8455
 30
2.929
 70
    64
  0
VERTEX
  5
65134
100
AcDbEntity
  8
0
100
AcDbVertex
100
AcDbPolygonMeshVertex
 10
0.85971
 20
-1.8455
 30
2.319
 70
    64
  0
VERTEX
  5
65135
100
AcDbEntity
  8
0
100
AcDbVertex
100
AcDbPolygonMeshVertex
 10
0.85971
 20
-1.9855
 30
2.319
 70
    64
  0
VERTEX
  5
65136
100
AcDbEntity
  8
0
100
AcDbVertex
100
AcDbPolygonMeshVertex
 10
0.90571
 20
-1.8455
 30
2.929
 70
    64
  0
VERTEX
  5
65137
100
AcDbEntity
  8
0
100
AcDbVertex
100
AcDbPolygonMeshVertex
 10
0.90571
 20
-1.8455
 30
2.319
 70
    64
  0
VERTEX
  5
65138
100
AcDbEntity
  8
0
100
AcDbVertex
100
AcDbPolygonMeshVertex
 10
0.90571
 20
-1.9855
 30
2.319
 70
    64
  0
VERTEX
  5
65139
100
AcDbEntity
  8
0
100
AcDbVertex
100
AcDbPolygonMeshVertex
 10
0.90571
 20
-1.8455
 30
2.929
 70
    64
  0
VERTEX
  5
6513A
100
AcDbEntity
  8
0
100
AcDbVertex
100
AcDbPolygonMeshVertex
 10
0.90571
 20
-1.8455
 30
2.929
 70
    64
  0
VERTEX
  5
6513B
100
AcDbEntity
  8
0
100
AcDbVertex
100
AcDbPolygonMeshVertex
 10
0.90571
 20
-1.9855
 30
2.929
 70
    64
  0
VERTEX
  5
6513C
100
AcDbEntity
  8
0
100
AcDbVertex
100
AcDbPolygonMeshVertex
 10
0.85971
 20
-1.8455
 30
2.929
 70
    64
  0
VERTEX
  5
6513D
100
AcDbEntity
  8
0
100
AcDbVertex
100
AcDbPolygonMeshVertex
 10
0.85971
 20
-1.8455
 30
2.929
 70
    64
  0
VERTEX
  5
6513E
100
AcDbEntity
  8
0
100
AcDbVertex
100
AcDbPolygonMeshVertex
 10
0.85971
 20
-1.9855
 30
2.929
 70
    64
  0
SEQEND
  5
6513F
100
AcDbEntity
  8
0
  0
POLYLINE
  5
65140
100
AcDbEntity
  8
0
100
AcDbPolygonMesh
 66
     1
 10
0.0
 20
0.0
 30
0.0
 70
    16
 71
     6
 72
     3
  0
VERTEX
  5
65141
100
AcDbEntity
  8
0
100
AcDbVertex
100
AcDbPolygonMeshVertex
 10
1.33546
 20
-1.9855
 30
2.929
 70
    64
  0
VERTEX
  5
65142
100
AcDbEntity
  8
0
100
AcDbVertex
100
AcDbPolygonMeshVertex
 10
1.33546
 20
-1.9855
 30
2.319
 70
    64
  0
VERTEX
  5
65143
100
AcDbEntity
  8
0
100
AcDbVertex
100
AcDbPolygonMeshVertex
 10
1.33546
 20
-1.9855
 30
2.319
 70
    64
  0
VERTEX
  5
65144
100
AcDbEntity
  8
0
100
AcDbVertex
100
AcDbPolygonMeshVertex
 10
1.28946
 20
-1.9855
 30
2.929
 70
    64
  0
VERTEX
  5
65145
100
AcDbEntity
  8
0
100
AcDbVertex
100
AcDbPolygonMeshVertex
 10
1.28946
 20
-1.9855
 30
2.319
 70
    64
  0
VERTEX
  5
65146
100
AcDbEntity
  8
0
100
AcDbVertex
100
AcDbPolygonMeshVertex
 10
1.28946
 20
-1.9855
 30
2.319
 70
    64
  0
VERTEX
  5
65147
100
AcDbEntity
  8
0
100
AcDbVertex
100
AcDbPolygonMeshVertex
 10
1.28946
 20
-1.8455
 30
2.929
 70
    64
  0
VERTEX
  5
65148
100
AcDbEntity
  8
0
100
AcDbVertex
100
AcDbPolygonMeshVertex
 10
1.28946
 20
-1.8455
 30
2.319
 70
    64
  0
VERTEX
  5
65149
100
AcDbEntity
  8
0
100
AcDbVertex
100
AcDbPolygonMeshVertex
 10
1.28946
 20
-1.9855
 30
2.319
 70
    64
  0
VERTEX
  5
6514A
100
AcDbEntity
  8
0
100
AcDbVertex
100
AcDbPolygonMeshVertex
 10
1.33546
 20
-1.8455
 30
2.929
 70
    64
  0
VERTEX
  5
6514B
100
AcDbEntity
  8
0
100
AcDbVertex
100
AcDbPolygonMeshVertex
 10
1.33546
 20
-1.8455
 30
2.319
 70
    64
  0
VERTEX
  5
6514C
100
AcDbEntity
  8
0
100
AcDbVertex
100
AcDbPolygonMeshVertex
 10
1.33546
 20
-1.9855
 30
2.319
 70
    64
  0
VERTEX
  5
6514D
100
AcDbEntity
  8
0
100
AcDbVertex
100
AcDbPolygonMeshVertex
 10
1.33546
 20
-1.8455
 30
2.929
 70
    64
  0
VERTEX
  5
6514E
100
AcDbEntity
  8
0
100
AcDbVertex
100
AcDbPolygonMeshVertex
 10
1.33546
 20
-1.8455
 30
2.929
 70
    64
  0
VERTEX
  5
6514F
100
AcDbEntity
  8
0
100
AcDbVertex
100
AcDbPolygonMeshVertex
 10
1.33546
 20
-1.9855
 30
2.929
 70
    64
  0
VERTEX
  5
65150
100
AcDbEntity
  8
0
100
AcDbVertex
100
AcDbPolygonMeshVertex
 10
1.28946
 20
-1.8455
 30
2.929
 70
    64
  0
VERTEX
  5
65151
100
AcDbEntity
  8
0
100
AcDbVertex
100
AcDbPolygonMeshVertex
 10
1.28946
 20
-1.8455
 30
2.929
 70
    64
  0
VERTEX
  5
65152
100
AcDbEntity
  8
0
100
AcDbVertex
100
AcDbPolygonMeshVertex
 10
1.28946
 20
-1.9855
 30
2.929
 70
    64
  0
SEQEND
  5
65153
100
AcDbEntity
  8
0
  0
POLYLINE
  5
65154
100
AcDbEntity
  8
0
100
AcDbPolygonMesh
 66
     1
 10
0.0
 20
0.0
 30
0.0
 70
    16
 71
     6
 72
     3
  0
VERTEX
  5
65155
100
AcDbEntity
  8
0
100
AcDbVertex
100
AcDbPolygonMeshVertex
 10
1.71921
 20
-2.0575
 30
2.319
 70
    64
  0
VERTEX
  5
65156
100
AcDbEntity
  8
0
100
AcDbVertex
100
AcDbPolygonMeshVertex
 10
1.71921
 20
-2.0575
 30
2.06
 70
    64
  0
VERTEX
  5
65157
100
AcDbEntity
  8
0
100
AcDbVertex
100
AcDbPolygonMeshVertex
 10
1.71921
 20
-2.0575
 30
2.06
 70
    64
  0
VERTEX
  5
65158
100
AcDbEntity
  8
0
100
AcDbVertex
100
AcDbPolygonMeshVertex
 10
0.04621
 20
-2.0575
 30
2.319
 70
    64
  0
VERTEX
  5
65159
100
AcDbEntity
  8
0
100
AcDbVertex
100
AcDbPolygonMeshVertex
 10
0.04621
 20
-2.0575
 30
2.06
 70
    64
  0
VERTEX
  5
6515A
100
AcDbEntity
  8
0
100
AcDbVertex
100
AcDbPolygonMeshVertex
 10
0.04621
 20
-2.0575
 30
2.06
 70
    64
  0
VERTEX
  5
6515B
100
AcDbEntity
  8
0
100
AcDbVertex
100
AcDbPolygonMeshVertex
 10
0.04621
 20
-1.8455
 30
2.319
 70
    64
  0
VERTEX
  5
6515C
100
AcDbEntity
  8
0
100
AcDbVertex
100
AcDbPolygonMeshVertex
 10
0.04621
 20
-1.8455
 30
2.06
 70
    64
  0
VERTEX
  5
6515D
100
AcDbEntity
  8
0
100
AcDbVertex
100
AcDbPolygonMeshVertex
 10
0.04621
 20
-2.0575
 30
2.06
 70
    64
  0
VERTEX
  5
6515E
100
AcDbEntity
  8
0
100
AcDbVertex
100
AcDbPolygonMeshVertex
 10
1.71921
 20
-1.8455
 30
2.319
 70
    64
  0
VERTEX
  5
6515F
100
AcDbEntity
  8
0
100
AcDbVertex
100
AcDbPolygonMeshVertex
 10
1.71921
 20
-1.8455
 30
2.06
 70
    64
  0
VERTEX
  5
65160
100
AcDbEntity
  8
0
100
AcDbVertex
100
AcDbPolygonMeshVertex
 10
1.71921
 20
-2.0575
 30
2.06
 70
    64
  0
VERTEX
  5
65161
100
AcDbEntity
  8
0
100
AcDbVertex
100
AcDbPolygonMeshVertex
 10
1.71921
 20
-1.8455
 30
2.319
 70
    64
  0
VERTEX
  5
65162
100
AcDbEntity
  8
0
100
AcDbVertex
100
AcDbPolygonMeshVertex
 10
1.71921
 20
-1.8455
 30
2.319
 70
    64
  0
VERTEX
  5
65163
100
AcDbEntity
  8
0
100
AcDbVertex
100
AcDbPolygonMeshVertex
 10
1.71921
 20
-2.0575
 30
2.319
 70
    64
  0
VERTEX
  5
65164
100
AcDbEntity
  8
0
100
AcDbVertex
100
AcDbPolygonMeshVertex
 10
0.04621
 20
-1.8455
 30
2.319
 70
    64
  0
VERTEX
  5
65165
100
AcDbEntity
  8
0
100
AcDbVertex
100
AcDbPolygonMeshVertex
 10
0.04621
 20
-1.8455
 30
2.319
 70
    64
  0
VERTEX
  5
65166
100
AcDbEntity
  8
0
100
AcDbVertex
100
AcDbPolygonMeshVertex
 10
0.04621
 20
-2.0575
 30
2.319
 70
    64
  0
SEQEND
  5
65167
100
AcDbEntity
  8
0
  0
POLYLINE
  5
65168
100
AcDbEntity
  8
0
100
AcDbPolygonMesh
 66
     1
 10
0.0
 20
0.0
 30
0.0
 70
    16
 71
     6
 72
     3
  0
VERTEX
  5
65169
100
AcDbEntity
  8
0
100
AcDbVertex
100
AcDbPolygonMeshVertex
 10
1.76521
 20
-1.9685
 30
2.06
 70
    64
  0
VERTEX
  5
6516A
100
AcDbEntity
  8
0
100
AcDbVertex
100
AcDbPolygonMeshVertex
 10
1.76521
 20
-1.9685
 30
1.318
 70
    64
  0
VERTEX
  5
6516B
100
AcDbEntity
  8
0
100
AcDbVertex
100
AcDbPolygonMeshVertex
 10
1.76521
 20
-1.9685
 30
1.318
 70
    64
  0
VERTEX
  5
6516C
100
AcDbEntity
  8
0
100
AcDbVertex
100
AcDbPolygonMeshVertex
 10
0.00021
 20
-1.9685
 30
2.06
 70
    64
  0
VERTEX
  5
6516D
100
AcDbEntity
  8
0
100
AcDbVertex
100
AcDbPolygonMeshVertex
 10
0.00021
 20
-1.9685
 30
1.318
 70
    64
  0
VERTEX
  5
6516E
100
AcDbEntity
  8
0
100
AcDbVertex
100
AcDbPolygonMeshVertex
 10
0.00021
 20
-1.9685
 30
1.318
 70
    64
  0
VERTEX
  5
6516F
100
AcDbEntity
  8
0
100
AcDbVertex
100
AcDbPolygonMeshVertex
 10
0.00021
 20
0.5215
 30
2.06
 70
    64
  0
VERTEX
  5
65170
100
AcDbEntity
  8
0
100
AcDbVertex
100
AcDbPolygonMeshVertex
 10
0.00021
 20
0.5215
 30
1.318
 70
    64
  0
VERTEX
  5
65171
100
AcDbEntity
  8
0
100
AcDbVertex
100
AcDbPolygonMeshVertex
 10
0.00021
 20
-1.9685
 30
1.318
 70
    64
  0
VERTEX
  5
65172
100
AcDbEntity
  8
0
100
AcDbVertex
100
AcDbPolygonMeshVertex
 10
1.76521
 20
0.5215
 30
2.06
 70
    64
  0
VERTEX
  5
65173
100
AcDbEntity
  8
0
100
AcDbVertex
100
AcDbPolygonMeshVertex
 10
1.76521
 20
0.5215
 30
1.318
 70
    64
  0
VERTEX
  5
65174
100
AcDbEntity
  8
0
100
AcDbVertex
100
AcDbPolygonMeshVertex
 10
1.76521
 20
-1.9685
 30
1.318
 70
    64
  0
VERTEX
  5
65175
100
AcDbEntity
  8
0
100
AcDbVertex
100
AcDbPolygonMeshVertex
 10
1.76521
 20
0.5215
 30
2.06
 70
    64
  0
VERTEX
  5
65176
100
AcDbEntity
  8
0
100
AcDbVertex
100
AcDbPolygonMeshVertex
 10
1.76521
 20
0.5215
 30
2.06
 70
    64
  0
VERTEX
  5
65177
100
AcDbEntity
  8
0
100
AcDbVertex
100
AcDbPolygonMeshVertex
 10
1.76521
 20
-1.9685
 30
2.06
 70
    64
  0
VERTEX
  5
65178
100
AcDbEntity
  8
0
100
AcDbVertex
100
AcDbPolygonMeshVertex
 10
0.00021
 20
0.5215
 30
2.06
 70
    64
  0
VERTEX
  5
65179
100
AcDbEntity
  8
0
100
AcDbVertex
100
AcDbPolygonMeshVertex
 10
0.00021
 20
0.5215
 30
2.06
 70
    64
  0
VERTEX
  5
6517A
100
AcDbEntity
  8
0
100
AcDbVertex
100
AcDbPolygonMeshVertex
 10
0.00021
 20
-1.9685
 30
2.06
 70
    64
  0
SEQEND
  5
6517B
100
AcDbEntity
  8
0
  0
POLYLINE
  5
6517C
100
AcDbEntity
  8
0
100
AcDbPolygonMesh
 66
     1
 10
0.0
 20
0.0
 30
0.0
 70
    16
 71
     6
 72
     3
  0
VERTEX
  5
6517D
100
AcDbEntity
  8
0
100
AcDbVertex
100
AcDbPolygonMeshVertex
 10
0.42996
 20
-1.9855
 30
2.929
 70
    64
  0
VERTEX
  5
6517E
100
AcDbEntity
  8
0
100
AcDbVertex
100
AcDbPolygonMeshVertex
 10
0.42996
 20
-1.9855
 30
2.319
 70
    64
  0
VERTEX
  5
6517F
100
AcDbEntity
  8
0
100
AcDbVertex
100
AcDbPolygonMeshVertex
 10
0.42996
 20
-1.9855
 30
2.319
 70
    64
  0
VERTEX
  5
65180
100
AcDbEntity
  8
0
100
AcDbVertex
100
AcDbPolygonMeshVertex
 10
0.47596
 20
-1.9855
 30
2.929
 70
    64
  0
VERTEX
  5
65181
100
AcDbEntity
  8
0
100
AcDbVertex
100
AcDbPolygonMeshVertex
 10
0.47596
 20
-1.9855
 30
2.319
 70
    64
  0
VERTEX
  5
65182
100
AcDbEntity
  8
0
100
AcDbVertex
100
AcDbPolygonMeshVertex
 10
0.47596
 20
-1.9855
 30
2.319
 70
    64
  0
VERTEX
  5
65183
100
AcDbEntity
  8
0
100
AcDbVertex
100
AcDbPolygonMeshVertex
 10
0.47596
 20
-1.8455
 30
2.929
 70
    64
  0
VERTEX
  5
65184
100
AcDbEntity
  8
0
100
AcDbVertex
100
AcDbPolygonMeshVertex
 10
0.47596
 20
-1.8455
 30
2.319
 70
    64
  0
VERTEX
  5
65185
100
AcDbEntity
  8
0
100
AcDbVertex
100
AcDbPolygonMeshVertex
 10
0.47596
 20
-1.9855
 30
2.319
 70
    64
  0
VERTEX
  5
65186
100
AcDbEntity
  8
0
100
AcDbVertex
100
AcDbPolygonMeshVertex
 10
0.42996
 20
-1.8455
 30
2.929
 70
    64
  0
VERTEX
  5
65187
100
AcDbEntity
  8
0
100
AcDbVertex
100
AcDbPolygonMeshVertex
 10
0.42996
 20
-1.8455
 30
2.319
 70
    64
  0
VERTEX
  5
65188
100
AcDbEntity
  8
0
100
AcDbVertex
100
AcDbPolygonMeshVertex
 10
0.42996
 20
-1.9855
 30
2.319
 70
    64
  0
VERTEX
  5
65189
100
AcDbEntity
  8
0
100
AcDbVertex
100
AcDbPolygonMeshVertex
 10
0.42996
 20
-1.8455
 30
2.929
 70
    64
  0
VERTEX
  5
6518A
100
AcDbEntity
  8
0
100
AcDbVertex
100
AcDbPolygonMeshVertex
 10
0.42996
 20
-1.8455
 30
2.929
 70
    64
  0
VERTEX
  5
6518B
100
AcDbEntity
  8
0
100
AcDbVertex
100
AcDbPolygonMeshVertex
 10
0.42996
 20
-1.9855
 30
2.929
 70
    64
  0
VERTEX
  5
6518C
100
AcDbEntity
  8
0
100
AcDbVertex
100
AcDbPolygonMeshVertex
 10
0.47596
 20
-1.8455
 30
2.929
 70
    64
  0
VERTEX
  5
6518D
100
AcDbEntity
  8
0
100
AcDbVertex
100
AcDbPolygonMeshVertex
 10
0.47596
 20
-1.8455
 30
2.929
 70
    64
  0
VERTEX
  5
6518E
100
AcDbEntity
  8
0
100
AcDbVertex
100
AcDbPolygonMeshVertex
 10
0.47596
 20
-1.9855
 30
2.929
 70
    64
  0
SEQEND
  5
6518F
100
AcDbEntity
  8
0
  0
LINE
  5
65190
100
AcDbEntity
  8
0
100
AcDbLine
 10
0.90571
 20
-1.8455
 30
2.646
 11
1.28946
 21
-1.8455
 31
2.646
  0
LINE
  5
65191
100
AcDbEntity
  8
0
100
AcDbLine
 10
1.33546
 20
-1.8455
 30
2.646
 11
1.71921
 21
-1.8455
 31
2.646
  0
LINE
  5
65192
100
AcDbEntity
  8
0
100
AcDbLine
 10
0.47596
 20
-1.8455
 30
2.646
 11
0.85971
 21
-1.8455
 31
2.646
  0
LINE
  5
65193
100
AcDbEntity
  8
0
100
AcDbLine
 10
0.04621
 20
-1.8455
 30
2.646
 11
0.42996
 21
-1.8455
 31
2.646
  0
POLYLINE
  5
65194
100
AcDbEntity
  8
0
100
AcDbPolygonMesh
 66
     1
 10
0.0
 20
0.0
 30
0.0
 70
    16
 71
     6
 72
     3
  0
VERTEX
  5
65195
100
AcDbEntity
  8
0
100
AcDbVertex
100
AcDbPolygonMeshVertex
 10
0.04621
 20
-1.9855
 30
2.929
 70
    64
  0
VERTEX
  5
65196
100
AcDbEntity
  8
0
100
AcDbVertex
100
AcDbPolygonMeshVertex
 10
0.04621
 20
-1.9855
 30
2.06
 70
    64
  0
VERTEX
  5
65197
100
AcDbEntity
  8
0
100
AcDbVertex
100
AcDbPolygonMeshVertex
 10
0.04621
 20
-1.9855
 30
2.06
 70
    64
  0
VERTEX
  5
65198
100
AcDbEntity
  8
0
100
AcDbVertex
100
AcDbPolygonMeshVertex
 10
0.00021
 20
-1.9855
 30
2.929
 70
    64
  0
VERTEX
  5
65199
100
AcDbEntity
  8
0
100
AcDbVertex
100
AcDbPolygonMeshVertex
 10
0.00021
 20
-1.9855
 30
2.06
 70
    64
  0
VERTEX
  5
6519A
100
AcDbEntity
  8
0
100
AcDbVertex
100
AcDbPolygonMeshVertex
 10
0.00021
 20
-1.9855
 30
2.06
 70
    64
  0
VERTEX
  5
6519B
100
AcDbEntity
  8
0
100
AcDbVertex
100
AcDbPolygonMeshVertex
 10
0.00021
 20
-1.8455
 30
2.929
 70
    64
  0
VERTEX
  5
6519C
100
AcDbEntity
  8
0
100
AcDbVertex
100
AcDbPolygonMeshVertex
 10
0.00021
 20
-1.8455
 30
2.06
 70
    64
  0
VERTEX
  5
6519D
100
AcDbEntity
  8
0
100
AcDbVertex
100
AcDbPolygonMeshVertex
 10
0.00021
 20
-1.9855
 30
2.06
 70
    64
  0
VERTEX
  5
6519E
100
AcDbEntity
  8
0
100
AcDbVertex
100
AcDbPolygonMeshVertex
 10
0.04621
 20
-1.8455
 30
2.929
 70
    64
  0
VERTEX
  5
6519F
100
AcDbEntity
  8
0
100
AcDbVertex
100
AcDbPolygonMeshVertex
 10
0.04621
 20
-1.8455
 30
2.06
 70
    64
  0
VERTEX
  5
651A0
100
AcDbEntity
  8
0
100
AcDbVertex
100
AcDbPolygonMeshVertex
 10
0.04621
 20
-1.9855
 30
2.06
 70
    64
  0
VERTEX
  5
651A1
100
AcDbEntity
  8
0
100
AcDbVertex
100
AcDbPolygonMeshVertex
 10
0.04621
 20
-1.8455
 30
2.929
 70
    64
  0
VERTEX
  5
651A2
100
AcDbEntity
  8
0
100
AcDbVertex
100
AcDbPolygonMeshVertex
 10
0.04621
 20
-1.8455
 30
2.929
 70
    64
  0
VERTEX
  5
651A3
100
AcDbEntity
  8
0
100
AcDbVertex
100
AcDbPolygonMeshVertex
 10
0.04621
 20
-1.9855
 30
2.929
 70
    64
  0
VERTEX
  5
651A4
100
AcDbEntity
  8
0
100
AcDbVertex
100
AcDbPolygonMeshVertex
 10
0.00021
 20
-1.8455
 30
2.929
 70
    64
  0
VERTEX
  5
651A5
100
AcDbEntity
  8
0
100
AcDbVertex
100
AcDbPolygonMeshVertex
 10
0.00021
 20
-1.8455
 30
2.929
 70
    64
  0
VERTEX
  5
651A6
100
AcDbEntity
  8
0
100
AcDbVertex
100
AcDbPolygonMeshVertex
 10
0.00021
 20
-1.9855
 30
2.929
 70
    64
  0
SEQEND
  5
651A7
100
AcDbEntity
  8
0
  0
POLYLINE
  5
651A8
100
AcDbEntity
  8
0
100
AcDbPolygonMesh
 66
     1
 10
0.0
 20
0.0
 30
0.0
 70
    16
 71
     6
 72
     3
  0
VERTEX
  5
651A9
100
AcDbEntity
  8
0
100
AcDbVertex
100
AcDbPolygonMeshVertex
 10
1.76521
 20
-1.9855
 30
2.929
 70
    64
  0
VERTEX
  5
651AA
100
AcDbEntity
  8
0
100
AcDbVertex
100
AcDbPolygonMeshVertex
 10
1.76521
 20
-1.9855
 30
2.06
 70
    64
  0
VERTEX
  5
651AB
100
AcDbEntity
  8
0
100
AcDbVertex
100
AcDbPolygonMeshVertex
 10
1.76521
 20
-1.9855
 30
2.06
 70
    64
  0
VERTEX
  5
651AC
100
AcDbEntity
  8
0
100
AcDbVertex
100
AcDbPolygonMeshVertex
 10
1.71921
 20
-1.9855
 30
2.929
 70
    64
  0
VERTEX
  5
651AD
100
AcDbEntity
  8
0
100
AcDbVertex
100
AcDbPolygonMeshVertex
 10
1.71921
 20
-1.9855
 30
2.06
 70
    64
  0
VERTEX
  5
651AE
100
AcDbEntity
  8
0
100
AcDbVertex
100
AcDbPolygonMeshVertex
 10
1.71921
 20
-1.9855
 30
2.06
 70
    64
  0
VERTEX
  5
651AF
100
AcDbEntity
  8
0
100
AcDbVertex
100
AcDbPolygonMeshVertex
 10
1.71921
 20
-1.8455
 30
2.929
 70
    64
  0
VERTEX
  5
651B0
100
AcDbEntity
  8
0
100
AcDbVertex
100
AcDbPolygonMeshVertex
 10
1.71921
 20
-1.8455
 30
2.06
 70
    64
  0
VERTEX
  5
651B1
100
AcDbEntity
  8
0
100
AcDbVertex
100
AcDbPolygonMeshVertex
 10
1.71921
 20
-1.9855
 30
2.06
 70
    64
  0
VERTEX
  5
651B2
100
AcDbEntity
  8
0
100
AcDbVertex
100
AcDbPolygonMeshVertex
 10
1.76521
 20
-1.8455
 30
2.929
 70
    64
  0
VERTEX
  5
651B3
100
AcDbEntity
  8
0
100
AcDbVertex
100
AcDbPolygonMeshVertex
 10
1.76521
 20
-1.8455
 30
2.06
 70
    64
  0
VERTEX
  5
651B4
100
AcDbEntity
  8
0
100
AcDbVertex
100
AcDbPolygonMeshVertex
 10
1.76521
 20
-1.9855
 30
2.06
 70
    64
  0
VERTEX
  5
651B5
100
AcDbEntity
  8
0
100
AcDbVertex
100
AcDbPolygonMeshVertex
 10
1.76521
 20
-1.8455
 30
2.929
 70
    64
  0
VERTEX
  5
651B6
100
AcDbEntity
  8
0
100
AcDbVertex
100
AcDbPolygonMeshVertex
 10
1.76521
 20
-1.8455
 30
2.929
 70
    64
  0
VERTEX
  5
651B7
100
AcDbEntity
  8
0
100
AcDbVertex
100
AcDbPolygonMeshVertex
 10
1.76521
 20
-1.9855
 30
2.929
 70
    64
  0
VERTEX
  5
651B8
100
AcDbEntity
  8
0
100
AcDbVertex
100
AcDbPolygonMeshVertex
 10
1.71921
 20
-1.8455
 30
2.929
 70
    64
  0
VERTEX
  5
651B9
100
AcDbEntity
  8
0
100
AcDbVertex
100
AcDbPolygonMeshVertex
 10
1.71921
 20
-1.8455
 30
2.929
 70
    64
  0
VERTEX
  5
651BA
100
AcDbEntity
  8
0
100
AcDbVertex
100
AcDbPolygonMeshVertex
 10
1.71921
 20
-1.9855
 30
2.929
 70
    64
  0
SEQEND
  5
651BB
100
AcDbEntity
  8
0
  0
POLYLINE
  5
651BC
100
AcDbEntity
  8
0
100
AcDbPolygonMesh
 66
     1
 10
0.0
 20
0.0
 30
0.0
 70
    16
 71
     6
 72
     3
  0
VERTEX
  5
651BD
100
AcDbEntity
  8
0
100
AcDbVertex
100
AcDbPolygonMeshVertex
 10
1.76521
 20
0.5385
 30
2.929
 70
    64
  0
VERTEX
  5
651BE
100
AcDbEntity
  8
0
100
AcDbVertex
100
AcDbPolygonMeshVertex
 10
1.76521
 20
0.5385
 30
2.06
 70
    64
  0
VERTEX
  5
651BF
100
AcDbEntity
  8
0
100
AcDbVertex
100
AcDbPolygonMeshVertex
 10
1.76521
 20
0.5385
 30
2.06
 70
    64
  0
VERTEX
  5
651C0
100
AcDbEntity
  8
0
100
AcDbVertex
100
AcDbPolygonMeshVertex
 10
1.71921
 20
0.5385
 30
2.929
 70
    64
  0
VERTEX
  5
651C1
100
AcDbEntity
  8
0
100
AcDbVertex
100
AcDbPolygonMeshVertex
 10
1.71921
 20
0.5385
 30
2.06
 70
    64
  0
VERTEX
  5
651C2
100
AcDbEntity
  8
0
100
AcDbVertex
100
AcDbPolygonMeshVertex
 10
1.71921
 20
0.5385
 30
2.06
 70
    64
  0
VERTEX
  5
651C3
100
AcDbEntity
  8
0
100
AcDbVertex
100
AcDbPolygonMeshVertex
 10
1.71921
 20
0.3985
 30
2.929
 70
    64
  0
VERTEX
  5
651C4
100
AcDbEntity
  8
0
100
AcDbVertex
100
AcDbPolygonMeshVertex
 10
1.71921
 20
0.3985
 30
2.06
 70
    64
  0
VERTEX
  5
651C5
100
AcDbEntity
  8
0
100
AcDbVertex
100
AcDbPolygonMeshVertex
 10
1.71921
 20
0.5385
 30
2.06
 70
    64
  0
VERTEX
  5
651C6
100
AcDbEntity
  8
0
100
AcDbVertex
100
AcDbPolygonMeshVertex
 10
1.76521
 20
0.3985
 30
2.929
 70
    64
  0
VERTEX
  5
651C7
100
AcDbEntity
  8
0
100
AcDbVertex
100
AcDbPolygonMeshVertex
 10
1.76521
 20
0.3985
 30
2.06
 70
    64
  0
VERTEX
  5
651C8
100
AcDbEntity
  8
0
100
AcDbVertex
100
AcDbPolygonMeshVertex
 10
1.76521
 20
0.5385
 30
2.06
 70
    64
  0
VERTEX
  5
651C9
100
AcDbEntity
  8
0
100
AcDbVertex
100
AcDbPolygonMeshVertex
 10
1.76521
 20
0.3985
 30
2.929
 70
    64
  0
VERTEX
  5
651CA
100
AcDbEntity
  8
0
100
AcDbVertex
100
AcDbPolygonMeshVertex
 10
1.76521
 20
0.3985
 30
2.929
 70
    64
  0
VERTEX
  5
651CB
100
AcDbEntity
  8
0
100
AcDbVertex
100
AcDbPolygonMeshVertex
 10
1.76521
 20
0.5385
 30
2.929
 70
    64
  0
VERTEX
  5
651CC
100
AcDbEntity
  8
0
100
AcDbVertex
100
AcDbPolygonMeshVertex
 10
1.71921
 20
0.3985
 30
2.929
 70
    64
  0
VERTEX
  5
651CD
100
AcDbEntity
  8
0
100
AcDbVertex
100
AcDbPolygonMeshVertex
 10
1.71921
 20
0.3985
 30
2.929
 70
    64
  0
VERTEX
  5
651CE
100
AcDbEntity
  8
0
100
AcDbVertex
100
AcDbPolygonMeshVertex
 10
1.71921
 20
0.5385
 30
2.929
 70
    64
  0
SEQEND
  5
651CF
100
AcDbEntity
  8
0
  0
LINE
  5
651D0
100
AcDbEntity
  8
0
100
AcDbLine
 10
1.33546
 20
0.3985
 30
2.646
 11
1.71921
 21
0.3985
 31
2.646
  0
POLYLINE
  5
651D1
100
AcDbEntity
  8
0
100
AcDbPolygonMesh
 66
     1
 10
0.0
 20
0.0
 30
0.0
 70
    16
 71
     6
 72
     3
  0
VERTEX
  5
651D2
100
AcDbEntity
  8
0
100
AcDbVertex
100
AcDbPolygonMeshVertex
 10
1.33546
 20
0.5385
 30
2.929
 70
    64
  0
VERTEX
  5
651D3
100
AcDbEntity
  8
0
100
AcDbVertex
100
AcDbPolygonMeshVertex
 10
1.33546
 20
0.5385
 30
2.319
 70
    64
  0
VERTEX
  5
651D4
100
AcDbEntity
  8
0
100
AcDbVertex
100
AcDbPolygonMeshVertex
 10
1.33546
 20
0.5385
 30
2.319
 70
    64
  0
VERTEX
  5
651D5
100
AcDbEntity
  8
0
100
AcDbVertex
100
AcDbPolygonMeshVertex
 10
1.28946
 20
0.5385
 30
2.929
 70
    64
  0
VERTEX
  5
651D6
100
AcDbEntity
  8
0
100
AcDbVertex
100
AcDbPolygonMeshVertex
 10
1.28946
 20
0.5385
 30
2.319
 70
    64
  0
VERTEX
  5
651D7
100
AcDbEntity
  8
0
100
AcDbVertex
100
AcDbPolygonMeshVertex
 10
1.28946
 20
0.5385
 30
2.319
 70
    64
  0
VERTEX
  5
651D8
100
AcDbEntity
  8
0
100
AcDbVertex
100
AcDbPolygonMeshVertex
 10
1.28946
 20
0.3985
 30
2.929
 70
    64
  0
VERTEX
  5
651D9
100
AcDbEntity
  8
0
100
AcDbVertex
100
AcDbPolygonMeshVertex
 10
1.28946
 20
0.3985
 30
2.319
 70
    64
  0
VERTEX
  5
651DA
100
AcDbEntity
  8
0
100
AcDbVertex
100
AcDbPolygonMeshVertex
 10
1.28946
 20
0.5385
 30
2.319
 70
    64
  0
VERTEX
  5
651DB
100
AcDbEntity
  8
0
100
AcDbVertex
100
AcDbPolygonMeshVertex
 10
1.33546
 20
0.3985
 30
2.929
 70
    64
  0
VERTEX
  5
651DC
100
AcDbEntity
  8
0
100
AcDbVertex
100
AcDbPolygonMeshVertex
 10
1.33546
 20
0.3985
 30
2.319
 70
    64
  0
VERTEX
  5
651DD
100
AcDbEntity
  8
0
100
AcDbVertex
100
AcDbPolygonMeshVertex
 10
1.33546
 20
0.5385
 30
2.319
 70
    64
  0
VERTEX
  5
651DE
100
AcDbEntity
  8
0
100
AcDbVertex
100
AcDbPolygonMeshVertex
 10
1.33546
 20
0.3985
 30
2.929
 70
    64
  0
VERTEX
  5
651DF
100
AcDbEntity
  8
0
100
AcDbVertex
100
AcDbPolygonMeshVertex
 10
1.33546
 20
0.3985
 30
2.929
 70
    64
  0
VERTEX
  5
651E0
100
AcDbEntity
  8
0
100
AcDbVertex
100
AcDbPolygonMeshVertex
 10
1.33546
 20
0.5385
 30
2.929
 70
    64
  0
VERTEX
  5
651E1
100
AcDbEntity
  8
0
100
AcDbVertex
100
AcDbPolygonMeshVertex
 10
1.28946
 20
0.3985
 30
2.929
 70
    64
  0
VERTEX
  5
651E2
100
AcDbEntity
  8
0
100
AcDbVertex
100
AcDbPolygonMeshVertex
 10
1.28946
 20
0.3985
 30
2.929
 70
    64
  0
VERTEX
  5
651E3
100
AcDbEntity
  8
0
100
AcDbVertex
100
AcDbPolygonMeshVertex
 10
1.28946
 20
0.5385
 30
2.929
 70
    64
  0
SEQEND
  5
651E4
100
AcDbEntity
  8
0
  0
LINE
  5
651E5
100
AcDbEntity
  8
0
100
AcDbLine
 10
0.90571
 20
0.3985
 30
2.646
 11
1.28946
 21
0.3985
 31
2.646
  0
POLYLINE
  5
651E6
100
AcDbEntity
  8
0
100
AcDbPolygonMesh
 66
     1
 10
0.0
 20
0.0
 30
0.0
 70
    16
 71
     6
 72
     3
  0
VERTEX
  5
651E7
100
AcDbEntity
  8
0
100
AcDbVertex
100
AcDbPolygonMeshVertex
 10
0.90571
 20
0.5385
 30
2.929
 70
    64
  0
VERTEX
  5
651E8
100
AcDbEntity
  8
0
100
AcDbVertex
100
AcDbPolygonMeshVertex
 10
0.90571
 20
0.5385
 30
2.319
 70
    64
  0
VERTEX
  5
651E9
100
AcDbEntity
  8
0
100
AcDbVertex
100
AcDbPolygonMeshVertex
 10
0.90571
 20
0.5385
 30
2.319
 70
    64
  0
VERTEX
  5
651EA
100
AcDbEntity
  8
0
100
AcDbVertex
100
AcDbPolygonMeshVertex
 10
0.85971
 20
0.5385
 30
2.929
 70
    64
  0
VERTEX
  5
651EB
100
AcDbEntity
  8
0
100
AcDbVertex
100
AcDbPolygonMeshVertex
 10
0.85971
 20
0.5385
 30
2.319
 70
    64
  0
VERTEX
  5
651EC
100
AcDbEntity
  8
0
100
AcDbVertex
100
AcDbPolygonMeshVertex
 10
0.85971
 20
0.5385
 30
2.319
 70
    64
  0
VERTEX
  5
651ED
100
AcDbEntity
  8
0
100
AcDbVertex
100
AcDbPolygonMeshVertex
 10
0.85971
 20
0.3985
 30
2.929
 70
    64
  0
VERTEX
  5
651EE
100
AcDbEntity
  8
0
100
AcDbVertex
100
AcDbPolygonMeshVertex
 10
0.85971
 20
0.3985
 30
2.319
 70
    64
  0
VERTEX
  5
651EF
100
AcDbEntity
  8
0
100
AcDbVertex
100
AcDbPolygonMeshVertex
 10
0.85971
 20
0.5385
 30
2.319
 70
    64
  0
VERTEX
  5
651F0
100
AcDbEntity
  8
0
100
AcDbVertex
100
AcDbPolygonMeshVertex
 10
0.90571
 20
0.3985
 30
2.929
 70
    64
  0
VERTEX
  5
651F1
100
AcDbEntity
  8
0
100
AcDbVertex
100
AcDbPolygonMeshVertex
 10
0.90571
 20
0.3985
 30
2.319
 70
    64
  0
VERTEX
  5
651F2
100
AcDbEntity
  8
0
100
AcDbVertex
100
AcDbPolygonMeshVertex
 10
0.90571
 20
0.5385
 30
2.319
 70
    64
  0
VERTEX
  5
651F3
100
AcDbEntity
  8
0
100
AcDbVertex
100
AcDbPolygonMeshVertex
 10
0.90571
 20
0.3985
 30
2.929
 70
    64
  0
VERTEX
  5
651F4
100
AcDbEntity
  8
0
100
AcDbVertex
100
AcDbPolygonMeshVertex
 10
0.90571
 20
0.3985
 30
2.929
 70
    64
  0
VERTEX
  5
651F5
100
AcDbEntity
  8
0
100
AcDbVertex
100
AcDbPolygonMeshVertex
 10
0.90571
 20
0.5385
 30
2.929
 70
    64
  0
VERTEX
  5
651F6
100
AcDbEntity
  8
0
100
AcDbVertex
100
AcDbPolygonMeshVertex
 10
0.85971
 20
0.3985
 30
2.929
 70
    64
  0
VERTEX
  5
651F7
100
AcDbEntity
  8
0
100
AcDbVertex
100
AcDbPolygonMeshVertex
 10
0.85971
 20
0.3985
 30
2.929
 70
    64
  0
VERTEX
  5
651F8
100
AcDbEntity
  8
0
100
AcDbVertex
100
AcDbPolygonMeshVertex
 10
0.85971
 20
0.5385
 30
2.929
 70
    64
  0
SEQEND
  5
651F9
100
AcDbEntity
  8
0
  0
POLYLINE
  5
651FA
100
AcDbEntity
  8
0
100
AcDbPolygonMesh
 66
     1
 10
0.0
 20
0.0
 30
0.0
 70
    16
 71
     6
 72
     3
  0
VERTEX
  5
651FB
100
AcDbEntity
  8
0
100
AcDbVertex
100
AcDbPolygonMeshVertex
 10
0.42996
 20
0.5385
 30
2.929
 70
    64
  0
VERTEX
  5
651FC
100
AcDbEntity
  8
0
100
AcDbVertex
100
AcDbPolygonMeshVertex
 10
0.42996
 20
0.5385
 30
2.319
 70
    64
  0
VERTEX
  5
651FD
100
AcDbEntity
  8
0
100
AcDbVertex
100
AcDbPolygonMeshVertex
 10
0.42996
 20
0.5385
 30
2.319
 70
    64
  0
VERTEX
  5
651FE
100
AcDbEntity
  8
0
100
AcDbVertex
100
AcDbPolygonMeshVertex
 10
0.47596
 20
0.5385
 30
2.929
 70
    64
  0
VERTEX
  5
651FF
100
AcDbEntity
  8
0
100
AcDbVertex
100
AcDbPolygonMeshVertex
 10
0.47596
 20
0.5385
 30
2.319
 70
    64
  0
VERTEX
  5
65200
100
AcDbEntity
  8
0
100
AcDbVertex
100
AcDbPolygonMeshVertex
 10
0.47596
 20
0.5385
 30
2.319
 70
    64
  0
VERTEX
  5
65201
100
AcDbEntity
  8
0
100
AcDbVertex
100
AcDbPolygonMeshVertex
 10
0.47596
 20
0.3985
 30
2.929
 70
    64
  0
VERTEX
  5
65202
100
AcDbEntity
  8
0
100
AcDbVertex
100
AcDbPolygonMeshVertex
 10
0.47596
 20
0.3985
 30
2.319
 70
    64
  0
VERTEX
  5
65203
100
AcDbEntity
  8
0
100
AcDbVertex
100
AcDbPolygonMeshVertex
 10
0.47596
 20
0.5385
 30
2.319
 70
    64
  0
VERTEX
  5
65204
100
AcDbEntity
  8
0
100
AcDbVertex
100
AcDbPolygonMeshVertex
 10
0.42996
 20
0.3985
 30
2.929
 70
    64
  0
VERTEX
  5
65205
100
AcDbEntity
  8
0
100
AcDbVertex
100
AcDbPolygonMeshVertex
 10
0.42996
 20
0.3985
 30
2.319
 70
    64
  0
VERTEX
  5
65206
100
AcDbEntity
  8
0
100
AcDbVertex
100
AcDbPolygonMeshVertex
 10
0.42996
 20
0.5385
 30
2.319
 70
    64
  0
VERTEX
  5
65207
100
AcDbEntity
  8
0
100
AcDbVertex
100
AcDbPolygonMeshVertex
 10
0.42996
 20
0.3985
 30
2.929
 70
    64
  0
VERTEX
  5
65208
100
AcDbEntity
  8
0
100
AcDbVertex
100
AcDbPolygonMeshVertex
 10
0.42996
 20
0.3985
 30
2.929
 70
    64
  0
VERTEX
  5
65209
100
AcDbEntity
  8
0
100
AcDbVertex
100
AcDbPolygonMeshVertex
 10
0.42996
 20
0.5385
 30
2.929
 70
    64
  0
VERTEX
  5
6520A
100
AcDbEntity
  8
0
100
AcDbVertex
100
AcDbPolygonMeshVertex
 10
0.47596
 20
0.3985
 30
2.929
 70
    64
  0
VERTEX
  5
6520B
100
AcDbEntity
  8
0
100
AcDbVertex
100
AcDbPolygonMeshVertex
 10
0.47596
 20
0.3985
 30
2.929
 70
    64
  0
VERTEX
  5
6520C
100
AcDbEntity
  8
0
100
AcDbVertex
100
AcDbPolygonMeshVertex
 10
0.47596
 20
0.5385
 30
2.929
 70
    64
  0
SEQEND
  5
6520D
100
AcDbEntity
  8
0
  0
LINE
  5
6520E
100
AcDbEntity
  8
0
100
AcDbLine
 10
0.04621
 20
0.3985
 30
2.646
 11
0.42996
 21
0.3985
 31
2.646
  0
LINE
  5
6520F
100
AcDbEntity
  8
0
100
AcDbLine
 10
0.47596
 20
0.3985
 30
2.646
 11
0.85971
 21
0.3985
 31
2.646
  0
POLYLINE
  5
65210
100
AcDbEntity
  8
0
100
AcDbPolygonMesh
 66
     1
 10
0.0
 20
0.0
 30
0.0
 70
    16
 71
     6
 72
     3
  0
VERTEX
  5
65211
100
AcDbEntity
  8
0
100
AcDbVertex
100
AcDbPolygonMeshVertex
 10
0.04621
 20
0.5385
 30
2.929
 70
    64
  0
VERTEX
  5
65212
100
AcDbEntity
  8
0
100
AcDbVertex
100
AcDbPolygonMeshVertex
 10
0.04621
 20
0.5385
 30
2.06
 70
    64
  0
VERTEX
  5
65213
100
AcDbEntity
  8
0
100
AcDbVertex
100
AcDbPolygonMeshVertex
 10
0.04621
 20
0.5385
 30
2.06
 70
    64
  0
VERTEX
  5
65214
100
AcDbEntity
  8
0
100
AcDbVertex
100
AcDbPolygonMeshVertex
 10
0.00021
 20
0.5385
 30
2.929
 70
    64
  0
VERTEX
  5
65215
100
AcDbEntity
  8
0
100
AcDbVertex
100
AcDbPolygonMeshVertex
 10
0.00021
 20
0.5385
 30
2.06
 70
    64
  0
VERTEX
  5
65216
100
AcDbEntity
  8
0
100
AcDbVertex
100
AcDbPolygonMeshVertex
 10
0.00021
 20
0.5385
 30
2.06
 70
    64
  0
VERTEX
  5
65217
100
AcDbEntity
  8
0
100
AcDbVertex
100
AcDbPolygonMeshVertex
 10
0.00021
 20
0.3985
 30
2.929
 70
    64
  0
VERTEX
  5
65218
100
AcDbEntity
  8
0
100
AcDbVertex
100
AcDbPolygonMeshVertex
 10
0.00021
 20
0.3985
 30
2.06
 70
    64
  0
VERTEX
  5
65219
100
AcDbEntity
  8
0
100
AcDbVertex
100
AcDbPolygonMeshVertex
 10
0.00021
 20
0.5385
 30
2.06
 70
    64
  0
VERTEX
  5
6521A
100
AcDbEntity
  8
0
100
AcDbVertex
100
AcDbPolygonMeshVertex
 10
0.04621
 20
0.3985
 30
2.929
 70
    64
  0
VERTEX
  5
6521B
100
AcDbEntity
  8
0
100
AcDbVertex
100
AcDbPolygonMeshVertex
 10
0.04621
 20
0.3985
 30
2.06
 70
    64
  0
VERTEX
  5
6521C
100
AcDbEntity
  8
0
100
AcDbVertex
100
AcDbPolygonMeshVertex
 10
0.04621
 20
0.5385
 30
2.06
 70
    64
  0
VERTEX
  5
6521D
100
AcDbEntity
  8
0
100
AcDbVertex
100
AcDbPolygonMeshVertex
 10
0.04621
 20
0.3985
 30
2.929
 70
    64
  0
VERTEX
  5
6521E
100
AcDbEntity
  8
0
100
AcDbVertex
100
AcDbPolygonMeshVertex
 10
0.04621
 20
0.3985
 30
2.929
 70
    64
  0
VERTEX
  5
6521F
100
AcDbEntity
  8
0
100
AcDbVertex
100
AcDbPolygonMeshVertex
 10
0.04621
 20
0.5385
 30
2.929
 70
    64
  0
VERTEX
  5
65220
100
AcDbEntity
  8
0
100
AcDbVertex
100
AcDbPolygonMeshVertex
 10
0.00021
 20
0.3985
 30
2.929
 70
    64
  0
VERTEX
  5
65221
100
AcDbEntity
  8
0
100
AcDbVertex
100
AcDbPolygonMeshVertex
 10
0.00021
 20
0.3985
 30
2.929
 70
    64
  0
VERTEX
  5
65222
100
AcDbEntity
  8
0
100
AcDbVertex
100
AcDbPolygonMeshVertex
 10
0.00021
 20
0.5385
 30
2.929
 70
    64
  0
SEQEND
  5
65223
100
AcDbEntity
  8
0
  0
POLYLINE
  5
65224
100
AcDbEntity
  8
0
100
AcDbPolygonMesh
 66
     1
 10
0.0
 20
0.0
 30
0.0
 70
    16
 71
     6
 72
     3
  0
VERTEX
  5
65225
100
AcDbEntity
  8
0
100
AcDbVertex
100
AcDbPolygonMeshVertex
 10
1.71921
 20
0.6105
 30
2.319
 70
    64
  0
VERTEX
  5
65226
100
AcDbEntity
  8
0
100
AcDbVertex
100
AcDbPolygonMeshVertex
 10
1.71921
 20
0.6105
 30
2.06
 70
    64
  0
VERTEX
  5
65227
100
AcDbEntity
  8
0
100
AcDbVertex
100
AcDbPolygonMeshVertex
 10
1.71921
 20
0.6105
 30
2.06
 70
    64
  0
VERTEX
  5
65228
100
AcDbEntity
  8
0
100
AcDbVertex
100
AcDbPolygonMeshVertex
 10
0.04621
 20
0.6105
 30
2.319
 70
    64
  0
VERTEX
  5
65229
100
AcDbEntity
  8
0
100
AcDbVertex
100
AcDbPolygonMeshVertex
 10
0.04621
 20
0.6105
 30
2.06
 70
    64
  0
VERTEX
  5
6522A
100
AcDbEntity
  8
0
100
AcDbVertex
100
AcDbPolygonMeshVertex
 10
0.04621
 20
0.6105
 30
2.06
 70
    64
  0
VERTEX
  5
6522B
100
AcDbEntity
  8
0
100
AcDbVertex
100
AcDbPolygonMeshVertex
 10
0.04621
 20
0.3985
 30
2.319
 70
    64
  0
VERTEX
  5
6522C
100
AcDbEntity
  8
0
100
AcDbVertex
100
AcDbPolygonMeshVertex
 10
0.04621
 20
0.3985
 30
2.06
 70
    64
  0
VERTEX
  5
6522D
100
AcDbEntity
  8
0
100
AcDbVertex
100
AcDbPolygonMeshVertex
 10
0.04621
 20
0.6105
 30
2.06
 70
    64
  0
VERTEX
  5
6522E
100
AcDbEntity
  8
0
100
AcDbVertex
100
AcDbPolygonMeshVertex
 10
1.71921
 20
0.3985
 30
2.319
 70
    64
  0
VERTEX
  5
6522F
100
AcDbEntity
  8
0
100
AcDbVertex
100
AcDbPolygonMeshVertex
 10
1.71921
 20
0.3985
 30
2.06
 70
    64
  0
VERTEX
  5
65230
100
AcDbEntity
  8
0
100
AcDbVertex
100
AcDbPolygonMeshVertex
 10
1.71921
 20
0.6105
 30
2.06
 70
    64
  0
VERTEX
  5
65231
100
AcDbEntity
  8
0
100
AcDbVertex
100
AcDbPolygonMeshVertex
 10
1.71921
 20
0.3985
 30
2.319
 70
    64
  0
VERTEX
  5
65232
100
AcDbEntity
  8
0
100
AcDbVertex
100
AcDbPolygonMeshVertex
 10
1.71921
 20
0.3985
 30
2.319
 70
    64
  0
VERTEX
  5
65233
100
AcDbEntity
  8
0
100
AcDbVertex
100
AcDbPolygonMeshVertex
 10
1.71921
 20
0.6105
 30
2.319
 70
    64
  0
VERTEX
  5
65234
100
AcDbEntity
  8
0
100
AcDbVertex
100
AcDbPolygonMeshVertex
 10
0.04621
 20
0.3985
 30
2.319
 70
    64
  0
VERTEX
  5
65235
100
AcDbEntity
  8
0
100
AcDbVertex
100
AcDbPolygonMeshVertex
 10
0.04621
 20
0.3985
 30
2.319
 70
    64
  0
VERTEX
  5
65236
100
AcDbEntity
  8
0
100
AcDbVertex
100
AcDbPolygonMeshVertex
 10
0.04621
 20
0.6105
 30
2.319
 70
    64
  0
SEQEND
  5
65237
100
AcDbEntity
  8
0
  0
TEXT
  5
65238
100
AcDbEntity
  8
0
100
AcDbText
 39
0.0
 10
0.364847
 20
0.854582
 30
2.06
 40
0.083465
  1
A1
100
AcDbText
  0
TEXT
  5
65239
100
AcDbEntity
  8
0
100
AcDbText
 39
0.0
 10
1.285828
 20
0.853741
 30
2.06
 40
0.083465
  1
A2
100
AcDbText
  0
LINE
  5
6523A
100
AcDbEntity
  8
0
100
AcDbLine
 10
0.652934
 20
-1.9685
 30
0.0
 11
0.8636
 21
-1.9685
 31
0.0
  0
POLYLINE
  5
6523B
100
AcDbEntity
  8
0
100
AcDb3dPolyline
 66
     1
 10
0.0
 20
0.0
 30
0.0
 70
     8
  0
VERTEX
  5
6523C
100
AcDbEntity
  8
0
100
AcDbVertex
100
AcDb3dPolylineVertex
 10
0.652934
 20
-1.9685
 30
0.0
 70
    32
  0
VERTEX
  5
6523D
100
AcDbEntity
  8
0
100
AcDbVertex
100
AcDb3dPolylineVertex
 10
0.652934
 20
-2.1035
 30
0.0
 70
    32
  0
VERTEX
  5
6523E
100
AcDbEntity
  8
0
100
AcDbVertex
100
AcDb3dPolylineVertex
 10
0.8636
 20
-2.1035
 30
0.0
 70
    32
  0
VERTEX
  5
6523F
100
AcDbEntity
  8
0
100
AcDbVertex
100
AcDb3dPolylineVertex
 10
0.8636
 20
-1.9685
 30
0.0
 70
    32
  0
SEQEND
  5
65240
100
AcDbEntity
  8
0
  0
POLYLINE
  5
65241
100
AcDbEntity
  8
0
100
AcDb3dPolyline
 66
     1
 10
0.0
 20
0.0
 30
0.0
 70
     8
  0
VERTEX
  5
65242
100
AcDbEntity
  8
0
100
AcDbVertex
100
AcDb3dPolylineVertex
 10
0.581143
 20
-1.9685
 30
0.187
 70
    32
  0
VERTEX
  5
65243
100
AcDbEntity
  8
0
100
AcDbVertex
100
AcDb3dPolylineVertex
 10
0.581143
 20
-2.1035
 30
0.187
 70
    32
  0
VERTEX
  5
65244
100
AcDbEntity
  8
0
100
AcDbVertex
100
AcDb3dPolylineVertex
 10
0.79181
 20
-2.1035
 30
0.187
 70
    32
  0
VERTEX
  5
65245
100
AcDbEntity
  8
0
100
AcDbVertex
100
AcDb3dPolylineVertex
 10
0.79181
 20
-1.9685
 30
0.187
 70
    32
  0
SEQEND
  5
65246
100
AcDbEntity
  8
0
  0
POLYLINE
  5
65247
100
AcDbEntity
  8
0
100
AcDbPolygonMesh
 66
     1
 10
0.0
 20
0.0
 30
0.0
 70
    16
 71
     6
 72
     3
  0
VERTEX
  5
65248
100
AcDbEntity
  8
0
100
AcDbVertex
100
AcDbPolygonMeshVertex
 10
0.85381
 20
-2.1655
 30
0.187
 70
    64
  0
VERTEX
  5
65249
100
AcDbEntity
  8
0
100
AcDbVertex
100
AcDbPolygonMeshVertex
 10
0.85381
 20
-2.1655
 30
0.0
 70
    64
  0
VERTEX
  5
6524A
100
AcDbEntity
  8
0
100
AcDbVertex
100
AcDbPolygonMeshVertex
 10
0.85381
 20
-2.1655
 30
0.0
 70
    64
  0
VERTEX
  5
6524B
100
AcDbEntity
  8
0
100
AcDbVertex
100
AcDbPolygonMeshVertex
 10
0.246476
 20
-2.1655
 30
0.187
 70
    64
  0
VERTEX
  5
6524C
100
AcDbEntity
  8
0
100
AcDbVertex
100
AcDbPolygonMeshVertex
 10
0.246476
 20
-2.1655
 30
0.0
 70
    64
  0
VERTEX
  5
6524D
100
AcDbEntity
  8
0
100
AcDbVertex
100
AcDbPolygonMeshVertex
 10
0.246476
 20
-2.1655
 30
0.0
 70
    64
  0
VERTEX
  5
6524E
100
AcDbEntity
  8
0
100
AcDbVertex
100
AcDbPolygonMeshVertex
 10
0.246476
 20
-2.1035
 30
0.187
 70
    64
  0
VERTEX
  5
6524F
100
AcDbEntity
  8
0
100
AcDbVertex
100
AcDbPolygonMeshVertex
 10
0.246476
 20
-2.1035
 30
0.0
 70
    64
  0
VERTEX
  5
65250
100
AcDbEntity
  8
0
100
AcDbVertex
100
AcDbPolygonMeshVertex
 10
0.246476
 20
-2.1655
 30
0.0
 70
    64
  0
VERTEX
  5
65251
100
AcDbEntity
  8
0
100
AcDbVertex
100
AcDbPolygonMeshVertex
 10
0.85381
 20
-2.1035
 30
0.187
 70
    64
  0
VERTEX
  5
65252
100
AcDbEntity
  8
0
100
AcDbVertex
100
AcDbPolygonMeshVertex
 10
0.85381
 20
-2.1035
 30
0.0
 70
    64
  0
VERTEX
  5
65253
100
AcDbEntity
  8
0
100
AcDbVertex
100
AcDbPolygonMeshVertex
 10
0.85381
 20
-2.1655
 30
0.0
 70
    64
  0
VERTEX
  5
65254
100
AcDbEntity
  8
0
100
AcDbVertex
100
AcDbPolygonMeshVertex
 10
0.85381
 20
-2.1035
 30
0.187
 70
    64
  0
VERTEX
  5
65255
100
AcDbEntity
  8
0
100
AcDbVertex
100
AcDbPolygonMeshVertex
 10
0.85381
 20
-2.1035
 30
0.187
 70
    64
  0
VERTEX
  5
65256
100
AcDbEntity
  8
0
100
AcDbVertex
100
AcDbPolygonMeshVertex
 10
0.85381
 20
-2.1655
 30
0.187
 70
    64
  0
VERTEX
  5
65257
100
AcDbEntity
  8
0
100
AcDbVertex
100
AcDbPolygonMeshVertex
 10
0.246476
 20
-2.1035
 30
0.187
 70
    64
  0
VERTEX
  5
65258
100
AcDbEntity
  8
0
100
AcDbVertex
100
AcDbPolygonMeshVertex
 10
0.246476
 20
-2.1035
 30
0.187
 70
    64
  0
VERTEX
  5
65259
100
AcDbEntity
  8
0
100
AcDbVertex
100
AcDbPolygonMeshVertex
 10
0.246476
 20
-2.1655
 30
0.187
 70
    64
  0
SEQEND
  5
6525A
100
AcDbEntity
  8
0
  0
POLYLINE
  5
6525B
100
AcDbEntity
  8
0
100
AcDbPolygonMesh
 66
     1
 10
0.0
 20
0.0
 30
0.0
 70
    16
 71
     6
 72
     3
  0
VERTEX
  5
6525C
100
AcDbEntity
  8
0
100
AcDbVertex
100
AcDbPolygonMeshVertex
 10
0.85381
 20
-2.1035
 30
0.187
 70
    64
  0
VERTEX
  5
6525D
100
AcDbEntity
  8
0
100
AcDbVertex
100
AcDbPolygonMeshVertex
 10
0.85381
 20
-2.1035
 30
0.0
 70
    64
  0
VERTEX
  5
6525E
100
AcDbEntity
  8
0
100
AcDbVertex
100
AcDbPolygonMeshVertex
 10
0.85381
 20
-2.1035
 30
0.0
 70
    64
  0
VERTEX
  5
6525F
100
AcDbEntity
  8
0
100
AcDbVertex
100
AcDbPolygonMeshVertex
 10
0.519143
 20
-2.1035
 30
0.187
 70
    64
  0
VERTEX
  5
65260
100
AcDbEntity
  8
0
100
AcDbVertex
100
AcDbPolygonMeshVertex
 10
0.519143
 20
-2.1035
 30
0.0
 70
    64
  0
VERTEX
  5
65261
100
AcDbEntity
  8
0
100
AcDbVertex
100
AcDbPolygonMeshVertex
 10
0.519143
 20
-2.1035
 30
0.0
 70
    64
  0
VERTEX
  5
65262
100
AcDbEntity
  8
0
100
AcDbVertex
100
AcDbPolygonMeshVertex
 10
0.519143
 20
-1.9065
 30
0.187
 70
    64
  0
VERTEX
  5
65263
100
AcDbEntity
  8
0
100
AcDbVertex
100
AcDbPolygonMeshVertex
 10
0.519143
 20
-1.9065
 30
0.0
 70
    64
  0
VERTEX
  5
65264
100
AcDbEntity
  8
0
100
AcDbVertex
100
AcDbPolygonMeshVertex
 10
0.519143
 20
-2.1035
 30
0.0
 70
    64
  0
VERTEX
  5
65265
100
AcDbEntity
  8
0
100
AcDbVertex
100
AcDbPolygonMeshVertex
 10
0.85381
 20
-1.9065
 30
0.187
 70
    64
  0
VERTEX
  5
65266
100
AcDbEntity
  8
0
100
AcDbVertex
100
AcDbPolygonMeshVertex
 10
0.85381
 20
-1.9065
 30
0.0
 70
    64
  0
VERTEX
  5
65267
100
AcDbEntity
  8
0
100
AcDbVertex
100
AcDbPolygonMeshVertex
 10
0.85381
 20
-2.1035
 30
0.0
 70
    64
  0
VERTEX
  5
65268
100
AcDbEntity
  8
0
100
AcDbVertex
100
AcDbPolygonMeshVertex
 10
0.85381
 20
-1.9065
 30
0.187
 70
    64
  0
VERTEX
  5
65269
100
AcDbEntity
  8
0
100
AcDbVertex
100
AcDbPolygonMeshVertex
 10
0.85381
 20
-1.9065
 30
0.187
 70
    64
  0
VERTEX
  5
6526A
100
AcDbEntity
  8
0
100
AcDbVertex
100
AcDbPolygonMeshVertex
 10
0.85381
 20
-2.1035
 30
0.187
 70
    64
  0
VERTEX
  5
6526B
100
AcDbEntity
  8
0
100
AcDbVertex
100
AcDbPolygonMeshVertex
 10
0.519143
 20
-1.9065
 30
0.187
 70
    64
  0
VERTEX
  5
6526C
100
AcDbEntity
  8
0
100
AcDbVertex
100
AcDbPolygonMeshVertex
 10
0.519143
 20
-1.9065
 30
0.187
 70
    64
  0
VERTEX
  5
6526D
100
AcDbEntity
  8
0
100
AcDbVertex
100
AcDbPolygonMeshVertex
 10
0.519143
 20
-2.1035
 30
0.187
 70
    64
  0
SEQEND
  5
6526E
100
AcDbEntity
  8
0
  0
LINE
  5
6526F
100
AcDbEntity
  8
0
100
AcDbLine
 10
0.652934
 20
-1.9685
 30
0.187
 11
0.8636
 21
-1.9685
 31
0.187
  0
POLYLINE
  5
65270
100
AcDbEntity
  8
0
100
AcDbPolygonMesh
 66
     1
 10
0.0
 20
0.0
 30
0.0
 70
    16
 71
     6
 72
     3
  0
VERTEX
  5
65271
100
AcDbEntity
  8
0
100
AcDbVertex
100
AcDbPolygonMeshVertex
 10
1.76521
 20
-1.6855
 30
0.187
 70
    64
  0
VERTEX
  5
65272
100
AcDbEntity
  8
0
100
AcDbVertex
100
AcDbPolygonMeshVertex
 10
1.76521
 20
-1.6855
 30
0.0
 70
    64
  0
VERTEX
  5
65273
100
AcDbEntity
  8
0
100
AcDbVertex
100
AcDbPolygonMeshVertex
 10
1.76521
 20
-1.6855
 30
0.0
 70
    64
  0
VERTEX
  5
65274
100
AcDbEntity
  8
0
100
AcDbVertex
100
AcDbPolygonMeshVertex
 10
0.00521
 20
-1.6855
 30
0.187
 70
    64
  0
VERTEX
  5
65275
100
AcDbEntity
  8
0
100
AcDbVertex
100
AcDbPolygonMeshVertex
 10
0.00521
 20
-1.6855
 30
0.0
 70
    64
  0
VERTEX
  5
65276
100
AcDbEntity
  8
0
100
AcDbVertex
100
AcDbPolygonMeshVertex
 10
0.00521
 20
-1.6855
 30
0.0
 70
    64
  0
VERTEX
  5
65277
100
AcDbEntity
  8
0
100
AcDbVertex
100
AcDbPolygonMeshVertex
 10
0.00521
 20
-1.481
 30
0.187
 70
    64
  0
VERTEX
  5
65278
100
AcDbEntity
  8
0
100
AcDbVertex
100
AcDbPolygonMeshVertex
 10
0.00521
 20
-1.481
 30
0.0
 70
    64
  0
VERTEX
  5
65279
100
AcDbEntity
  8
0
100
AcDbVertex
100
AcDbPolygonMeshVertex
 10
0.00521
 20
-1.6855
 30
0.0
 70
    64
  0
VERTEX
  5
6527A
100
AcDbEntity
  8
0
100
AcDbVertex
100
AcDbPolygonMeshVertex
 10
1.76521
 20
-1.481
 30
0.187
 70
    64
  0
VERTEX
  5
6527B
100
AcDbEntity
  8
0
100
AcDbVertex
100
AcDbPolygonMeshVertex
 10
1.76521
 20
-1.481
 30
0.0
 70
    64
  0
VERTEX
  5
6527C
100
AcDbEntity
  8
0
100
AcDbVertex
100
AcDbPolygonMeshVertex
 10
1.76521
 20
-1.6855
 30
0.0
 70
    64
  0
VERTEX
  5
6527D
100
AcDbEntity
  8
0
100
AcDbVertex
100
AcDbPolygonMeshVertex
 10
1.76521
 20
-1.481
 30
0.187
 70
    64
  0
VERTEX
  5
6527E
100
AcDbEntity
  8
0
100
AcDbVertex
100
AcDbPolygonMeshVertex
 10
1.76521
 20
-1.481
 30
0.187
 70
    64
  0
VERTEX
  5
6527F
100
AcDbEntity
  8
0
100
AcDbVertex
100
AcDbPolygonMeshVertex
 10
1.76521
 20
-1.6855
 30
0.187
 70
    64
  0
VERTEX
  5
65280
100
AcDbEntity
  8
0
100
AcDbVertex
100
AcDbPolygonMeshVertex
 10
0.00521
 20
-1.481
 30
0.187
 70
    64
  0
VERTEX
  5
65281
100
AcDbEntity
  8
0
100
AcDbVertex
100
AcDbPolygonMeshVertex
 10
0.00521
 20
-1.481
 30
0.187
 70
    64
  0
VERTEX
  5
65282
100
AcDbEntity
  8
0
100
AcDbVertex
100
AcDbPolygonMeshVertex
 10
0.00521
 20
-1.6855
 30
0.187
 70
    64
  0
SEQEND
  5
65283
100
AcDbEntity
  8
0
  0
POLYLINE
  5
65284
100
AcDbEntity
  8
0
100
AcDbPolygonMesh
 66
     1
 10
0.0
 20
0.0
 30
0.0
 70
    16
 71
     6
 72
     3
  0
VERTEX
  5
65285
100
AcDbEntity
  8
0
100
AcDbVertex
100
AcDbPolygonMeshVertex
 10
1.76521
 20
0.2045
 30
0.187
 70
    64
  0
VERTEX
  5
65286
100
AcDbEntity
  8
0
100
AcDbVertex
100
AcDbPolygonMeshVertex
 10
1.76521
 20
0.2045
 30
0.0
 70
    64
  0
VERTEX
  5
65287
100
AcDbEntity
  8
0
100
AcDbVertex
100
AcDbPolygonMeshVertex
 10
1.76521
 20
0.2045
 30
0.0
 70
    64
  0
VERTEX
  5
65288
100
AcDbEntity
  8
0
100
AcDbVertex
100
AcDbPolygonMeshVertex
 10
0.00521
 20
0.2045
 30
0.187
 70
    64
  0
VERTEX
  5
65289
100
AcDbEntity
  8
0
100
AcDbVertex
100
AcDbPolygonMeshVertex
 10
0.00521
 20
0.2045
 30
0.0
 70
    64
  0
VERTEX
  5
6528A
100
AcDbEntity
  8
0
100
AcDbVertex
100
AcDbPolygonMeshVertex
 10
0.00521
 20
0.2045
 30
0.0
 70
    64
  0
VERTEX
  5
6528B
100
AcDbEntity
  8
0
100
AcDbVertex
100
AcDbPolygonMeshVertex
 10
0.00521
 20
0.0
 30
0.187
 70
    64
  0
VERTEX
  5
6528C
100
AcDbEntity
  8
0
100
AcDbVertex
100
AcDbPolygonMeshVertex
 10
0.00521
 20
0.0
 30
0.0
 70
    64
  0
VERTEX
  5
6528D
100
AcDbEntity
  8
0
100
AcDbVertex
100
AcDbPolygonMeshVertex
 10
0.00521
 20
0.2045
 30
0.0
 70
    64
  0
VERTEX
  5
6528E
100
AcDbEntity
  8
0
100
AcDbVertex
100
AcDbPolygonMeshVertex
 10
1.76521
 20
0.0
 30
0.187
 70
    64
  0
VERTEX
  5
6528F
100
AcDbEntity
  8
0
100
AcDbVertex
100
AcDbPolygonMeshVertex
 10
1.76521
 20
0.0
 30
0.0
 70
    64
  0
VERTEX
  5
65290
100
AcDbEntity
  8
0
100
AcDbVertex
100
AcDbPolygonMeshVertex
 10
1.76521
 20
0.2045
 30
0.0
 70
    64
  0
VERTEX
  5
65291
100
AcDbEntity
  8
0
100
AcDbVertex
100
AcDbPolygonMeshVertex
 10
1.76521
 20
0.0
 30
0.187
 70
    64
  0
VERTEX
  5
65292
100
AcDbEntity
  8
0
100
AcDbVertex
100
AcDbPolygonMeshVertex
 10
1.76521
 20
0.0
 30
0.187
 70
    64
  0
VERTEX
  5
65293
100
AcDbEntity
  8
0
100
AcDbVertex
100
AcDbPolygonMeshVertex
 10
1.76521
 20
0.2045
 30
0.187
 70
    64
  0
VERTEX
  5
65294
100
AcDbEntity
  8
0
100
AcDbVertex
100
AcDbPolygonMeshVertex
 10
0.00521
 20
0.0
 30
0.187
 70
    64
  0
VERTEX
  5
65295
100
AcDbEntity
  8
0
100
AcDbVertex
100
AcDbPolygonMeshVertex
 10
0.00521
 20
0.0
 30
0.187
 70
    64
  0
VERTEX
  5
65296
100
AcDbEntity
  8
0
100
AcDbVertex
100
AcDbPolygonMeshVertex
 10
0.00521
 20
0.2045
 30
0.187
 70
    64
  0
SEQEND
  5
65297
100
AcDbEntity
  8
0
  0
POLYLINE
  5
65298
100
AcDbEntity
  8
0
100
AcDbPolygonMesh
 66
     1
 10
0.0
 20
0.0
 30
0.0
 70
    16
 71
     6
 72
     3
  0
VERTEX
  5
65299
100
AcDbEntity
  8
0
100
AcDbVertex
100
AcDbPolygonMeshVertex
 10
0.39621
 20
-2.0815
 30
0.316
 70
    64
  0
VERTEX
  5
6529A
100
AcDbEntity
  8
0
100
AcDbVertex
100
AcDbPolygonMeshVertex
 10
0.39621
 20
-2.0815
 30
0.0
 70
    64
  0
VERTEX
  5
6529B
100
AcDbEntity
  8
0
100
AcDbVertex
100
AcDbPolygonMeshVertex
 10
0.39621
 20
-2.0815
 30
0.0
 70
    64
  0
VERTEX
  5
6529C
100
AcDbEntity
  8
0
100
AcDbVertex
100
AcDbPolygonMeshVertex
 10
0.00521
 20
-2.0815
 30
0.316
 70
    64
  0
VERTEX
  5
6529D
100
AcDbEntity
  8
0
100
AcDbVertex
100
AcDbPolygonMeshVertex
 10
0.00521
 20
-2.0815
 30
0.0
 70
    64
  0
VERTEX
  5
6529E
100
AcDbEntity
  8
0
100
AcDbVertex
100
AcDbPolygonMeshVertex
 10
0.00521
 20
-2.0815
 30
0.0
 70
    64
  0
VERTEX
  5
6529F
100
AcDbEntity
  8
0
100
AcDbVertex
100
AcDbPolygonMeshVertex
 10
0.00521
 20
-1.6855
 30
0.316
 70
    64
  0
VERTEX
  5
652A0
100
AcDbEntity
  8
0
100
AcDbVertex
100
AcDbPolygonMeshVertex
 10
0.00521
 20
-1.6855
 30
0.0
 70
    64
  0
VERTEX
  5
652A1
100
AcDbEntity
  8
0
100
AcDbVertex
100
AcDbPolygonMeshVertex
 10
0.00521
 20
-2.0815
 30
0.0
 70
    64
  0
VERTEX
  5
652A2
100
AcDbEntity
  8
0
100
AcDbVertex
100
AcDbPolygonMeshVertex
 10
0.39621
 20
-1.6855
 30
0.316
 70
    64
  0
VERTEX
  5
652A3
100
AcDbEntity
  8
0
100
AcDbVertex
100
AcDbPolygonMeshVertex
 10
0.39621
 20
-1.6855
 30
0.0
 70
    64
  0
VERTEX
  5
652A4
100
AcDbEntity
  8
0
100
AcDbVertex
100
AcDbPolygonMeshVertex
 10
0.39621
 20
-2.0815
 30
0.0
 70
    64
  0
VERTEX
  5
652A5
100
AcDbEntity
  8
0
100
AcDbVertex
100
AcDbPolygonMeshVertex
 10
0.39621
 20
-1.6855
 30
0.316
 70
    64
  0
VERTEX
  5
652A6
100
AcDbEntity
  8
0
100
AcDbVertex
100
AcDbPolygonMeshVertex
 10
0.39621
 20
-1.6855
 30
0.316
 70
    64
  0
VERTEX
  5
652A7
100
AcDbEntity
  8
0
100
AcDbVertex
100
AcDbPolygonMeshVertex
 10
0.39621
 20
-2.0815
 30
0.316
 70
    64
  0
VERTEX
  5
652A8
100
AcDbEntity
  8
0
100
AcDbVertex
100
AcDbPolygonMeshVertex
 10
0.00521
 20
-1.6855
 30
0.316
 70
    64
  0
VERTEX
  5
652A9
100
AcDbEntity
  8
0
100
AcDbVertex
100
AcDbPolygonMeshVertex
 10
0.00521
 20
-1.6855
 30
0.316
 70
    64
  0
VERTEX
  5
652AA
100
AcDbEntity
  8
0
100
AcDbVertex
100
AcDbPolygonMeshVertex
 10
0.00521
 20
-2.0815
 30
0.316
 70
    64
  0
SEQEND
  5
652AB
100
AcDbEntity
  8
0
  0
POINT
  5
652AC
100
AcDbEntity
  8
SNAP_POINTS
100
AcDbPoint
 10
0.0
 20
0.0
 30
0.0
  0
3DFACE
  5
652AD
100
AcDbEntity
  8
0
100
AcDbFace
 10
1.76521
 20
-1.8455
 30
2.06
 11
1.76521
 21
-1.8455
 31
2.06
 12
0.00021
 22
-1.8455
 32
2.06
 13
0.00021
 23
-1.8455
 33
2.06
  0
3DFACE
  5
652AE
100
AcDbEntity
  8
0
100
AcDbFace
 10
0.00021
 20
-1.8455
 30
2.06
 11
0.00021
 21
-1.8455
 31
2.06
 12
0.00021
 22
-1.8455
 32
2.06
 13
0.00021
 23
0.3985
 33
2.06
  0
3DFACE
  5
652AF
100
AcDbEntity
  8
0
100
AcDbFace
 10
0.00021
 20
0.3985
 30
2.06
 11
0.00021
 21
-1.8455
 31
2.06
 12
1.76521
 22
-1.8455
 32
2.06
 13
1.76521
 23
0.3985
 33
2.06
  0
POLYLINE
  5
652B0
100
AcDbEntity
  8
0
  6
CONTINUOUS
100
AcDb3dPolyline
 66
     1
 10
0.0
 20
0.0
 30
0.0
 70
     8
  0
VERTEX
  5
652B1
100
AcDbEntity
  8
0
  6
CONTINUOUS
100
AcDbVertex
100
AcDb3dPolylineVertex
 10
1.76521
 20
0.3985
 30
2.06
 70
    32
1001
ACAD
1000
R13OBJECT
1002
{
1005
652B0
1002
}
  0
VERTEX
  5
652B2
100
AcDbEntity
  8
0
  6
CONTINUOUS
100
AcDbVertex
100
AcDb3dPolylineVertex
 10
1.76521
 20
-1.8455
 30
2.06
 70
    32
1001
ACAD
1000
R13OBJECT
1002
{
1005
652B0
1002
}
  0
SEQEND
  5
652B3
100
AcDbEntity
  8
0
  6
CONTINUOUS
1001
ACAD
1000
R13OBJECT
1002
{
1005
652B0
1002
}
  0
POLYLINE
  5
652B4
100
AcDbEntity
  8
0
  6
CONTINUOUS
100
AcDb3dPolyline
 66
     1
 10
0.0
 20
0.0
 30
0.0
 70
     8
1001
ACAD
1000
R13OBJECT
1002
{
1005
652B0
1002
}
  0
VERTEX
  5
652B5
100
AcDbEntity
  8
0
  6
CONTINUOUS
100
AcDbVertex
100
AcDb3dPolylineVertex
 10
1.76521
 20
-1.8455
 30
2.06
 70
    32
1001
ACAD
1000
R13OBJECT
1002
{
1005
652B0
1002
}
  0
VERTEX
  5
652B6
100
AcDbEntity
  8
0
  6
CONTINUOUS
100
AcDbVertex
100
AcDb3dPolylineVertex
 10
0.00021
 20
-1.8455
 30
2.06
 70
    32
1001
ACAD
1000
R13OBJECT
1002
{
1005
652B0
1002
}
  0
SEQEND
  5
652B7
100
AcDbEntity
  8
0
  6
CONTINUOUS
1001
ACAD
1000
R13OBJECT
1002
{
1005
652B0
1002
}
  0
POLYLINE
  5
652B8
100
AcDbEntity
  8
0
  6
CONTINUOUS
100
AcDb3dPolyline
 66
     1
 10
0.0
 20
0.0
 30
0.0
 70
     8
1001
ACAD
1000
R13OBJECT
1002
{
1005
652B0
1002
}
  0
VERTEX
  5
652B9
100
AcDbEntity
  8
0
  6
CONTINUOUS
100
AcDbVertex
100
AcDb3dPolylineVertex
 10
0.00021
 20
-1.8455
 30
2.06
 70
    32
1001
ACAD
1000
R13OBJECT
1002
{
1005
652B0
1002
}
  0
VERTEX
  5
652BA
100
AcDbEntity
  8
0
  6
CONTINUOUS
100
AcDbVertex
100
AcDb3dPolylineVertex
 10
0.00021
 20
0.3985
 30
2.06
 70
    32
1001
ACAD
1000
R13OBJECT
1002
{
1005
652B0
1002
}
  0
SEQEND
  5
652BB
100
AcDbEntity
  8
0
  6
CONTINUOUS
1001
ACAD
1000
R13OBJECT
1002
{
1005
652B0
1002
}
  0
POLYLINE
  5
652BC
100
AcDbEntity
  8
0
  6
CONTINUOUS
100
AcDb3dPolyline
 66
     1
 10
0.0
 20
0.0
 30
0.0
 70
     8
1001
ACAD
1000
R13OBJECT
1002
{
1005
652B0
1002
}
  0
VERTEX
  5
652BD
100
AcDbEntity
  8
0
  6
CONTINUOUS
100
AcDbVertex
100
AcDb3dPolylineVertex
 10
0.00021
 20
0.3985
 30
2.06
 70
    32
1001
ACAD
1000
R13OBJECT
1002
{
1005
652B0
1002
}
  0
VERTEX
  5
652BE
100
AcDbEntity
  8
0
  6
CONTINUOUS
100
AcDbVertex
100
AcDb3dPolylineVertex
 10
1.76521
 20
0.3985
 30
2.06
 70
    32
1001
ACAD
1000
R13OBJECT
1002
{
1005
652B0
1002
}
  0
SEQEND
  5
652BF
100
AcDbEntity
  8
0
  6
CONTINUOUS
1001
ACAD
1000
R13OBJECT
1002
{
1005
652B0
1002
}
  0
POLYLINE
  5
652C0
100
AcDbEntity
  8
0
  6
CONTINUOUS
100
AcDb3dPolyline
 66
     1
 10
0.0
 20
0.0
 30
0.0
 70
     8
  0
VERTEX
  5
652C1
100
AcDbEntity
  8
0
  6
CONTINUOUS
100
AcDbVertex
100
AcDb3dPolylineVertex
 10
0.00021
 20
-1.8455
 30
3.082
 70
    32
1001
ACAD
1000
R13OBJECT
1002
{
1005
652C0
1002
}
  0
VERTEX
  5
652C2
100
AcDbEntity
  8
0
  6
CONTINUOUS
100
AcDbVertex
100
AcDb3dPolylineVertex
 10
0.00021
 20
-1.8455
 30
2.06
 70
    32
1001
ACAD
1000
R13OBJECT
1002
{
1005
652C0
1002
}
  0
SEQEND
  5
652C3
100
AcDbEntity
  8
0
  6
CONTINUOUS
1001
ACAD
1000
R13OBJECT
1002
{
1005
652C0
1002
}
  0
POLYLINE
  5
652C4
100
AcDbEntity
  8
0
  6
CONTINUOUS
100
AcDb3dPolyline
 66
     1
 10
0.0
 20
0.0
 30
0.0
 70
     8
1001
ACAD
1000
R13OBJECT
1002
{
1005
652C0
1002
}
  0
VERTEX
  5
652C5
100
AcDbEntity
  8
0
  6
CONTINUOUS
100
AcDbVertex
100
AcDb3dPolylineVertex
 10
1.76521
 20
-1.8455
 30
2.06
 70
    32
1001
ACAD
1000
R13OBJECT
1002
{
1005
652C0
1002
}
  0
VERTEX
  5
652C6
100
AcDbEntity
  8
0
  6
CONTINUOUS
100
AcDbVertex
100
AcDb3dPolylineVertex
 10
0.00021
 20
-1.8455
 30
2.06
 70
    32
1001
ACAD
1000
R13OBJECT
1002
{
1005
652C0
1002
}
  0
SEQEND
  5
652C7
100
AcDbEntity
  8
0
  6
CONTINUOUS
1001
ACAD
1000
R13OBJECT
1002
{
1005
652C0
1002
}
  0
POLYLINE
  5
652C8
100
AcDbEntity
  8
0
  6
CONTINUOUS
100
AcDb3dPolyline
 66
     1
 10
0.0
 20
0.0
 30
0.0
 70
     8
1001
ACAD
1000
R13OBJECT
1002
{
1005
652C0
1002
}
  0
VERTEX
  5
652C9
100
AcDbEntity
  8
0
  6
CONTINUOUS
100
AcDbVertex
100
AcDb3dPolylineVertex
 10
1.76521
 20
-1.8455
 30
3.082
 70
    32
1001
ACAD
1000
R13OBJECT
1002
{
1005
652C0
1002
}
  0
VERTEX
  5
652CA
100
AcDbEntity
  8
0
  6
CONTINUOUS
100
AcDbVertex
100
AcDb3dPolylineVertex
 10
1.76521
 20
-1.8455
 30
2.06
 70
    32
1001
ACAD
1000
R13OBJECT
1002
{
1005
652C0
1002
}
  0
SEQEND
  5
652CB
100
AcDbEntity
  8
0
  6
CONTINUOUS
1001
ACAD
1000
R13OBJECT
1002
{
1005
652C0
1002
}
  0
POLYLINE
  5
652CC
100
AcDbEntity
  8
0
  6
CONTINUOUS
100
AcDb3dPolyline
 66
     1
 10
0.0
 20
0.0
 30
0.0
 70
     8
1001
ACAD
1000
R13OBJECT
1002
{
1005
652C0
1002
}
  0
VERTEX
  5
652CD
100
AcDbEntity
  8
0
  6
CONTINUOUS
100
AcDbVertex
100
AcDb3dPolylineVertex
 10
0.00021
 20
-1.8455
 30
3.082
 70
    32
1001
ACAD
1000
R13OBJECT
1002
{
1005
652C0
1002
}
  0
VERTEX
  5
652CE
100
AcDbEntity
  8
0
  6
CONTINUOUS
100
AcDbVertex
100
AcDb3dPolylineVertex
 10
1.76521
 20
-1.8455
 30
3.082
 70
    32
1001
ACAD
1000
R13OBJECT
1002
{
1005
652C0
1002
}
  0
SEQEND
  5
652CF
100
AcDbEntity
  8
0
  6
CONTINUOUS
1001
ACAD
1000
R13OBJECT
1002
{
1005
652C0
1002
}
  0
POLYLINE
  5
652D0
100
AcDbEntity
  8
0
  6
CONTINUOUS
100
AcDb3dPolyline
 66
     1
 10
0.0
 20
0.0
 30
0.0
 70
     8
  0
VERTEX
  5
652D1
100
AcDbEntity
  8
0
  6
CONTINUOUS
100
AcDbVertex
100
AcDb3dPolylineVertex
 10
1.76521
 20
0.3985
 30
3.082
 70
    32
1001
ACAD
1000
R13OBJECT
1002
{
1005
652D0
1002
}
  0
VERTEX
  5
652D2
100
AcDbEntity
  8
0
  6
CONTINUOUS
100
AcDbVertex
100
AcDb3dPolylineVertex
 10
1.76521
 20
0.3985
 30
2.06
 70
    32
1001
ACAD
1000
R13OBJECT
1002
{
1005
652D0
1002
}
  0
SEQEND
  5
652D3
100
AcDbEntity
  8
0
  6
CONTINUOUS
1001
ACAD
1000
R13OBJECT
1002
{
1005
652D0
1002
}
  0
POLYLINE
  5
652D4
100
AcDbEntity
  8
0
  6
CONTINUOUS
100
AcDb3dPolyline
 66
     1
 10
0.0
 20
0.0
 30
0.0
 70
     8
1001
ACAD
1000
R13OBJECT
1002
{
1005
652D0
1002
}
  0
VERTEX
  5
652D5
100
AcDbEntity
  8
0
  6
CONTINUOUS
100
AcDbVertex
100
AcDb3dPolylineVertex
 10
0.00021
 20
0.3985
 30
2.06
 70
    32
1001
ACAD
1000
R13OBJECT
1002
{
1005
652D0
1002
}
  0
VERTEX
  5
652D6
100
AcDbEntity
  8
0
  6
CONTINUOUS
100
AcDbVertex
100
AcDb3dPolylineVertex
 10
1.76521
 20
0.3985
 30
2.06
 70
    32
1001
ACAD
1000
R13OBJECT
1002
{
1005
652D0
1002
}
  0
SEQEND
  5
652D7
100
AcDbEntity
  8
0
  6
CONTINUOUS
1001
ACAD
1000
R13OBJECT
1002
{
1005
652D0
1002
}
  0
POLYLINE
  5
652D8
100
AcDbEntity
  8
0
  6
CONTINUOUS
100
AcDb3dPolyline
 66
     1
 10
0.0
 20
0.0
 30
0.0
 70
     8
1001
ACAD
1000
R13OBJECT
1002
{
1005
652D0
1002
}
  0
VERTEX
  5
652D9
100
AcDbEntity
  8
0
  6
CONTINUOUS
100
AcDbVertex
100
AcDb3dPolylineVertex
 10
0.00021
 20
0.3985
 30
3.082
 70
    32
1001
ACAD
1000
R13OBJECT
1002
{
1005
652D0
1002
}
  0
VERTEX
  5
652DA
100
AcDbEntity
  8
0
  6
CONTINUOUS
100
AcDbVertex
100
AcDb3dPolylineVertex
 10
0.00021
 20
0.3985
 30
2.06
 70
    32
1001
ACAD
1000
R13OBJECT
1002
{
1005
652D0
1002
}
  0
SEQEND
  5
652DB
100
AcDbEntity
  8
0
  6
CONTINUOUS
1001
ACAD
1000
R13OBJECT
1002
{
1005
652D0
1002
}
  0
POLYLINE
  5
652DC
100
AcDbEntity
  8
0
  6
CONTINUOUS
100
AcDb3dPolyline
 66
     1
 10
0.0
 20
0.0
 30
0.0
 70
     8
1001
ACAD
1000
R13OBJECT
1002
{
1005
652D0
1002
}
  0
VERTEX
  5
652DD
100
AcDbEntity
  8
0
  6
CONTINUOUS
100
AcDbVertex
100
AcDb3dPolylineVertex
 10
1.76521
 20
0.3985
 30
3.082
 70
    32
1001
ACAD
1000
R13OBJECT
1002
{
1005
652D0
1002
}
  0
VERTEX
  5
652DE
100
AcDbEntity
  8
0
  6
CONTINUOUS
100
AcDbVertex
100
AcDb3dPolylineVertex
 10
0.00021
 20
0.3985
 30
3.082
 70
    32
1001
ACAD
1000
R13OBJECT
1002
{
1005
652D0
1002
}
  0
SEQEND
  5
652DF
100
AcDbEntity
  8
0
  6
CONTINUOUS
1001
ACAD
1000
R13OBJECT
1002
{
1005
652D0
1002
}
  0
POLYLINE
  5
652E0
100
AcDbEntity
  8
0
  6
CONTINUOUS
100
AcDb3dPolyline
 66
     1
 10
0.0
 20
0.0
 30
0.0
 70
     8
  0
VERTEX
  5
652E1
100
AcDbEntity
  8
0
  6
CONTINUOUS
100
AcDbVertex
100
AcDb3dPolylineVertex
 10
1.76521
 20
-1.8455
 30
3.082
 70
    32
1001
ACAD
1000
R13OBJECT
1002
{
1005
652E0
1002
}
  0
VERTEX
  5
652E2
100
AcDbEntity
  8
0
  6
CONTINUOUS
100
AcDbVertex
100
AcDb3dPolylineVertex
 10
1.76521
 20
-1.8455
 30
2.06
 70
    32
1001
ACAD
1000
R13OBJECT
1002
{
1005
652E0
1002
}
  0
SEQEND
  5
652E3
100
AcDbEntity
  8
0
  6
CONTINUOUS
1001
ACAD
1000
R13OBJECT
1002
{
1005
652E0
1002
}
  0
POLYLINE
  5
652E4
100
AcDbEntity
  8
0
  6
CONTINUOUS
100
AcDb3dPolyline
 66
     1
 10
0.0
 20
0.0
 30
0.0
 70
     8
1001
ACAD
1000
R13OBJECT
1002
{
1005
652E0
1002
}
  0
VERTEX
  5
652E5
100
AcDbEntity
  8
0
  6
CONTINUOUS
100
AcDbVertex
100
AcDb3dPolylineVertex
 10
1.76521
 20
0.3985
 30
2.06
 70
    32
1001
ACAD
1000
R13OBJECT
1002
{
1005
652E0
1002
}
  0
VERTEX
  5
652E6
100
AcDbEntity
  8
0
  6
CONTINUOUS
100
AcDbVertex
100
AcDb3dPolylineVertex
 10
1.76521
 20
-1.8455
 30
2.06
 70
    32
1001
ACAD
1000
R13OBJECT
1002
{
1005
652E0
1002
}
  0
SEQEND
  5
652E7
100
AcDbEntity
  8
0
  6
CONTINUOUS
1001
ACAD
1000
R13OBJECT
1002
{
1005
652E0
1002
}
  0
POLYLINE
  5
652E8
100
AcDbEntity
  8
0
  6
CONTINUOUS
100
AcDb3dPolyline
 66
     1
 10
0.0
 20
0.0
 30
0.0
 70
     8
1001
ACAD
1000
R13OBJECT
1002
{
1005
652E0
1002
}
  0
VERTEX
  5
652E9
100
AcDbEntity
  8
0
  6
CONTINUOUS
100
AcDbVertex
100
AcDb3dPolylineVertex
 10
1.76521
 20
0.3985
 30
3.082
 70
    32
1001
ACAD
1000
R13OBJECT
1002
{
1005
652E0
1002
}
  0
VERTEX
  5
652EA
100
AcDbEntity
  8
0
  6
CONTINUOUS
100
AcDbVertex
100
AcDb3dPolylineVertex
 10
1.76521
 20
0.3985
 30
2.06
 70
    32
1001
ACAD
1000
R13OBJECT
1002
{
1005
652E0
1002
}
  0
SEQEND
  5
652EB
100
AcDbEntity
  8
0
  6
CONTINUOUS
1001
ACAD
1000
R13OBJECT
1002
{
1005
652E0
1002
}
  0
POLYLINE
  5
652EC
100
AcDbEntity
  8
0
  6
CONTINUOUS
100
AcDb3dPolyline
 66
     1
 10
0.0
 20
0.0
 30
0.0
 70
     8
1001
ACAD
1000
R13OBJECT
1002
{
1005
652E0
1002
}
  0
VERTEX
  5
652ED
100
AcDbEntity
  8
0
  6
CONTINUOUS
100
AcDbVertex
100
AcDb3dPolylineVertex
 10
1.76521
 20
-1.8455
 30
3.082
 70
    32
1001
ACAD
1000
R13OBJECT
1002
{
1005
652E0
1002
}
  0
VERTEX
  5
652EE
100
AcDbEntity
  8
0
  6
CONTINUOUS
100
AcDbVertex
100
AcDb3dPolylineVertex
 10
1.76521
 20
0.3985
 30
3.082
 70
    32
1001
ACAD
1000
R13OBJECT
1002
{
1005
652E0
1002
}
  0
SEQEND
  5
652EF
100
AcDbEntity
  8
0
  6
CONTINUOUS
1001
ACAD
1000
R13OBJECT
1002
{
1005
652E0
1002
}
  0
LINE
  5
652F0
100
AcDbEntity
  8
0
100
AcDbLine
 10
0.00021
 20
0.3985
 30
3.082
 11
0.00021
 21
0.3985
 31
2.06
210
-1.0
220
0.0
230
0.0
  0
LINE
  5
652F1
100
AcDbEntity
  8
0
100
AcDbLine
 10
0.00021
 20
0.3985
 30
3.082
 11
0.00021
 21
-1.8455
 31
3.082
210
-1.0
220
0.0
230
0.0
  0
LINE
  5
652F2
100
AcDbEntity
  8
0
100
AcDbLine
 10
0.00021
 20
-1.8455
 30
3.082
 11
0.00021
 21
-1.8455
 31
2.06
210
-1.0
220
0.0
230
0.0
  0
3DFACE
  5
652F3
100
AcDbEntity
  8
0
100
AcDbFace
 10
1.76521
 20
0.3985
 30
3.082
 11
1.76521
 21
-1.8455
 31
3.082
 12
0.00021
 22
-1.8455
 32
3.082
 13
0.00021
 23
0.3985
 33
3.082
  0
POLYLINE
  5
652F4
100
AcDbEntity
  8
0
100
AcDbPolygonMesh
 66
     1
 10
0.0
 20
0.0
 30
0.0
 70
    16
 71
     6
 72
     3
  0
VERTEX
  5
652F5
100
AcDbEntity
  8
0
100
AcDbVertex
100
AcDbPolygonMeshVertex
 10
1.25071
 20
-0.439486
 30
3.293
 70
    64
  0
VERTEX
  5
652F6
100
AcDbEntity
  8
0
100
AcDbVertex
100
AcDbPolygonMeshVertex
 10
1.25071
 20
-0.439486
 30
3.116
 70
    64
  0
VERTEX
  5
652F7
100
AcDbEntity
  8
0
100
AcDbVertex
100
AcDbPolygonMeshVertex
 10
1.25071
 20
-0.439486
 30
3.116
 70
    64
  0
VERTEX
  5
652F8
100
AcDbEntity
  8
0
100
AcDbVertex
100
AcDbPolygonMeshVertex
 10
1.08121
 20
-0.439486
 30
3.293
 70
    64
  0
VERTEX
  5
652F9
100
AcDbEntity
  8
0
100
AcDbVertex
100
AcDbPolygonMeshVertex
 10
1.08121
 20
-0.439486
 30
3.116
 70
    64
  0
VERTEX
  5
652FA
100
AcDbEntity
  8
0
100
AcDbVertex
100
AcDbPolygonMeshVertex
 10
1.08121
 20
-0.439486
 30
3.116
 70
    64
  0
VERTEX
  5
652FB
100
AcDbEntity
  8
0
100
AcDbVertex
100
AcDbPolygonMeshVertex
 10
1.08121
 20
-0.086486
 30
3.293
 70
    64
  0
VERTEX
  5
652FC
100
AcDbEntity
  8
0
100
AcDbVertex
100
AcDbPolygonMeshVertex
 10
1.08121
 20
-0.086486
 30
3.116
 70
    64
  0
VERTEX
  5
652FD
100
AcDbEntity
  8
0
100
AcDbVertex
100
AcDbPolygonMeshVertex
 10
1.08121
 20
-0.439486
 30
3.116
 70
    64
  0
VERTEX
  5
652FE
100
AcDbEntity
  8
0
100
AcDbVertex
100
AcDbPolygonMeshVertex
 10
1.25071
 20
-0.086486
 30
3.293
 70
    64
  0
VERTEX
  5
652FF
100
AcDbEntity
  8
0
100
AcDbVertex
100
AcDbPolygonMeshVertex
 10
1.25071
 20
-0.086486
 30
3.116
 70
    64
  0
VERTEX
  5
65300
100
AcDbEntity
  8
0
100
AcDbVertex
100
AcDbPolygonMeshVertex
 10
1.25071
 20
-0.439486
 30
3.116
 70
    64
  0
VERTEX
  5
65301
100
AcDbEntity
  8
0
100
AcDbVertex
100
AcDbPolygonMeshVertex
 10
1.25071
 20
-0.086486
 30
3.293
 70
    64
  0
VERTEX
  5
65302
100
AcDbEntity
  8
0
100
AcDbVertex
100
AcDbPolygonMeshVertex
 10
1.25071
 20
-0.086486
 30
3.293
 70
    64
  0
VERTEX
  5
65303
100
AcDbEntity
  8
0
100
AcDbVertex
100
AcDbPolygonMeshVertex
 10
1.25071
 20
-0.439486
 30
3.293
 70
    64
  0
VERTEX
  5
65304
100
AcDbEntity
  8
0
100
AcDbVertex
100
AcDbPolygonMeshVertex
 10
1.08121
 20
-0.086486
 30
3.293
 70
    64
  0
VERTEX
  5
65305
100
AcDbEntity
  8
0
100
AcDbVertex
100
AcDbPolygonMeshVertex
 10
1.08121
 20
-0.086486
 30
3.293
 70
    64
  0
VERTEX
  5
65306
100
AcDbEntity
  8
0
100
AcDbVertex
100
AcDbPolygonMeshVertex
 10
1.08121
 20
-0.439486
 30
3.293
 70
    64
  0
SEQEND
  5
65307
100
AcDbEntity
  8
0
  0
POLYLINE
  5
65308
100
AcDbEntity
  8
0
100
AcDbPolygonMesh
 66
     1
 10
0.0
 20
0.0
 30
0.0
 70
    16
 71
     6
 72
     3
  0
VERTEX
  5
65309
100
AcDbEntity
  8
0
100
AcDbVertex
100
AcDbPolygonMeshVertex
 10
1.12271
 20
-0.894486
 30
3.332
 70
    64
  0
VERTEX
  5
6530A
100
AcDbEntity
  8
0
100
AcDbVertex
100
AcDbPolygonMeshVertex
 10
1.12271
 20
-0.894486
 30
3.116
 70
    64
  0
VERTEX
  5
6530B
100
AcDbEntity
  8
0
100
AcDbVertex
100
AcDbPolygonMeshVertex
 10
1.12271
 20
-0.894486
 30
3.116
 70
    64
  0
VERTEX
  5
6530C
100
AcDbEntity
  8
0
100
AcDbVertex
100
AcDbPolygonMeshVertex
 10
0.98771
 20
-0.894486
 30
3.332
 70
    64
  0
VERTEX
  5
6530D
100
AcDbEntity
  8
0
100
AcDbVertex
100
AcDbPolygonMeshVertex
 10
0.98771
 20
-0.894486
 30
3.116
 70
    64
  0
VERTEX
  5
6530E
100
AcDbEntity
  8
0
100
AcDbVertex
100
AcDbPolygonMeshVertex
 10
0.98771
 20
-0.894486
 30
3.116
 70
    64
  0
VERTEX
  5
6530F
100
AcDbEntity
  8
0
100
AcDbVertex
100
AcDbPolygonMeshVertex
 10
0.98771
 20
-0.549486
 30
3.332
 70
    64
  0
VERTEX
  5
65310
100
AcDbEntity
  8
0
100
AcDbVertex
100
AcDbPolygonMeshVertex
 10
0.98771
 20
-0.549486
 30
3.116
 70
    64
  0
VERTEX
  5
65311
100
AcDbEntity
  8
0
100
AcDbVertex
100
AcDbPolygonMeshVertex
 10
0.98771
 20
-0.894486
 30
3.116
 70
    64
  0
VERTEX
  5
65312
100
AcDbEntity
  8
0
100
AcDbVertex
100
AcDbPolygonMeshVertex
 10
1.12271
 20
-0.549486
 30
3.332
 70
    64
  0
VERTEX
  5
65313
100
AcDbEntity
  8
0
100
AcDbVertex
100
AcDbPolygonMeshVertex
 10
1.12271
 20
-0.549486
 30
3.116
 70
    64
  0
VERTEX
  5
65314
100
AcDbEntity
  8
0
100
AcDbVertex
100
AcDbPolygonMeshVertex
 10
1.12271
 20
-0.894486
 30
3.116
 70
    64
  0
VERTEX
  5
65315
100
AcDbEntity
  8
0
100
AcDbVertex
100
AcDbPolygonMeshVertex
 10
1.12271
 20
-0.549486
 30
3.332
 70
    64
  0
VERTEX
  5
65316
100
AcDbEntity
  8
0
100
AcDbVertex
100
AcDbPolygonMeshVertex
 10
1.12271
 20
-0.549486
 30
3.332
 70
    64
  0
VERTEX
  5
65317
100
AcDbEntity
  8
0
100
AcDbVertex
100
AcDbPolygonMeshVertex
 10
1.12271
 20
-0.894486
 30
3.332
 70
    64
  0
VERTEX
  5
65318
100
AcDbEntity
  8
0
100
AcDbVertex
100
AcDbPolygonMeshVertex
 10
0.98771
 20
-0.549486
 30
3.332
 70
    64
  0
VERTEX
  5
65319
100
AcDbEntity
  8
0
100
AcDbVertex
100
AcDbPolygonMeshVertex
 10
0.98771
 20
-0.549486
 30
3.332
 70
    64
  0
VERTEX
  5
6531A
100
AcDbEntity
  8
0
100
AcDbVertex
100
AcDbPolygonMeshVertex
 10
0.98771
 20
-0.894486
 30
3.332
 70
    64
  0
SEQEND
  5
6531B
100
AcDbEntity
  8
0
  0
3DFACE
  5
6531C
100
AcDbEntity
  8
0
100
AcDbFace
 10
1.76521
 20
0.3985
 30
3.082
 11
1.76521
 21
0.3985
 31
3.082
 12
0.00021
 22
0.3985
 32
3.082
 13
0.00021
 23
0.3985
 33
3.082
  0
TEXT
  5
6531D
100
AcDbEntity
  8
0
100
AcDbText
 10
0.072628
 20
0.301596
 30
3.082
 40
0.083465
  1
1
100
AcDbText
  0
TEXT
  5
6531E
100
AcDbEntity
  8
0
100
AcDbText
 10
1.169577
 20
0.304736
 30
3.082
 40
0.083465
  1
L3
100
AcDbText
  0
TEXT
  5
6531F
100
AcDbEntity
  8
0
100
AcDbText
 10
0.763029
 20
0.301324
 30
3.082
 40
0.083465
  1
L2
100
AcDbText
  0
TEXT
  5
65320
100
AcDbEntity
  8
0
100
AcDbText
 10
0.336406
 20
0.300754
 30
3.082
 40
0.083465
  1
L1
100
AcDbText
  0
TEXT
  5
65321
100
AcDbEntity
  8
0
100
AcDbText
 10
0.523379
 20
0.299912
 30
3.082
 40
0.083465
  1
3
100
AcDbText
  0
TEXT
  5
65322
100
AcDbEntity
  8
0
100
AcDbText
 10
0.964913
 20
0.302735
 30
3.082
 40
0.083465
  1
5
100
AcDbText
  0
TEXT
  5
65323
100
AcDbEntity
  8
0
100
AcDbText
 10
1.599327
 20
0.304736
 30
3.082
 40
0.083465
  1
L4
100
AcDbText
  0
TEXT
  5
65324
100
AcDbEntity
  8
0
100
AcDbText
 10
1.370118
 20
0.302735
 30
3.082
 40
0.083465
  1
7
100
AcDbText
  0
POLYLINE
  5
65325
100
AcDbEntity
  8
0
100
AcDbPolygonMesh
 66
     1
 10
0.0
 20
0.0
 30
0.0
 70
    16
 71
     6
 72
     3
  0
VERTEX
  5
65326
100
AcDbEntity
  8
0
100
AcDbVertex
100
AcDbPolygonMeshVertex
 10
1.27071
 20
-1.376486
 30
3.282
 70
    64
  0
VERTEX
  5
65327
100
AcDbEntity
  8
0
100
AcDbVertex
100
AcDbPolygonMeshVertex
 10
1.27071
 20
-1.376486
 30
3.082
 70
    64
  0
VERTEX
  5
65328
100
AcDbEntity
  8
0
100
AcDbVertex
100
AcDbPolygonMeshVertex
 10
1.27071
 20
-1.376486
 30
3.082
 70
    64
  0
VERTEX
  5
65329
100
AcDbEntity
  8
0
100
AcDbVertex
100
AcDbPolygonMeshVertex
 10
0.49971
 20
-1.376486
 30
3.282
 70
    64
  0
VERTEX
  5
6532A
100
AcDbEntity
  8
0
100
AcDbVertex
100
AcDbPolygonMeshVertex
 10
0.49971
 20
-1.376486
 30
3.082
 70
    64
  0
VERTEX
  5
6532B
100
AcDbEntity
  8
0
100
AcDbVertex
100
AcDbPolygonMeshVertex
 10
0.49971
 20
-1.376486
 30
3.082
 70
    64
  0
VERTEX
  5
6532C
100
AcDbEntity
  8
0
100
AcDbVertex
100
AcDbPolygonMeshVertex
 10
0.49971
 20
-1.094486
 30
3.282
 70
    64
  0
VERTEX
  5
6532D
100
AcDbEntity
  8
0
100
AcDbVertex
100
AcDbPolygonMeshVertex
 10
0.49971
 20
-1.094486
 30
3.082
 70
    64
  0
VERTEX
  5
6532E
100
AcDbEntity
  8
0
100
AcDbVertex
100
AcDbPolygonMeshVertex
 10
0.49971
 20
-1.376486
 30
3.082
 70
    64
  0
VERTEX
  5
6532F
100
AcDbEntity
  8
0
100
AcDbVertex
100
AcDbPolygonMeshVertex
 10
1.27071
 20
-1.094486
 30
3.282
 70
    64
  0
VERTEX
  5
65330
100
AcDbEntity
  8
0
100
AcDbVertex
100
AcDbPolygonMeshVertex
 10
1.27071
 20
-1.094486
 30
3.082
 70
    64
  0
VERTEX
  5
65331
100
AcDbEntity
  8
0
100
AcDbVertex
100
AcDbPolygonMeshVertex
 10
1.27071
 20
-1.376486
 30
3.082
 70
    64
  0
VERTEX
  5
65332
100
AcDbEntity
  8
0
100
AcDbVertex
100
AcDbPolygonMeshVertex
 10
1.27071
 20
-1.094486
 30
3.282
 70
    64
  0
VERTEX
  5
65333
100
AcDbEntity
  8
0
100
AcDbVertex
100
AcDbPolygonMeshVertex
 10
1.27071
 20
-1.094486
 30
3.282
 70
    64
  0
VERTEX
  5
65334
100
AcDbEntity
  8
0
100
AcDbVertex
100
AcDbPolygonMeshVertex
 10
1.27071
 20
-1.376486
 30
3.282
 70
    64
  0
VERTEX
  5
65335
100
AcDbEntity
  8
0
100
AcDbVertex
100
AcDbPolygonMeshVertex
 10
0.49971
 20
-1.094486
 30
3.282
 70
    64
  0
VERTEX
  5
65336
100
AcDbEntity
  8
0
100
AcDbVertex
100
AcDbPolygonMeshVertex
 10
0.49971
 20
-1.094486
 30
3.282
 70
    64
  0
VERTEX
  5
65337
100
AcDbEntity
  8
0
100
AcDbVertex
100
AcDbPolygonMeshVertex
 10
0.49971
 20
-1.376486
 30
3.282
 70
    64
  0
SEQEND
  5
65338
100
AcDbEntity
  8
0
  0
POLYLINE
  5
65339
100
AcDbEntity
  8
0
100
AcDbPolygonMesh
 66
     1
 10
0.0
 20
0.0
 30
0.0
 70
    16
 71
     6
 72
     3
  0
VERTEX
  5
6533A
100
AcDbEntity
  8
0
100
AcDbVertex
100
AcDbPolygonMeshVertex
 10
1.25071
 20
-0.439486
 30
3.116
 70
    64
  0
VERTEX
  5
6533B
100
AcDbEntity
  8
0
100
AcDbVertex
100
AcDbPolygonMeshVertex
 10
1.25071
 20
-0.439486
 30
3.082
 70
    64
  0
VERTEX
  5
6533C
100
AcDbEntity
  8
0
100
AcDbVertex
100
AcDbPolygonMeshVertex
 10
1.25071
 20
-0.439486
 30
3.082
 70
    64
  0
VERTEX
  5
6533D
100
AcDbEntity
  8
0
100
AcDbVertex
100
AcDbPolygonMeshVertex
 10
0.51971
 20
-0.439486
 30
3.116
 70
    64
  0
VERTEX
  5
6533E
100
AcDbEntity
  8
0
100
AcDbVertex
100
AcDbPolygonMeshVertex
 10
0.51971
 20
-0.439486
 30
3.082
 70
    64
  0
VERTEX
  5
6533F
100
AcDbEntity
  8
0
100
AcDbVertex
100
AcDbPolygonMeshVertex
 10
0.51971
 20
-0.439486
 30
3.082
 70
    64
  0
VERTEX
  5
65340
100
AcDbEntity
  8
0
100
AcDbVertex
100
AcDbPolygonMeshVertex
 10
0.51971
 20
-0.086486
 30
3.116
 70
    64
  0
VERTEX
  5
65341
100
AcDbEntity
  8
0
100
AcDbVertex
100
AcDbPolygonMeshVertex
 10
0.51971
 20
-0.086486
 30
3.082
 70
    64
  0
VERTEX
  5
65342
100
AcDbEntity
  8
0
100
AcDbVertex
100
AcDbPolygonMeshVertex
 10
0.51971
 20
-0.439486
 30
3.082
 70
    64
  0
VERTEX
  5
65343
100
AcDbEntity
  8
0
100
AcDbVertex
100
AcDbPolygonMeshVertex
 10
1.25071
 20
-0.086486
 30
3.116
 70
    64
  0
VERTEX
  5
65344
100
AcDbEntity
  8
0
100
AcDbVertex
100
AcDbPolygonMeshVertex
 10
1.25071
 20
-0.086486
 30
3.082
 70
    64
  0
VERTEX
  5
65345
100
AcDbEntity
  8
0
100
AcDbVertex
100
AcDbPolygonMeshVertex
 10
1.25071
 20
-0.439486
 30
3.082
 70
    64
  0
VERTEX
  5
65346
100
AcDbEntity
  8
0
100
AcDbVertex
100
AcDbPolygonMeshVertex
 10
1.25071
 20
-0.086486
 30
3.116
 70
    64
  0
VERTEX
  5
65347
100
AcDbEntity
  8
0
100
AcDbVertex
100
AcDbPolygonMeshVertex
 10
1.25071
 20
-0.086486
 30
3.116
 70
    64
  0
VERTEX
  5
65348
100
AcDbEntity
  8
0
100
AcDbVertex
100
AcDbPolygonMeshVertex
 10
1.25071
 20
-0.439486
 30
3.116
 70
    64
  0
VERTEX
  5
65349
100
AcDbEntity
  8
0
100
AcDbVertex
100
AcDbPolygonMeshVertex
 10
0.51971
 20
-0.086486
 30
3.116
 70
    64
  0
VERTEX
  5
6534A
100
AcDbEntity
  8
0
100
AcDbVertex
100
AcDbPolygonMeshVertex
 10
0.51971
 20
-0.086486
 30
3.116
 70
    64
  0
VERTEX
  5
6534B
100
AcDbEntity
  8
0
100
AcDbVertex
100
AcDbPolygonMeshVertex
 10
0.51971
 20
-0.439486
 30
3.116
 70
    64
  0
SEQEND
  5
6534C
100
AcDbEntity
  8
0
  0
POLYLINE
  5
6534D
100
AcDbEntity
  8
0
100
AcDbPolygonMesh
 66
     1
 10
0.0
 20
0.0
 30
0.0
 70
    16
 71
     6
 72
     3
  0
VERTEX
  5
6534E
100
AcDbEntity
  8
0
100
AcDbVertex
100
AcDbPolygonMeshVertex
 10
0.68921
 20
-0.439486
 30
3.293
 70
    64
  0
VERTEX
  5
6534F
100
AcDbEntity
  8
0
100
AcDbVertex
100
AcDbPolygonMeshVertex
 10
0.68921
 20
-0.439486
 30
3.116
 70
    64
  0
VERTEX
  5
65350
100
AcDbEntity
  8
0
100
AcDbVertex
100
AcDbPolygonMeshVertex
 10
0.68921
 20
-0.439486
 30
3.116
 70
    64
  0
VERTEX
  5
65351
100
AcDbEntity
  8
0
100
AcDbVertex
100
AcDbPolygonMeshVertex
 10
0.51971
 20
-0.439486
 30
3.293
 70
    64
  0
VERTEX
  5
65352
100
AcDbEntity
  8
0
100
AcDbVertex
100
AcDbPolygonMeshVertex
 10
0.51971
 20
-0.439486
 30
3.116
 70
    64
  0
VERTEX
  5
65353
100
AcDbEntity
  8
0
100
AcDbVertex
100
AcDbPolygonMeshVertex
 10
0.51971
 20
-0.439486
 30
3.116
 70
    64
  0
VERTEX
  5
65354
100
AcDbEntity
  8
0
100
AcDbVertex
100
AcDbPolygonMeshVertex
 10
0.51971
 20
-0.086486
 30
3.293
 70
    64
  0
VERTEX
  5
65355
100
AcDbEntity
  8
0
100
AcDbVertex
100
AcDbPolygonMeshVertex
 10
0.51971
 20
-0.086486
 30
3.116
 70
    64
  0
VERTEX
  5
65356
100
AcDbEntity
  8
0
100
AcDbVertex
100
AcDbPolygonMeshVertex
 10
0.51971
 20
-0.439486
 30
3.116
 70
    64
  0
VERTEX
  5
65357
100
AcDbEntity
  8
0
100
AcDbVertex
100
AcDbPolygonMeshVertex
 10
0.68921
 20
-0.086486
 30
3.293
 70
    64
  0
VERTEX
  5
65358
100
AcDbEntity
  8
0
100
AcDbVertex
100
AcDbPolygonMeshVertex
 10
0.68921
 20
-0.086486
 30
3.116
 70
    64
  0
VERTEX
  5
65359
100
AcDbEntity
  8
0
100
AcDbVertex
100
AcDbPolygonMeshVertex
 10
0.68921
 20
-0.439486
 30
3.116
 70
    64
  0
VERTEX
  5
6535A
100
AcDbEntity
  8
0
100
AcDbVertex
100
AcDbPolygonMeshVertex
 10
0.68921
 20
-0.086486
 30
3.293
 70
    64
  0
VERTEX
  5
6535B
100
AcDbEntity
  8
0
100
AcDbVertex
100
AcDbPolygonMeshVertex
 10
0.68921
 20
-0.086486
 30
3.293
 70
    64
  0
VERTEX
  5
6535C
100
AcDbEntity
  8
0
100
AcDbVertex
100
AcDbPolygonMeshVertex
 10
0.68921
 20
-0.439486
 30
3.293
 70
    64
  0
VERTEX
  5
6535D
100
AcDbEntity
  8
0
100
AcDbVertex
100
AcDbPolygonMeshVertex
 10
0.51971
 20
-0.086486
 30
3.293
 70
    64
  0
VERTEX
  5
6535E
100
AcDbEntity
  8
0
100
AcDbVertex
100
AcDbPolygonMeshVertex
 10
0.51971
 20
-0.086486
 30
3.293
 70
    64
  0
VERTEX
  5
6535F
100
AcDbEntity
  8
0
100
AcDbVertex
100
AcDbPolygonMeshVertex
 10
0.51971
 20
-0.439486
 30
3.293
 70
    64
  0
SEQEND
  5
65360
100
AcDbEntity
  8
0
  0
POLYLINE
  5
65361
100
AcDbEntity
  8
0
100
AcDbPolygonMesh
 66
     1
 10
0.0
 20
0.0
 30
0.0
 70
    16
 71
     6
 72
     3
  0
VERTEX
  5
65362
100
AcDbEntity
  8
0
100
AcDbVertex
100
AcDbPolygonMeshVertex
 10
0.78271
 20
-0.894486
 30
3.332
 70
    64
  0
VERTEX
  5
65363
100
AcDbEntity
  8
0
100
AcDbVertex
100
AcDbPolygonMeshVertex
 10
0.78271
 20
-0.894486
 30
3.116
 70
    64
  0
VERTEX
  5
65364
100
AcDbEntity
  8
0
100
AcDbVertex
100
AcDbPolygonMeshVertex
 10
0.78271
 20
-0.894486
 30
3.116
 70
    64
  0
VERTEX
  5
65365
100
AcDbEntity
  8
0
100
AcDbVertex
100
AcDbPolygonMeshVertex
 10
0.64771
 20
-0.894486
 30
3.332
 70
    64
  0
VERTEX
  5
65366
100
AcDbEntity
  8
0
100
AcDbVertex
100
AcDbPolygonMeshVertex
 10
0.64771
 20
-0.894486
 30
3.116
 70
    64
  0
VERTEX
  5
65367
100
AcDbEntity
  8
0
100
AcDbVertex
100
AcDbPolygonMeshVertex
 10
0.64771
 20
-0.894486
 30
3.116
 70
    64
  0
VERTEX
  5
65368
100
AcDbEntity
  8
0
100
AcDbVertex
100
AcDbPolygonMeshVertex
 10
0.64771
 20
-0.549486
 30
3.332
 70
    64
  0
VERTEX
  5
65369
100
AcDbEntity
  8
0
100
AcDbVertex
100
AcDbPolygonMeshVertex
 10
0.64771
 20
-0.549486
 30
3.116
 70
    64
  0
VERTEX
  5
6536A
100
AcDbEntity
  8
0
100
AcDbVertex
100
AcDbPolygonMeshVertex
 10
0.64771
 20
-0.894486
 30
3.116
 70
    64
  0
VERTEX
  5
6536B
100
AcDbEntity
  8
0
100
AcDbVertex
100
AcDbPolygonMeshVertex
 10
0.78271
 20
-0.549486
 30
3.332
 70
    64
  0
VERTEX
  5
6536C
100
AcDbEntity
  8
0
100
AcDbVertex
100
AcDbPolygonMeshVertex
 10
0.78271
 20
-0.549486
 30
3.116
 70
    64
  0
VERTEX
  5
6536D
100
AcDbEntity
  8
0
100
AcDbVertex
100
AcDbPolygonMeshVertex
 10
0.78271
 20
-0.894486
 30
3.116
 70
    64
  0
VERTEX
  5
6536E
100
AcDbEntity
  8
0
100
AcDbVertex
100
AcDbPolygonMeshVertex
 10
0.78271
 20
-0.549486
 30
3.332
 70
    64
  0
VERTEX
  5
6536F
100
AcDbEntity
  8
0
100
AcDbVertex
100
AcDbPolygonMeshVertex
 10
0.78271
 20
-0.549486
 30
3.332
 70
    64
  0
VERTEX
  5
65370
100
AcDbEntity
  8
0
100
AcDbVertex
100
AcDbPolygonMeshVertex
 10
0.78271
 20
-0.894486
 30
3.332
 70
    64
  0
VERTEX
  5
65371
100
AcDbEntity
  8
0
100
AcDbVertex
100
AcDbPolygonMeshVertex
 10
0.64771
 20
-0.549486
 30
3.332
 70
    64
  0
VERTEX
  5
65372
100
AcDbEntity
  8
0
100
AcDbVertex
100
AcDbPolygonMeshVertex
 10
0.64771
 20
-0.549486
 30
3.332
 70
    64
  0
VERTEX
  5
65373
100
AcDbEntity
  8
0
100
AcDbVertex
100
AcDbPolygonMeshVertex
 10
0.64771
 20
-0.894486
 30
3.332
 70
    64
  0
SEQEND
  5
65374
100
AcDbEntity
  8
0
  0
CIRCLE
  5
65375
100
AcDbEntity
  8
0
100
AcDbCircle
 10
0.667835
 20
-1.58788
 30
3.082
 40
0.138
  0
TEXT
  5
65376
100
AcDbEntity
  8
0
100
AcDbText
 10
0.749732
 20
-1.819571
 30
3.082
 40
0.083465
  1
T2
100
AcDbText
  0
TEXT
  5
65377
100
AcDbEntity
  8
0
100
AcDbText
 10
0.968783
 20
-1.820413
 30
3.082
 40
0.083465
  1
6
100
AcDbText
  0
CIRCLE
  5
65378
100
AcDbEntity
  8
0
100
AcDbCircle
 10
1.097585
 20
-1.58788
 30
3.082
 40
0.138
  0
POLYLINE
  5
65379
100
AcDbEntity
  8
0
100
AcDbPolygonMesh
 66
     1
 10
0.0
 20
0.0
 30
0.0
 70
    16
 71
     6
 72
     3
  0
VERTEX
  5
6537A
100
AcDbEntity
  8
0
100
AcDbVertex
100
AcDbPolygonMeshVertex
 10
1.12271
 20
-0.894486
 30
3.116
 70
    64
  0
VERTEX
  5
6537B
100
AcDbEntity
  8
0
100
AcDbVertex
100
AcDbPolygonMeshVertex
 10
1.12271
 20
-0.894486
 30
3.082
 70
    64
  0
VERTEX
  5
6537C
100
AcDbEntity
  8
0
100
AcDbVertex
100
AcDbPolygonMeshVertex
 10
1.12271
 20
-0.894486
 30
3.082
 70
    64
  0
VERTEX
  5
6537D
100
AcDbEntity
  8
0
100
AcDbVertex
100
AcDbPolygonMeshVertex
 10
0.64771
 20
-0.894486
 30
3.116
 70
    64
  0
VERTEX
  5
6537E
100
AcDbEntity
  8
0
100
AcDbVertex
100
AcDbPolygonMeshVertex
 10
0.64771
 20
-0.894486
 30
3.082
 70
    64
  0
VERTEX
  5
6537F
100
AcDbEntity
  8
0
100
AcDbVertex
100
AcDbPolygonMeshVertex
 10
0.64771
 20
-0.894486
 30
3.082
 70
    64
  0
VERTEX
  5
65380
100
AcDbEntity
  8
0
100
AcDbVertex
100
AcDbPolygonMeshVertex
 10
0.64771
 20
-0.549486
 30
3.116
 70
    64
  0
VERTEX
  5
65381
100
AcDbEntity
  8
0
100
AcDbVertex
100
AcDbPolygonMeshVertex
 10
0.64771
 20
-0.549486
 30
3.082
 70
    64
  0
VERTEX
  5
65382
100
AcDbEntity
  8
0
100
AcDbVertex
100
AcDbPolygonMeshVertex
 10
0.64771
 20
-0.894486
 30
3.082
 70
    64
  0
VERTEX
  5
65383
100
AcDbEntity
  8
0
100
AcDbVertex
100
AcDbPolygonMeshVertex
 10
1.12271
 20
-0.549486
 30
3.116
 70
    64
  0
VERTEX
  5
65384
100
AcDbEntity
  8
0
100
AcDbVertex
100
AcDbPolygonMeshVertex
 10
1.12271
 20
-0.549486
 30
3.082
 70
    64
  0
VERTEX
  5
65385
100
AcDbEntity
  8
0
100
AcDbVertex
100
AcDbPolygonMeshVertex
 10
1.12271
 20
-0.894486
 30
3.082
 70
    64
  0
VERTEX
  5
65386
100
AcDbEntity
  8
0
100
AcDbVertex
100
AcDbPolygonMeshVertex
 10
1.12271
 20
-0.549486
 30
3.116
 70
    64
  0
VERTEX
  5
65387
100
AcDbEntity
  8
0
100
AcDbVertex
100
AcDbPolygonMeshVertex
 10
1.12271
 20
-0.549486
 30
3.116
 70
    64
  0
VERTEX
  5
65388
100
AcDbEntity
  8
0
100
AcDbVertex
100
AcDbPolygonMeshVertex
 10
1.12271
 20
-0.894486
 30
3.116
 70
    64
  0
VERTEX
  5
65389
100
AcDbEntity
  8
0
100
AcDbVertex
100
AcDbPolygonMeshVertex
 10
0.64771
 20
-0.549486
 30
3.116
 70
    64
  0
VERTEX
  5
6538A
100
AcDbEntity
  8
0
100
AcDbVertex
100
AcDbPolygonMeshVertex
 10
0.64771
 20
-0.549486
 30
3.116
 70
    64
  0
VERTEX
  5
6538B
100
AcDbEntity
  8
0
100
AcDbVertex
100
AcDbPolygonMeshVertex
 10
0.64771
 20
-0.894486
 30
3.116
 70
    64
  0
SEQEND
  5
6538C
100
AcDbEntity
  8
0
  0
TEXT
  5
6538D
100
AcDbEntity
  8
0
100
AcDbText
 10
1.168755
 20
-1.819002
 30
3.082
 40
0.083465
  1
T3
100
AcDbText
  0
TEXT
  5
6538E
100
AcDbEntity
  8
0
100
AcDbText
 10
0.325022
 20
-1.817525
 30
3.082
 40
0.083465
  1
T1
100
AcDbText
  0
CIRCLE
  5
6538F
100
AcDbEntity
  8
0
100
AcDbCircle
 10
0.238085
 20
-1.58788
 30
3.082
 40
0.138
  0
TEXT
  5
65390
100
AcDbEntity
  8
0
100
AcDbText
 10
0.080569
 20
-1.821552
 30
3.082
 40
0.083465
  1
2
100
AcDbText
  0
TEXT
  5
65391
100
AcDbEntity
  8
0
100
AcDbText
 10
1.598505
 20
-1.819002
 30
3.082
 40
0.083465
  1
T4
100
AcDbText
  0
TEXT
  5
65392
100
AcDbEntity
  8
0
100
AcDbText
 10
1.398533
 20
-1.820413
 30
3.082
 40
0.083465
  1
8
100
AcDbText
  0
CIRCLE
  5
65393
100
AcDbEntity
  8
0
100
AcDbCircle
 10
1.527335
 20
-1.58788
 30
3.082
 40
0.138
  0
LWPOLYLINE
  5
65394
100
AcDbEntity
  8
0
100
AcDbPolyline
 90
        2
 70
     0
 43
0.0
 38
2.06
 10
0.00021
 20
-1.8455
 10
0.00021
 20
0.3985
  0
POLYLINE
  5
65395
100
AcDbEntity
  8
0
100
AcDbPolygonMesh
 66
     1
 10
0.0
 20
0.0
 30
0.0
 70
    16
 71
     6
 72
     3
  0
VERTEX
  5
65396
100
AcDbEntity
  8
0
100
AcDbVertex
100
AcDbPolygonMeshVertex
 10
1.76521
 20
-1.8455
 30
3.082
 70
    64
  0
VERTEX
  5
65397
100
AcDbEntity
  8
0
100
AcDbVertex
100
AcDbPolygonMeshVertex
 10
1.76521
 20
-1.8455
 30
2.06
 70
    64
  0
VERTEX
  5
65398
100
AcDbEntity
  8
0
100
AcDbVertex
100
AcDbPolygonMeshVertex
 10
1.76521
 20
-1.8455
 30
2.06
 70
    64
  0
VERTEX
  5
65399
100
AcDbEntity
  8
0
100
AcDbVertex
100
AcDbPolygonMeshVertex
 10
0.00021
 20
-1.8455
 30
3.082
 70
    64
  0
VERTEX
  5
6539A
100
AcDbEntity
  8
0
100
AcDbVertex
100
AcDbPolygonMeshVertex
 10
0.00021
 20
-1.8455
 30
2.06
 70
    64
  0
VERTEX
  5
6539B
100
AcDbEntity
  8
0
100
AcDbVertex
100
AcDbPolygonMeshVertex
 10
0.00021
 20
-1.8455
 30
2.06
 70
    64
  0
VERTEX
  5
6539C
100
AcDbEntity
  8
0
100
AcDbVertex
100
AcDbPolygonMeshVertex
 10
0.00021
 20
0.3985
 30
3.082
 70
    64
  0
VERTEX
  5
6539D
100
AcDbEntity
  8
0
100
AcDbVertex
100
AcDbPolygonMeshVertex
 10
0.00021
 20
0.3985
 30
2.06
 70
    64
  0
VERTEX
  5
6539E
100
AcDbEntity
  8
0
100
AcDbVertex
100
AcDbPolygonMeshVertex
 10
0.00021
 20
-1.8455
 30
2.06
 70
    64
  0
VERTEX
  5
6539F
100
AcDbEntity
  8
0
100
AcDbVertex
100
AcDbPolygonMeshVertex
 10
1.76521
 20
0.3985
 30
3.082
 70
    64
  0
VERTEX
  5
653A0
100
AcDbEntity
  8
0
100
AcDbVertex
100
AcDbPolygonMeshVertex
 10
1.76521
 20
0.3985
 30
2.06
 70
    64
  0
VERTEX
  5
653A1
100
AcDbEntity
  8
0
100
AcDbVertex
100
AcDbPolygonMeshVertex
 10
1.76521
 20
-1.8455
 30
2.06
 70
    64
  0
VERTEX
  5
653A2
100
AcDbEntity
  8
0
100
AcDbVertex
100
AcDbPolygonMeshVertex
 10
1.76521
 20
0.3985
 30
3.082
 70
    64
  0
VERTEX
  5
653A3
100
AcDbEntity
  8
0
100
AcDbVertex
100
AcDbPolygonMeshVertex
 10
1.76521
 20
0.3985
 30
3.082
 70
    64
  0
VERTEX
  5
653A4
100
AcDbEntity
  8
0
100
AcDbVertex
100
AcDbPolygonMeshVertex
 10
1.76521
 20
-1.8455
 30
3.082
 70
    64
  0
VERTEX
  5
653A5
100
AcDbEntity
  8
0
100
AcDbVertex
100
AcDbPolygonMeshVertex
 10
0.00021
 20
0.3985
 30
3.082
 70
    64
  0
VERTEX
  5
653A6
100
AcDbEntity
  8
0
100
AcDbVertex
100
AcDbPolygonMeshVertex
 10
0.00021
 20
0.3985
 30
3.082
 70
    64
  0
VERTEX
  5
653A7
100
AcDbEntity
  8
0
100
AcDbVertex
100
AcDbPolygonMeshVertex
 10
0.00021
 20
-1.8455
 30
3.082
 70
    64
  0
SEQEND
  5
653A8
100
AcDbEntity
  8
0
  0
POLYLINE
  5
653A9
100
AcDbEntity
  8
0
100
AcDb3dPolyline
 66
     1
 10
0.0
 20
0.0
 30
0.0
 70
     8
  0
VERTEX
  5
653AA
100
AcDbEntity
  8
0
100
AcDbVertex
100
AcDb3dPolylineVertex
 10
1.765421
 20
-0.6405
 30
1.592
 70
    32
  0
VERTEX
  5
653AB
100
AcDbEntity
  8
0
100
AcDbVertex
100
AcDb3dPolylineVertex
 10
1.765421
 20
-0.6405
 30
2.165
 70
    32
  0
VERTEX
  5
653AC
100
AcDbEntity
  8
0
100
AcDbVertex
100
AcDb3dPolylineVertex
 10
1.765421
 20
-0.8065
 30
2.165
 70
    32
  0
VERTEX
  5
653AD
100
AcDbEntity
  8
0
100
AcDbVertex
100
AcDb3dPolylineVertex
 10
1.765421
 20
-0.8065
 30
1.592
 70
    32
  0
VERTEX
  5
653AE
100
AcDbEntity
  8
0
100
AcDbVertex
100
AcDb3dPolylineVertex
 10
1.765421
 20
-0.6405
 30
1.592
 70
    32
  0
SEQEND
  5
653AF
100
AcDbEntity
  8
0
  0
LINE
  5
653B0
100
AcDbEntity
  8
0
100
AcDbLine
 10
1.765421
 20
-0.8065
 30
1.8785
 11
1.765421
 21
-0.6405
 31
1.8785
  0
LINE
  5
653B1
100
AcDbEntity
  8
0
100
AcDbLine
 10
1.765421
 20
-0.8065
 30
2.0685
 11
1.765421
 21
-0.6405
 31
2.0685
  0
POINT
  5
653B2
100
AcDbEntity
  8
SNAP_POINTS
100
AcDbPoint
 10
0.88521
 20
-0.721986
 30
3.116
  0
POINT
  5
653B3
100
AcDbEntity
  8
SNAP_POINTS
100
AcDbPoint
 10
0.0
 20
-0.7735
 30
2.0685
  0
POINT
  5
653B4
100
AcDbEntity
  8
SNAP_POINTS
100
AcDbPoint
 10
1.765421
 20
-0.6735
 30
2.0685
  0
LINE
  5
653B5
100
AcDbEntity
  8
0
100
AcDbLine
 10
0.38771
 20
0.9585
 30
1.839
 11
0.38771
 21
0.9585
 31
1.639
  0
LINE
  5
653B6
100
AcDbEntity
  8
0
100
AcDbLine
 10
0.70471
 20
0.9585
 30
1.639
 11
0.38771
 21
0.9585
 31
1.639
  0
POINT
  5
653B7
100
AcDbEntity
  8
SNAP_POINTS
100
AcDbPoint
 10
0.70471
 20
0.9585
 30
1.639
  0
LINE
  5
653B8
100
AcDbEntity
  8
0
100
AcDbLine
 10
0.70471
 20
0.9585
 30
1.839
 11
0.70471
 21
0.9585
 31
1.639
  0
LINE
  5
653B9
100
AcDbEntity
  8
0
100
AcDbLine
 10
1.06571
 20
0.9585
 30
1.639
 11
1.38271
 21
0.9585
 31
1.639
  0
LINE
  5
653BA
100
AcDbEntity
  8
0
100
AcDbLine
 10
1.38271
 20
0.9585
 30
1.839
 11
1.38271
 21
0.9585
 31
1.639
  0
LINE
  5
653BB
100
AcDbEntity
  8
0
100
AcDbLine
 10
1.06571
 20
0.9585
 30
1.839
 11
1.38271
 21
0.9585
 31
1.839
  0
LINE
  5
653BC
100
AcDbEntity
  8
0
100
AcDbLine
 10
1.06571
 20
0.9585
 30
1.839
 11
1.06571
 21
0.9585
 31
1.639
  0
LINE
  5
653BD
100
AcDbEntity
  8
0
100
AcDbLine
 10
0.70471
 20
0.9585
 30
1.839
 11
0.38771
 21
0.9585
 31
1.839
  0
POINT
  5
653BE
100
AcDbEntity
  8
DIMS-MTG-HOLES
100
AcDbPoint
 10
0.19121
 20
-1.9345
 30
0.0
  0
POINT
  5
653BF
100
AcDbEntity
  8
DIMS-MTG-HOLES
100
AcDbPoint
 10
1.57121
 20
0.4255
 30
0.0
  0
LWPOLYLINE
  5
653C0
100
AcDbEntity
  8
0
100
AcDbPolyline
 90
        6
 70
     0
 43
0.0
 38
3.082
 10
0.258085
 20
-1.451337
 10
0.258085
 20
-1.56788
 10
0.318085
 20
-1.56788
 10
0.318085
 20
-1.60788
 10
0.258085
 20
-1.60788
 10
0.258085
 20
-1.724423
  0
LWPOLYLINE
  5
653C1
100
AcDbEntity
  8
0
100
AcDbPolyline
 90
        6
 70
     0
 43
0.0
 38
3.082
 10
0.218085
 20
-1.451337
 10
0.218085
 20
-1.56788
 10
0.158085
 20
-1.56788
 10
0.158085
 20
-1.60788
 10
0.218085
 20
-1.60788
 10
0.218085
 20
-1.724423
  0
LWPOLYLINE
  5
653C2
100
AcDbEntity
  8
0
100
AcDbPolyline
 90
        6
 70
     0
 43
0.0
 38
3.082
 10
0.687835
 20
-1.451337
 10
0.687835
 20
-1.56788
 10
0.747835
 20
-1.56788
 10
0.747835
 20
-1.60788
 10
0.687835
 20
-1.60788
 10
0.687835
 20
-1.724423
  0
LWPOLYLINE
  5
653C3
100
AcDbEntity
  8
0
100
AcDbPolyline
 90
        6
 70
     0
 43
0.0
 38
3.082
 10
0.647835
 20
-1.451337
 10
0.647835
 20
-1.56788
 10
0.587835
 20
-1.56788
 10
0.587835
 20
-1.60788
 10
0.647835
 20
-1.60788
 10
0.647835
 20
-1.724423
  0
LWPOLYLINE
  5
653C4
100
AcDbEntity
  8
0
100
AcDbPolyline
 90
        6
 70
     0
 43
0.0
 38
3.082
 10
1.117585
 20
-1.451337
 10
1.117585
 20
-1.56788
 10
1.177585
 20
-1.56788
 10
1.177585
 20
-1.60788
 10
1.117585
 20
-1.60788
 10
1.117585
 20
-1.724423
  0
LWPOLYLINE
  5
653C5
100
AcDbEntity
  8
0
100
AcDbPolyline
 90
        6
 70
     0
 43
0.0
 38
3.082
 10
1.077585
 20
-1.451337
 10
1.077585
 20
-1.56788
 10
1.017585
 20
-1.56788
 10
1.017585
 20
-1.60788
 10
1.077585
 20
-1.60788
 10
1.077585
 20
-1.724423
  0
LWPOLYLINE
  5
653C6
100
AcDbEntity
  8
0
100
AcDbPolyline
 90
        6
 70
     0
 43
0.0
 38
3.082
 10
1.547335
 20
-1.451337
 10
1.547335
 20
-1.56788
 10
1.607335
 20
-1.56788
 10
1.607335
 20
-1.60788
 10
1.547335
 20
-1.60788
 10
1.547335
 20
-1.724423
  0
LWPOLYLINE
  5
653C7
100
AcDbEntity
  8
0
100
AcDbPolyline
 90
        6
 70
     0
 43
0.0
 38
3.082
 10
1.507335
 20
-1.451337
 10
1.507335
 20
-1.56788
 10
1.447335
 20
-1.56788
 10
1.447335
 20
-1.60788
 10
1.507335
 20
-1.60788
 10
1.507335
 20
-1.724423
  0
CIRCLE
  5
653C8
100
AcDbEntity
  8
0
100
AcDbCircle
 10
1.527335
 20
0.154908
 30
3.082
 40
0.138
  0
CIRCLE
  5
653C9
100
AcDbEntity
  8
0
100
AcDbCircle
 10
0.667835
 20
0.154908
 30
3.082
 40
0.138
  0
LWPOLYLINE
  5
653CA
100
AcDbEntity
  8
0
100
AcDbPolyline
 90
        6
 70
     0
 43
0.0
 38
3.082
 10
0.647835
 20
0.291451
 10
0.647835
 20
0.174908
 10
0.587835
 20
0.174908
 10
0.587835
 20
0.134908
 10
0.647835
 20
0.134908
 10
0.647835
 20
0.018365
  0
LWPOLYLINE
  5
653CB
100
AcDbEntity
  8
0
100
AcDbPolyline
 90
        6
 70
     0
 43
0.0
 38
3.082
 10
0.687835
 20
0.291451
 10
0.687835
 20
0.174908
 10
0.747835
 20
0.174908
 10
0.747835
 20
0.134908
 10
0.687835
 20
0.134908
 10
0.687835
 20
0.018365
  0
LWPOLYLINE
  5
653CC
100
AcDbEntity
  8
0
100
AcDbPolyline
 90
        6
 70
     0
 43
0.0
 38
3.082
 10
1.077585
 20
0.291451
 10
1.077585
 20
0.174908
 10
1.017585
 20
0.174908
 10
1.017585
 20
0.134908
 10
1.077585
 20
0.134908
 10
1.077585
 20
0.018365
  0
CIRCLE
  5
653CD
100
AcDbEntity
  8
0
100
AcDbCircle
 10
1.097585
 20
0.154908
 30
3.082
 40
0.138
  0
LWPOLYLINE
  5
653CE
100
AcDbEntity
  8
0
100
AcDbPolyline
 90
        6
 70
     0
 43
0.0
 38
3.082
 10
1.117585
 20
0.291451
 10
1.117585
 20
0.174908
 10
1.177585
 20
0.174908
 10
1.177585
 20
0.134908
 10
1.117585
 20
0.134908
 10
1.117585
 20
0.018365
  0
LWPOLYLINE
  5
653CF
100
AcDbEntity
  8
0
100
AcDbPolyline
 90
        6
 70
     0
 43
0.0
 38
3.082
 10
1.507335
 20
0.291451
 10
1.507335
 20
0.174908
 10
1.447335
 20
0.174908
 10
1.447335
 20
0.134908
 10
1.507335
 20
0.134908
 10
1.507335
 20
0.018365
  0
LWPOLYLINE
  5
653D0
100
AcDbEntity
  8
0
100
AcDbPolyline
 90
        6
 70
     0
 43
0.0
 38
3.082
 10
1.547335
 20
0.291451
 10
1.547335
 20
0.174908
 10
1.607335
 20
0.174908
 10
1.607335
 20
0.134908
 10
1.547335
 20
0.134908
 10
1.547335
 20
0.018365
  0
LWPOLYLINE
  5
653D1
100
AcDbEntity
  8
0
100
AcDbPolyline
 90
        6
 70
     0
 43
0.0
 38
3.082
 10
0.258085
 20
0.291451
 10
0.258085
 20
0.174908
 10
0.318085
 20
0.174908
 10
0.318085
 20
0.134908
 10
0.258085
 20
0.134908
 10
0.258085
 20
0.018365
  0
CIRCLE
  5
653D2
100
AcDbEntity
  8
0
100
AcDbCircle
 10
0.238085
 20
0.154908
 30
3.082
 40
0.138
  0
LWPOLYLINE
  5
653D3
100
AcDbEntity
  8
0
100
AcDbPolyline
 90
        6
 70
     0
 43
0.0
 38
3.082
 10
0.218085
 20
0.291451
 10
0.218085
 20
0.174908
 10
0.158085
 20
0.174908
 10
0.158085
 20
0.134908
 10
0.218085
 20
0.134908
 10
0.218085
 20
0.018365
  0
LWPOLYLINE
  5
653D4
100
AcDbEntity
  8
0
100
AcDbPolyline
 90
        6
 70
     0
 43
0.0
 38
2.06
 10
0.56621
 20
0.858322
 10
0.56621
 20
0.76
 10
0.62621
 20
0.76
 10
0.62621
 20
0.72
 10
0.56621
 20
0.72
 10
0.56621
 20
0.621678
  0
LWPOLYLINE
  5
653D5
100
AcDbEntity
  8
0
100
AcDbPolyline
 90
        6
 70
     0
 43
0.0
 38
2.06
 10
0.52621
 20
0.858322
 10
0.52621
 20
0.76
 10
0.46621
 20
0.76
 10
0.46621
 20
0.72
 10
0.52621
 20
0.72
 10
0.52621
 20
0.621678
  0
LWPOLYLINE
  5
653D6
100
AcDbEntity
  8
0
100
AcDbPolyline
 90
        6
 70
     0
 43
0.0
 38
2.06
 10
1.20421
 20
0.858322
 10
1.20421
 20
0.76
 10
1.14421
 20
0.76
 10
1.14421
 20
0.72
 10
1.20421
 20
0.72
 10
1.20421
 20
0.621678
  0
LWPOLYLINE
  5
653D7
100
AcDbEntity
  8
0
100
AcDbPolyline
 90
        6
 70
     0
 43
0.0
 38
2.06
 10
1.24421
 20
0.858322
 10
1.24421
 20
0.76
 10
1.30421
 20
0.76
 10
1.30421
 20
0.72
 10
1.24421
 20
0.72
 10
1.24421
 20
0.621678
  0
DIMENSION
  5
653D8
100
AcDbEntity
  8
AREA1
100
AcDbDimension
  2
*D1
 10
-0.5609
 20
-2.2215
 30
0.0
 11
-0.5609
 21
-0.611989
 31
0.0
 70
   160
  3
ABECAD_3D
100
AcDbAlignedDimension
 13
0.33271
 23
0.9585
 33
1.386
 14
0.69971
 24
-2.2215
 34
1.386
 50
90.0
100
AcDbRotatedDimension
  0
DIMENSION
  5
653E6
100
AcDbEntity
  8
AREA1
100
AcDbDimension
  2
*D2
 10
1.76521
 20
1.379404
 30
0.0
 11
0.883387
 21
1.747125
 31
0.0
 70
   160
  3
ABECAD_3D
100
AcDbAlignedDimension
 13
0.00521
 23
0.7185
 33
0.0
 14
1.76521
 24
0.5745
 34
0.0
100
AcDbRotatedDimension
  0
LWPOLYLINE
  5
6540B
100
AcDbEntity
  8
SCALE
100
AcDbPolyline
 90
        4
 70
     1
 43
0.0
 10
0.332383
 20
-2.341779
 10
1.468012
 20
-2.341779
 10
1.468012
 20
-3.183388
 10
0.332383
 20
-3.183388
  0
LINE
  5
6540C
100
AcDbEntity
  8
SCALE
100
AcDbLine
 10
0.390381
 20
-2.721857
 30
0.0
 11
1.390381
 21
-2.721857
 31
0.0
  0
LINE
  5
6540D
100
AcDbEntity
  8
SCALE
100
AcDbLine
 10
0.390381
 20
-3.021857
 30
0.0
 11
0.784081
 21
-3.021857
 31
0.0
  0
LINE
  5
6540E
100
AcDbEntity
  8
SCALE
100
AcDbLine
 10
0.390381
 20
-2.821857
 30
0.0
 11
0.390381
 21
-2.621857
 31
0.0
  0
TEXT
  5
6540F
100
AcDbEntity
  8
SCALE
100
AcDbText
 10
0.446357
 20
-2.974172
 30
0.0
 40
0.0625
  1
[10mm]
100
AcDbText
  0
LINE
  5
65410
100
AcDbEntity
  8
SCALE
100
AcDbLine
 10
0.390381
 20
-3.121857
 30
0.0
 11
0.390381
 21
-2.921857
 31
0.0
  0
TEXT
  5
65411
100
AcDbEntity
  8
SCALE
100
AcDbText
 10
0.391912
 20
-2.44698
 30
0.0
 40
0.0625
  1
SCALE:
100
AcDbText
  0
LINE
  5
65412
100
AcDbEntity
  8
SCALE
100
AcDbLine
 10
0.784081
 20
-3.121857
 30
0.0
 11
0.784081
 21
-2.921857
 31
0.0
  0
TEXT
  5
65413
100
AcDbEntity
  8
SCALE
100
AcDbText
 10
0.753664
 20
-2.652808
 30
0.0
 40
0.0625
  1
1 Inch
100
AcDbText
  0
LINE
  5
65414
100
AcDbEntity
  8
SCALE
100
AcDbLine
 10
1.390381
 20
-2.721857
 30
0.0
 11
1.390381
 21
-2.821857
 31
0.0
  0
LINE
  5
65415
100
AcDbEntity
  8
SCALE
100
AcDbLine
 10
1.390381
 20
-2.821857
 30
0.0
 11
1.390381
 21
-2.621857
 31
0.0
  0
VIEWPORT
  5
5677D
102
{ACAD_XDICTIONARY
360
654AE
102
}
100
AcDbEntity
 67
     1
  8
0
100
AcDbViewport
 10
5.25
 20
4.0
 30
0.0
 40
16.386862
 41
8.993
 68
    -1
 69
     1
1001
ACAD
1000
MVIEW
1002
{
1070
    16
1010
0.0
1020
0.0
1030
0.0
1010
0.0
1020
0.0
1030
1.0
1040
0.0
1040
8.993
1040
5.25
1040
4.0
1040
50.0
1040
0.0
1040
0.0
1070
     0
1070
 20000
1070
     1
1070
     1
1070
     0
1070
     0
1070
     0
1070
     0
1040
0.0
1040
0.0
1040
0.0
1040
0.5
1040
0.5
1040
0.5
1040
0.5
1070
     0
1002
{
1002
}
1002
}
  0
VIEWPORT
  5
5677F
102
{ACAD_XDICTIONARY
360
654B0
102
}
100
AcDbEntity
 67
     1
  8
AREA1
100
AcDbViewport
 10
5.25
 20
4.0
 30
0.0
 40
8.4
 41
6.4
 68
     1
 69
     2
1001
ACAD
1000
MVIEW
1002
{
1070
    16
1010
0.563444
1020
-0.880137
1030
1.686493
1010
0.0
1020
0.0
1030
1.0
1040
0.0
1040
4.582914
1040
-1.017175
1040
0.747813
1040
50.0
1040
0.0
1040
0.0
1070
     0
1070
 20000
1070
     1
1070
     1
1070
     0
1070
     0
1070
     0
1070
     0
1040
0.0
1040
0.0
1040
0.0
1040
0.25
1040
0.25
1040
0.25
1040
0.25
1070
     0
1002
{
1002
}
1002
}
  0
ENDSEC
  0
SECTION
  2
OBJECTS
  0
DICTIONARY
  5
458CB
100
AcDbDictionary
  3
ACAD_GROUP
350
458CC
  3
ACAD_LAYOUT
350
458FB
  3
ACAD_MLINESTYLE
350
458D9
  3
ACAD_PLOTSETTINGS
350
458FC
  3
ACAD_PLOTSTYLENAME
350
458F9
  3
ACDBHEADERROUNDTRIPXREC
350
65485
  3
ACDBVARIABLEDICTIONARY
350
458E1
  3
DWGPROPS
350
45901
  0
DICTIONARY
  5
65483
100
AcDbDictionary
280
     1
  3
ACAD_XREC_ROUNDTRIP
360
65484
  0
DICTIONARY
  5
654AC
100
AcDbDictionary
280
     1
  3
ACAD_XREC_ROUNDTRIP
360
654AD
  0
DICTIONARY
  5
65481
100
AcDbDictionary
280
     1
  3
ACAD_XREC_ROUNDTRIP
360
65482
  0
DICTIONARY
  5
654A8
100
AcDbDictionary
280
     1
  3
ACAD_XREC_ROUNDTRIP
360
654A9
  0
DICTIONARY
  5
4592C
100
AcDbDictionary
280
     1
  3
ACAD_LAYOUTSELFREF
360
654A7
  0
DICTIONARY
  5
4592A
100
AcDbDictionary
280
     1
  3
ACAD_LAYOUTSELFREF
360
654A6
  0
DICTIONARY
  5
654AE
100
AcDbDictionary
280
     1
  3
ACAD_XREC_ROUNDTRIP
360
654AF
  0
DICTIONARY
  5
654B0
100
AcDbDictionary
280
     1
  3
ACAD_XREC_ROUNDTRIP
360
654B1
  0
DICTIONARY
  5
458CC
102
{ACAD_REACTORS
330
458CB
102
}
100
AcDbDictionary
  0
DICTIONARY
  5
458FB
102
{ACAD_XDICTIONARY
360
654AA
102
}
102
{ACAD_REACTORS
330
458CB
102
}
100
AcDbDictionary
  3
LAYOUT1
350
458FE
  3
MODEL
350
458FD
  0
DICTIONARY
  5
458D9
102
{ACAD_REACTORS
330
458CB
102
}
100
AcDbDictionary
  3
STANDARD
350
458DA
  0
DICTIONARY
  5
458FC
102
{ACAD_REACTORS
330
458CB
102
}
100
AcDbDictionary
  0
ACAD_PROXY_OBJECT
  5
458F9
102
{ACAD_REACTORS
330
458CB
102
}
100
AcDbProxyObject
 90
      499
 91
      501
 93
       86
310
405010041939BDC9B585B0
350
458FA
340
458FA
 94
        0
  0
DICTIONARY
  5
65485
102
{ACAD_REACTORS
330
458CB
102
}
100
AcDbDictionary
  3
CEPSNTYPE
350
6548F
  3
DIMSTYLEDATA
350
65493
  3
FINGERPRINTGUID
350
65490
  3
HYPERLINKBASE
350
65488
  3
INSUNITS
350
6548E
  3
LAYOUTDICT
350
6548A
  3
LWETCUNION
350
6548D
  3
PLOTSETDICT
350
6548B
  3
PLOTSTYLNAMDICT
350
6548C
  3
PSVPSCALE
350
65492
  3
PUCSBASE
350
65496
  3
PUCSORGBACK
350
6549C
  3
PUCSORGBOTTOM
350
65498
  3
PUCSORGFRONT
350
6549B
  3
PUCSORGLEFT
350
65499
  3
PUCSORGRIGHT
350
6549A
  3
PUCSORGTOP
350
65497
  3
PUCSORTHOREF
350
65494
  3
PUCSORTHOVIEW
350
65495
  3
STYLESHEET
350
65489
  3
TSTACKALIGN
350
65486
  3
TSTACKSIZE
350
65487
  3
UCSBASE
350
6549F
  3
UCSORGBACK
350
654A5
  3
UCSORGBOTTOM
350
654A1
  3
UCSORGFRONT
350
654A4
  3
UCSORGLEFT
350
654A2
  3
UCSORGRIGHT
350
654A3
  3
UCSORGTOP
350
654A0
  3
UCSORTHOREF
350
6549D
  3
UCSORTHOVIEW
350
6549E
  3
VERSIONGUID
350
65491
  0
DICTIONARY
  5
458E1
102
{ACAD_REACTORS
330
458CB
102
}
100
AcDbDictionary
  3
DIMADEC
350
458E2
  0
XRECORD
  5
45901
102
{ACAD_REACTORS
330
458CB
102
}
100
AcDbXrecord
  1
DWGPROPS COOKIE
  2

  3

  4

  6

  7

  8
colin
  9

300
=
301
=
302
=
303
=
304
=
305
=
306
=
307
=
308
=
309
=
 40
0.000599
 41
2451670.444777
 42
2451670.445376
  1

 90
        0
  0
XRECORD
  5
65484
102
{ACAD_REACTORS
330
65483
102
}
100
AcDbXrecord
102
EXTNAMES
  1
*ACTIVE
  2
*Active
102
UCS
 74
     0
 71
     1
 10
0.0
 20
0.0
 30
0.0
 10
1.0
 20
0.0
 30
0.0
 10
0.0
 20
1.0
 30
0.0
146
0.0
 79
     1
102
VIEW
281
     1
  0
XRECORD
  5
654AD
102
{ACAD_REACTORS
330
654AC
102
}
100
AcDbXrecord
102
PLOTBIT
280
     0
  0
XRECORD
  5
65482
102
{ACAD_REACTORS
330
65481
102
}
100
AcDbXrecord
102
EXTNAMES
  1
DEFPOINTS
  2
Defpoints
102
PLOTBIT
280
     0
  0
XRECORD
  5
654A9
102
{ACAD_REACTORS
330
654A8
102
}
100
AcDbXrecord
102
ACADR14ROUNDTRIP
1000
DSTYLE
1002
{
1070
   276
 70
     2
1070
   277
 70
     5
1070
   279
 70
     2
1070
   289
 70
     2
1002
}
  0
XRECORD
  5
654A7
102
{ACAD_REACTORS
330
4592C
102
}
100
AcDbXrecord
340
458D6
  0
XRECORD
  5
654A6
102
{ACAD_REACTORS
330
4592A
102
}
100
AcDbXrecord
340
458D3
  0
XRECORD
  5
654AF
102
{ACAD_REACTORS
330
654AE
102
}
100
AcDbXrecord
102
UCS
 74
     0
 71
     1
 10
0.0
 20
0.0
 30
0.0
 10
1.0
 20
0.0
 30
0.0
 10
0.0
 20
1.0
 30
0.0
146
0.0
 79
     0
102
VIEW
281
     0
102
NEWVIEWCONTROL
280
     4
  0
XRECORD
  5
654B1
102
{ACAD_REACTORS
330
654B0
102
}
100
AcDbXrecord
102
UCS
 74
     0
 71
     1
 10
0.0
 20
0.0
 30
0.0
 10
1.0
 20
0.0
 30
0.0
 10
0.0
 20
1.0
 30
0.0
146
0.0
 79
     1
102
VIEW
281
     1
102
NEWVIEWCONTROL
280
     4
  0
DICTIONARY
  5
654AA
100
AcDbDictionary
280
     1
  3
ACAD_XREC_ROUNDTRIP
360
654AB
  0
ACAD_PROXY_OBJECT
  5
458FE
102
{ACAD_REACTORS
330
458FB
102
}
100
AcDbProxyObject
 90
      499
 91
      503
 93
     1700
310
90B6E6F6E655F6465766963652C0080000006066661940000000181999865000000000068661940000000001A1986500000000C0CCFC6A4000000018199D9C5011C4C65747465725F28382E35305F785F31312E30305F496E6368657329A901416AA547D11959985D5B1D08148C4D081C195B88185CDCDA59DB9B595B9D1CC
310
B98DD1891069074C61796F75743140501A840201008040342FEFF7FBFDFFFFF3EFDFAFF7FBFFDFC9501008043E3FDFC8102A6A6A0000003033333C0FC000000809999E93F8FFFFFF5766E622403FFFFFEBF333071020
330
458D3
330
5677D
340
0
340
0
 94
        0
  0
ACAD_PROXY_OBJECT
  5
458FD
102
{ACAD_REACTORS
330
458FB
102
}
100
AcDbProxyObject
 90
      499
 91
      503
 93
      924
310
91D4850204C617365724A65742035303030205365726965732050434C20362C01AAAAAAAAA547D11959985D5B1D08148C4D081C195B88185CDCDA59DB9B595B9D1CCB98DD18A69054D6F64656C901A800000000000000000000000000000000000000000000A1000000000000008902A6A6AAAA8
330
458D6
330
0
340
0
340
0
 94
        0
  0
MLINESTYLE
  5
458DA
102
{ACAD_REACTORS
330
458D9
102
}
100
AcDbMlineStyle
  2
STANDARD
 70
     0
  3

 62
   256
 51
90.0
 52
90.0
 71
     2
 49
0.5
 62
   256
  6
BYLAYER
 49
-0.5
 62
   256
  6
BYLAYER
  0
ACAD_PROXY_OBJECT
  5
458FA
102
{ACAD_REACTORS
330
458F9
102
}
100
AcDbProxyObject
 90
      499
 91
      502
 93
        0
 94
        0
  0
XRECORD
  5
6548F
102
{ACAD_REACTORS
330
65485
102
}
100
AcDbXrecord
 90
        0
  0
XRECORD
  5
65493
102
{ACAD_REACTORS
330
65485
102
}
100
AcDbXrecord
1000
DSTYLE
1002
{
1070
   276
 70
     2
1070
   277
 70
     5
1070
   279
 70
     2
1070
   289
 70
     2
1002
}
  0
XRECORD
  5
65490
102
{ACAD_REACTORS
330
65485
102
}
100
AcDbXrecord
  1
{6E0CF4B8-225E-11D4-A150-00A0CC3303EC}
  0
XRECORD
  5
65488
102
{ACAD_REACTORS
330
65485
102
}
100
AcDbXrecord
  1

  0
XRECORD
  5
6548E
102
{ACAD_REACTORS
330
65485
102
}
100
AcDbXrecord
 90
        0
  0
XRECORD
  5
6548A
102
{ACAD_REACTORS
330
65485
102
}
100
AcDbXrecord
340
458FB
  0
XRECORD
  5
6548D
102
{ACAD_REACTORS
330
65485
102
}
100
AcDbXrecord
 90
    14877
  0
XRECORD
  5
6548B
102
{ACAD_REACTORS
330
65485
102
}
100
AcDbXrecord
340
458FC
  0
XRECORD
  5
6548C
102
{ACAD_REACTORS
330
65485
102
}
100
AcDbXrecord
340
458F9
  0
XRECORD
  5
65492
102
{ACAD_REACTORS
330
65485
102
}
100
AcDbXrecord
 40
0.0
  0
XRECORD
  5
65496
102
{ACAD_REACTORS
330
65485
102
}
100
AcDbXrecord
340
0
  0
XRECORD
  5
6549C
102
{ACAD_REACTORS
330
65485
102
}
100
AcDbXrecord
 10
0.0
 20
0.0
 30
0.0
  0
XRECORD
  5
65498
102
{ACAD_REACTORS
330
65485
102
}
100
AcDbXrecord
 10
0.0
 20
0.0
 30
0.0
  0
XRECORD
  5
6549B
102
{ACAD_REACTORS
330
65485
102
}
100
AcDbXrecord
 10
0.0
 20
0.0
 30
0.0
  0
XRECORD
  5
65499
102
{ACAD_REACTORS
330
65485
102
}
100
AcDbXrecord
 10
0.0
 20
0.0
 30
0.0
  0
XRECORD
  5
6549A
102
{ACAD_REACTORS
330
65485
102
}
100
AcDbXrecord
 10
0.0
 20
0.0
 30
0.0
  0
XRECORD
  5
65497
102
{ACAD_REACTORS
330
65485
102
}
100
AcDbXrecord
 10
0.0
 20
0.0
 30
0.0
  0
XRECORD
  5
65494
102
{ACAD_REACTORS
330
65485
102
}
100
AcDbXrecord
340
0
  0
XRECORD
  5
65495
102
{ACAD_REACTORS
330
65485
102
}
100
AcDbXrecord
 70
     0
  0
XRECORD
  5
65489
102
{ACAD_REACTORS
330
65485
102
}
100
AcDbXrecord
  1

  0
XRECORD
  5
65486
102
{ACAD_REACTORS
330
65485
102
}
100
AcDbXrecord
 90
        1
  0
XRECORD
  5
65487
102
{ACAD_REACTORS
330
65485
102
}
100
AcDbXrecord
 90
       70
  0
XRECORD
  5
6549F
102
{ACAD_REACTORS
330
65485
102
}
100
AcDbXrecord
340
0
  0
XRECORD
  5
654A5
102
{ACAD_REACTORS
330
65485
102
}
100
AcDbXrecord
 10
0.0
 20
0.0
 30
0.0
  0
XRECORD
  5
654A1
102
{ACAD_REACTORS
330
65485
102
}
100
AcDbXrecord
 10
0.0
 20
0.0
 30
0.0
  0
XRECORD
  5
654A4
102
{ACAD_REACTORS
330
65485
102
}
100
AcDbXrecord
 10
0.0
 20
0.0
 30
0.0
  0
XRECORD
  5
654A2
102
{ACAD_REACTORS
330
65485
102
}
100
AcDbXrecord
 10
0.0
 20
0.0
 30
0.0
  0
XRECORD
  5
654A3
102
{ACAD_REACTORS
330
65485
102
}
100
AcDbXrecord
 10
0.0
 20
0.0
 30
0.0
  0
XRECORD
  5
654A0
102
{ACAD_REACTORS
330
65485
102
}
100
AcDbXrecord
 10
0.0
 20
0.0
 30
0.0
  0
XRECORD
  5
6549D
102
{ACAD_REACTORS
330
65485
102
}
100
AcDbXrecord
340
0
  0
XRECORD
  5
6549E
102
{ACAD_REACTORS
330
65485
102
}
100
AcDbXrecord
 70
     1
  0
XRECORD
  5
65491
102
{ACAD_REACTORS
330
65485
102
}
100
AcDbXrecord
  1
{62A4026E-9006-4B2B-A8C4-264876582F31}
  0
DICTIONARYVAR
  5
458E2
102
{ACAD_REACTORS
330
458E1
102
}
100
DictionaryVariables
280
     0
  1
0
  0
XRECORD
  5
654AB
102
{ACAD_REACTORS
330
654AA
102
}
100
AcDbXrecord
102
EXTNAMES
  1
LAYOUT1
  2
Layout1
  1
MODEL
  2
Model
  0
ENDSEC
  0
EOF
