  0
SECTION
  2
HEADER
  9
$ACADVER
  1
AC1021
  9
$ACADMAINTVER
 70
    50
  9
$DWGCODEPAGE
  3
ANSI_1252
  9
$LASTSAVEDBY
  1
ABSchul1
  9
$INSBASE
 10
0.0
 20
0.0
 30
0.0
  9
$EXTMIN
 10
-0.0006713354967829
 20
-0.0005187592475195
 30
-0.0015258207003583
  9
$EXTMAX
 10
22.00067143794227
 20
17.00051883840994
 30
0.0000000349246037
  9
$LIMMIN
 10
0.0
 20
0.0
  9
$LIMMAX
 10
22.0
 20
17.0
  9
$ORTHOMODE
 70
     0
  9
$REGENMODE
 70
     1
  9
$FILLMODE
 70
     1
  9
$QTEXTMODE
 70
     0
  9
$MIRRTEXT
 70
     0
  9
$LTSCALE
 40
1.209999999999999
  9
$ATTMODE
 70
     1
  9
$TEXTSIZE
 40
0.2
  9
$TRACEWID
 40
0.05
  9
$TEXTSTYLE
  7
STANDARD
  9
$CLAYER
  8
0
  9
$CELTYPE
  6
BYLAYER
  9
$CECOLOR
 62
   256
  9
$CELTSCALE
 40
1.0
  9
$DISPSILH
 70
     0
  9
$DIMSCALE
 40
1.0
  9
$DIMASZ
 40
0.1875
  9
$DIMEXO
 40
0.0625
  9
$DIMDLI
 40
0.38
  9
$DIMRND
 40
0.0
  9
$DIMDLE
 40
0.0
  9
$DIMEXE
 40
0.18
  9
$DIMTP
 40
0.0
  9
$DIMTM
 40
0.0
  9
$DIMTXT
 40
0.15625
  9
$DIMCEN
 40
0.09
  9
$DIMTSZ
 40
0.0
  9
$DIMTOL
 70
     0
  9
$DIMLIM
 70
     0
  9
$DIMTIH
 70
     1
  9
$DIMTOH
 70
     1
  9
$DIMSE1
 70
     0
  9
$DIMSE2
 70
     0
  9
$DIMTAD
 70
     0
  9
$DIMZIN
 70
     4
  9
$DIMBLK
  1
CLOSED
  9
$DIMASO
 70
     1
  9
$DIMSHO
 70
     1
  9
$DIMPOST
  1
\X
  9
$DIMAPOST
  1

  9
$DIMALT
 70
     1
  9
$DIMALTD
 70
     2
  9
$DIMALTF
 40
25.4
  9
$DIMLFAC
 40
1.0
  9
$DIMTOFL
 70
     0
  9
$DIMTVP
 40
0.0
  9
$DIMTIX
 70
     0
  9
$DIMSOXD
 70
     0
  9
$DIMSAH
 70
     0
  9
$DIMBLK1
  1

  9
$DIMBLK2
  1

  9
$DIMSTYLE
  2
DIMSTYLE_1
  9
$DIMCLRD
 70
     0
  9
$DIMCLRE
 70
     0
  9
$DIMCLRT
 70
     0
  9
$DIMTFAC
 40
1.0
  9
$DIMGAP
 40
0.09
  9
$DIMJUST
 70
     0
  9
$DIMSD1
 70
     0
  9
$DIMSD2
 70
     0
  9
$DIMTOLJ
 70
     1
  9
$DIMTZIN
 70
     4
  9
$DIMALTZ
 70
     0
  9
$DIMALTTZ
 70
     0
  9
$DIMUPT
 70
     0
  9
$DIMDEC
 70
     2
  9
$DIMTDEC
 70
     2
  9
$DIMALTU
 70
     2
  9
$DIMALTTD
 70
     2
  9
$DIMTXSTY
  7
STANDARD
  9
$DIMAUNIT
 70
     0
  9
$DIMADEC
 70
     0
  9
$DIMALTRND
 40
0.0
  9
$DIMAZIN
 70
     0
  9
$DIMDSEP
 70
    46
  9
$DIMATFIT
 70
     3
  9
$DIMFRAC
 70
     0
  9
$DIMLDRBLK
  1
CLOSED
  9
$DIMLUNIT
 70
     2
  9
$DIMLWD
 70
    -2
  9
$DIMLWE
 70
    -2
  9
$DIMTMOVE
 70
     0
  9
$DIMFXL
 40
1.0
  9
$DIMFXLON
 70
     0
  9
$DIMJOGANG
 40
0.7853981633974483
  9
$DIMTFILL
 70
     0
  9
$DIMTFILLCLR
 70
     0
  9
$DIMARCSYM
 70
     0
  9
$DIMLTYPE
  6

  9
$DIMLTEX1
  6

  9
$DIMLTEX2
  6

  9
$LUNITS
 70
     2
  9
$LUPREC
 70
     4
  9
$SKETCHINC
 40
0.1
  9
$FILLETRAD
 40
0.0
  9
$AUNITS
 70
     0
  9
$AUPREC
 70
     0
  9
$MENU
  1
.
  9
$ELEVATION
 40
0.0
  9
$PELEVATION
 40
0.0
  9
$THICKNESS
 40
0.0
  9
$LIMCHECK
 70
     0
  9
$CHAMFERA
 40
0.0
  9
$CHAMFERB
 40
0.0
  9
$CHAMFERC
 40
0.0
  9
$CHAMFERD
 40
0.0
  9
$SKPOLY
 70
     0
  9
$TDCREATE
 40
2456790.561300023
  9
$TDUCREATE
 40
2456790.769633357
  9
$TDUPDATE
 40
2456790.607846354
  9
$TDUUPDATE
 40
2456790.816179688
  9
$TDINDWG
 40
0.0465735995
  9
$TDUSRTIMER
 40
0.0465735995
  9
$USRTIMER
 70
     1
  9
$ANGBASE
 50
0.0
  9
$ANGDIR
 70
     0
  9
$PDMODE
 70
     3
  9
$PDSIZE
 40
0.3125
  9
$PLINEWID
 40
0.0
  9
$SPLFRAME
 70
     0
  9
$SPLINETYPE
 70
     6
  9
$SPLINESEGS
 70
     8
  9
$HANDSEED
  5
71B
  9
$SURFTAB1
 70
     6
  9
$SURFTAB2
 70
     6
  9
$SURFTYPE
 70
     6
  9
$SURFU
 70
     6
  9
$SURFV
 70
     6
  9
$UCSBASE
  2

  9
$UCSNAME
  2

  9
$UCSORG
 10
0.0
 20
0.0
 30
0.0
  9
$UCSXDIR
 10
1.0
 20
0.0
 30
0.0
  9
$UCSYDIR
 10
0.0
 20
1.0
 30
0.0
  9
$UCSORTHOREF
  2

  9
$UCSORTHOVIEW
 70
     0
  9
$UCSORGTOP
 10
0.0
 20
0.0
 30
0.0
  9
$UCSORGBOTTOM
 10
0.0
 20
0.0
 30
0.0
  9
$UCSORGLEFT
 10
0.0
 20
0.0
 30
0.0
  9
$UCSORGRIGHT
 10
0.0
 20
0.0
 30
0.0
  9
$UCSORGFRONT
 10
0.0
 20
0.0
 30
0.0
  9
$UCSORGBACK
 10
0.0
 20
0.0
 30
0.0
  9
$PUCSBASE
  2

  9
$PUCSNAME
  2

  9
$PUCSORG
 10
0.0
 20
0.0
 30
0.0
  9
$PUCSXDIR
 10
1.0
 20
0.0
 30
0.0
  9
$PUCSYDIR
 10
0.0
 20
1.0
 30
0.0
  9
$PUCSORTHOREF
  2

  9
$PUCSORTHOVIEW
 70
     0
  9
$PUCSORGTOP
 10
0.0
 20
0.0
 30
0.0
  9
$PUCSORGBOTTOM
 10
0.0
 20
0.0
 30
0.0
  9
$PUCSORGLEFT
 10
0.0
 20
0.0
 30
0.0
  9
$PUCSORGRIGHT
 10
0.0
 20
0.0
 30
0.0
  9
$PUCSORGFRONT
 10
0.0
 20
0.0
 30
0.0
  9
$PUCSORGBACK
 10
0.0
 20
0.0
 30
0.0
  9
$USERI1
 70
     0
  9
$USERI2
 70
     0
  9
$USERI3
 70
     0
  9
$USERI4
 70
     0
  9
$USERI5
 70
     0
  9
$USERR1
 40
0.0
  9
$USERR2
 40
0.0
  9
$USERR3
 40
0.0
  9
$USERR4
 40
0.0
  9
$USERR5
 40
0.0
  9
$WORLDVIEW
 70
     1
  9
$SHADEDGE
 70
     3
  9
$SHADEDIF
 70
    70
  9
$TILEMODE
 70
     1
  9
$MAXACTVP
 70
    64
  9
$PINSBASE
 10
0.0
 20
0.0
 30
0.0
  9
$PLIMCHECK
 70
     0
  9
$PEXTMIN
 10
1.000000000000000E+20
 20
1.000000000000000E+20
 30
1.000000000000000E+20
  9
$PEXTMAX
 10
-1.000000000000000E+20
 20
-1.000000000000000E+20
 30
-1.000000000000000E+20
  9
$PLIMMIN
 10
0.0
 20
0.0
  9
$PLIMMAX
 10
12.0
 20
9.0
  9
$UNITMODE
 70
     0
  9
$VISRETAIN
 70
     1
  9
$PLINEGEN
 70
     0
  9
$PSLTSCALE
 70
     1
  9
$TREEDEPTH
 70
  3020
  9
$CMLSTYLE
  2
Standard
  9
$CMLJUST
 70
     0
  9
$CMLSCALE
 40
1.0
  9
$PROXYGRAPHICS
 70
     1
  9
$MEASUREMENT
 70
     0
  9
$CELWEIGHT
370
    -1
  9
$ENDCAPS
280
     0
  9
$JOINSTYLE
280
     0
  9
$LWDISPLAY
290
     0
  9
$INSUNITS
 70
     1
  9
$HYPERLINKBASE
  1

  9
$STYLESHEET
  1

  9
$XEDIT
290
     1
  9
$CEPSNTYPE
380
     0
  9
$PSTYLEMODE
290
     1
  9
$FINGERPRINTGUID
  2
{7681EB28-E371-4FA2-B807-76FC1D4FA0B4}
  9
$VERSIONGUID
  2
{A662D63D-7243-4D8E-9A3F-5502D4C9F816}
  9
$EXTNAMES
290
     1
  9
$PSVPSCALE
 40
0.0
  9
$OLESTARTUP
290
     0
  9
$SORTENTS
280
   127
  9
$INDEXCTL
280
     0
  9
$HIDETEXT
280
     1
  9
$XCLIPFRAME
290
     0
  9
$HALOGAP
280
     0
  9
$OBSCOLOR
 70
   257
  9
$OBSLTYPE
280
     0
  9
$INTERSECTIONDISPLAY
280
     0
  9
$INTERSECTIONCOLOR
 70
   257
  9
$DIMASSOC
280
     2
  9
$PROJECTNAME
  1

  9
$CAMERADISPLAY
290
     0
  9
$LENSLENGTH
 40
50.0
  9
$CAMERAHEIGHT
 40
0.0
  9
$STEPSPERSEC
 40
2.0
  9
$STEPSIZE
 40
6.0
  9
$3DDWFPREC
 40
2.0
  9
$PSOLWIDTH
 40
0.25
  9
$PSOLHEIGHT
 40
4.0
  9
$LOFTANG1
 40
1.570796326794896
  9
$LOFTANG2
 40
1.570796326794896
  9
$LOFTMAG1
 40
0.0
  9
$LOFTMAG2
 40
0.0
  9
$LOFTPARAM
 70
     7
  9
$LOFTNORMALS
280
     1
  9
$LATITUDE
 40
37.795
  9
$LONGITUDE
 40
-122.394
  9
$NORTHDIRECTION
 40
0.0
  9
$TIMEZONE
 70
 -8000
  9
$LIGHTGLYPHDISPLAY
280
     1
  9
$TILEMODELIGHTSYNCH
280
     1
  9
$CMATERIAL
347
395
  9
$SOLIDHIST
280
     0
  9
$SHOWHIST
280
     1
  9
$DWFFRAME
280
     2
  9
$DGNFRAME
280
     0
  9
$REALWORLDSCALE
290
     1
  9
$INTERFERECOLOR
 62
     1
  9
$INTERFEREOBJVS
345
3B7
  9
$INTERFEREVPVS
346
3B4
  9
$CSHADOW
280
     0
  9
$SHADOWPLANELOCATION
 40
0.0
  0
ENDSEC
  0
SECTION
  2
CLASSES
  0
CLASS
  1
ACDBDICTIONARYWDFLT
  2
AcDbDictionaryWithDefault
  3
ObjectDBX Classes
 90
        0
 91
        1
280
     0
281
     0
  0
CLASS
  1
MATERIAL
  2
AcDbMaterial
  3
ObjectDBX Classes
 90
     1153
 91
        3
280
     0
281
     0
  0
CLASS
  1
VISUALSTYLE
  2
AcDbVisualStyle
  3
ObjectDBX Classes
 90
     4095
 91
       24
280
     0
281
     0
  0
CLASS
  1
TABLESTYLE
  2
AcDbTableStyle
  3
ObjectDBX Classes
 90
     4095
 91
        1
280
     0
281
     0
  0
CLASS
  1
SCALE
  2
AcDbScale
  3
ObjectDBX Classes
 90
     1153
 91
       17
280
     0
281
     0
  0
CLASS
  1
MLEADERSTYLE
  2
AcDbMLeaderStyle
  3
ACDB_MLEADERSTYLE_CLASS
 90
     4095
 91
        1
280
     0
281
     0
  0
CLASS
  1
ACDBSECTIONVIEWSTYLE
  2
AcDbSectionViewStyle
  3
ObjectDBX Classes
 90
     1025
 91
        1
280
     0
281
     0
  0
CLASS
  1
ACDBDETAILVIEWSTYLE
  2
AcDbDetailViewStyle
  3
ObjectDBX Classes
 90
     1025
 91
        1
280
     0
281
     0
  0
CLASS
  1
DICTIONARYVAR
  2
AcDbDictionaryVar
  3
ObjectDBX Classes
 90
        0
 91
       21
280
     0
281
     0
  0
CLASS
  1
CELLSTYLEMAP
  2
AcDbCellStyleMap
  3
ObjectDBX Classes
 90
     1152
 91
        1
280
     0
281
     0
  0
ENDSEC
  0
SECTION
  2
TABLES
  0
TABLE
  2
VPORT
  5
8
330
0
100
AcDbSymbolTable
 70
     1
  0
VPORT
  5
1F4
330
8
100
AcDbSymbolTableRecord
100
AcDbViewportTableRecord
  2
*ACTIVE
 70
     0
 10
0.0
 20
0.0
 11
1.0
 21
1.0
 12
11.00000005122274
 22
8.500000039581211
 13
0.0
 23
0.0
 14
1.0
 24
1.0
 15
0.0
 25
0.0
 16
0.0
 26
0.0
 36
1.0
 17
0.0
 27
0.0
 37
0.0
 40
17.14113961277979
 41
1.794277929155313
 42
50.0
 43
0.0
 44
0.0
 50
0.0
 51
0.0
 71
     0
 72
   100
 73
     1
 74
     1
 75
     0
 76
     0
 77
     0
 78
     0
281
     0
 65
     1
110
0.0
120
0.0
130
0.0
111
1.0
121
0.0
131
0.0
112
0.0
122
1.0
132
0.0
 79
     0
146
0.0
348
3B3
 60
     3
 61
     5
292
     1
282
     1
141
0.0
142
0.0
 63
   250
421
  3355443
1001
ACAD_NAV_VCDISPLAY
1070
     3
  0
ENDTAB
  0
TABLE
  2
LTYPE
  5
5
330
0
100
AcDbSymbolTable
 70
     7
  0
LTYPE
  5
14
330
5
100
AcDbSymbolTableRecord
100
AcDbLinetypeTableRecord
  2
BYBLOCK
 70
     0
  3

 72
    65
 73
     0
 40
0.0
  0
LTYPE
  5
15
330
5
100
AcDbSymbolTableRecord
100
AcDbLinetypeTableRecord
  2
BYLAYER
 70
     0
  3

 72
    65
 73
     0
 40
0.0
  0
LTYPE
  5
16
330
5
100
AcDbSymbolTableRecord
100
AcDbLinetypeTableRecord
  2
CONTINUOUS
 70
     0
  3
Solid line
 72
    65
 73
     0
 40
0.0
  0
LTYPE
  5
1F5
330
5
100
AcDbSymbolTableRecord
100
AcDbLinetypeTableRecord
  2
CENTER
 70
     0
  3
____ _ ____ _ ____ _ ____ _ ____ _ ____ _ ____
 72
    65
 73
     4
 40
0.6
 49
0.375
 74
     0
 49
-0.075
 74
     0
 49
0.075
 74
     0
 49
-0.075
 74
     0
  0
LTYPE
  5
1F6
330
5
100
AcDbSymbolTableRecord
100
AcDbLinetypeTableRecord
  2
HIDDEN
 70
     0
  3
- - - - - - - - - - - - - - - - - - - -
 72
    65
 73
     2
 40
0.2
 49
0.1
 74
     0
 49
-0.1
 74
     0
  0
LTYPE
  5
1F7
330
5
100
AcDbSymbolTableRecord
100
AcDbLinetypeTableRecord
  2
PHANTOM
 70
     0
  3
_____ _ _ _____ _ _ _____ _ _ _____
 72
    65
 73
     6
 40
0.8
 49
0.45
 74
     0
 49
-0.05
 74
     0
 49
0.1
 74
     0
 49
-0.05
 74
     0
 49
0.1
 74
     0
 49
-0.05
 74
     0
  0
LTYPE
  5
1F8
330
5
100
AcDbSymbolTableRecord
100
AcDbLinetypeTableRecord
  2
DOT
 70
     0
  3
. . . . . . . . . . . . . . . . . . . .
 72
    65
 73
     2
 40
0.2
 49
0.1
 74
     0
 49
-0.1
 74
     0
  0
LTYPE
  5
1F9
330
5
100
AcDbSymbolTableRecord
100
AcDbLinetypeTableRecord
  2
DASHED
 70
     0
  3
- - - - - - - - - - - - - - - - - - - -
 72
    65
 73
     2
 40
0.2
 49
0.1
 74
     0
 49
-0.1
 74
     0
  0
LTYPE
  5
3DE
330
5
100
AcDbSymbolTableRecord
100
AcDbLinetypeTableRecord
  2
PHANTOM2
 70
     0
  3
Phantom (.5x) ___ _ _ ___ _ _ ___ _ _ ___ _ _
 72
    65
 73
     6
 40
1.25
 49
0.625
 74
     0
 49
-0.125
 74
     0
 49
0.125
 74
     0
 49
-0.125
 74
     0
 49
0.125
 74
     0
 49
-0.125
 74
     0
  0
ENDTAB
  0
TABLE
  2
LAYER
  5
2
330
0
100
AcDbSymbolTable
 70
     6
  0
LAYER
  5
10
330
2
100
AcDbSymbolTableRecord
100
AcDbLayerTableRecord
  2
0
 70
     0
 62
     7
  6
CONTINUOUS
370
    -3
390
F
347
3A5
  0
LAYER
  5
1FA
330
2
100
AcDbSymbolTableRecord
100
AcDbLayerTableRecord
  2
DEFAULT_1
 70
     0
 62
     7
  6
CENTER
370
    -3
390
F
347
3A5
  0
LAYER
  5
1FB
330
2
100
AcDbSymbolTableRecord
100
AcDbLayerTableRecord
  2
DEFAULT_2
 70
     0
 62
     8
  6
HIDDEN
370
    -3
390
F
347
3A5
  0
LAYER
  5
1FC
330
2
100
AcDbSymbolTableRecord
100
AcDbLayerTableRecord
  2
DEFAULT_3
 70
     0
 62
     7
  6
PHANTOM
370
    -3
390
F
347
3A5
  0
LAYER
  5
1FD
330
2
100
AcDbSymbolTableRecord
100
AcDbLayerTableRecord
  2
CSYS_PART
 70
     0
 62
     7
  6
CONTINUOUS
370
    -3
390
F
347
3A5
  0
LAYER
  5
45F
330
2
100
AcDbSymbolTableRecord
100
AcDbLayerTableRecord
  2
Defpoints
 70
     0
 62
     7
  6
CONTINUOUS
290
     0
370
    -3
390
F
347
3A5
  0
ENDTAB
  0
TABLE
  2
STYLE
  5
3
330
0
100
AcDbSymbolTable
 70
     2
  0
STYLE
  5
11
330
3
100
AcDbSymbolTableRecord
100
AcDbTextStyleTableRecord
  2
STANDARD
 70
     0
 40
0.0
 41
0.8
 50
0.0
 71
     0
 42
0.2
  3
txt
  4

  0
STYLE
  5
1FE
330
3
100
AcDbSymbolTableRecord
100
AcDbTextStyleTableRecord
  2
TEXTSTYLE_1
 70
     0
 40
0.0
 41
0.8
 50
0.0
 71
     0
 42
0.2
  3
gdt
  4

  0
ENDTAB
  0
TABLE
  2
VIEW
  5
6
330
0
100
AcDbSymbolTable
 70
     0
  0
ENDTAB
  0
TABLE
  2
UCS
  5
7
330
0
100
AcDbSymbolTable
 70
     0
  0
ENDTAB
  0
TABLE
  2
APPID
  5
9
330
0
100
AcDbSymbolTable
 70
     6
  0
APPID
  5
1FF
330
9
100
AcDbSymbolTableRecord
100
AcDbRegAppTableRecord
  2
ACAD
 70
     0
  0
APPID
  5
514
330
9
100
AcDbSymbolTableRecord
100
AcDbRegAppTableRecord
  2
ACAD_DSTYLE_DIMJAG
 70
     0
  0
APPID
  5
515
330
9
100
AcDbSymbolTableRecord
100
AcDbRegAppTableRecord
  2
ACAD_DSTYLE_DIMTALN
 70
     0
  0
APPID
  5
608
330
9
100
AcDbSymbolTableRecord
100
AcDbRegAppTableRecord
  2
DCO15
 70
     0
  0
APPID
  5
60A
330
9
100
AcDbSymbolTableRecord
100
AcDbRegAppTableRecord
  2
ACAD_NAV_VCDISPLAY
 70
     0
  0
APPID
  5
71A
330
9
100
AcDbSymbolTableRecord
100
AcDbRegAppTableRecord
  2
ACAD_MLEADERVER
 70
     0
  0
ENDTAB
  0
TABLE
  2
DIMSTYLE
  5
A
330
0
100
AcDbSymbolTable
 70
     2
100
AcDbDimStyleTable
 71
     2
340
207
340
206
  0
DIMSTYLE
105
206
330
A
100
AcDbSymbolTableRecord
100
AcDbDimStyleTableRecord
  2
STANDARD
 70
     0
 41
0.1875
 47
0.05
 48
0.05
 78
     4
140
0.15625
271
     2
272
     2
284
     4
340
11
341
202
342
202
343
202
344
202
  0
DIMSTYLE
105
207
102
{ACAD_REACTORS
330
229
330
22B
330
22A
102
}
330
A
100
AcDbSymbolTableRecord
100
AcDbDimStyleTableRecord
  2
DIMSTYLE_1
 70
     0
  3
\X
 41
0.1875
 78
     4
140
0.15625
170
     1
271
     2
272
     2
284
     4
340
11
341
202
342
202
1001
ACAD_DSTYLE_DIMJAG
1070
   388
1040
1.5
1001
ACAD_DSTYLE_DIMTALN
1070
   392
1070
     0
  0
ENDTAB
  0
TABLE
  2
BLOCK_RECORD
  5
1
330
0
100
AcDbSymbolTable
 70
     4
  0
BLOCK_RECORD
  5
200
330
1
100
AcDbSymbolTableRecord
100
AcDbBlockTableRecord
  2
*Model_Space
340
390
 70
     0
280
     1
281
     0
  0
BLOCK_RECORD
  5
201
330
1
100
AcDbSymbolTableRecord
100
AcDbBlockTableRecord
  2
*Paper_Space
340
391
 70
     0
280
     1
281
     0
  0
BLOCK_RECORD
  5
202
330
1
100
AcDbSymbolTableRecord
100
AcDbBlockTableRecord
  2
_CLOSED
340
0
102
{BLKREFS
331
6C6
331
6C7
331
6D0
331
6D1
331
6DA
331
6DB
102
}
 70
     0
280
     1
281
     0
  0
BLOCK_RECORD
  5
203
330
1
100
AcDbSymbolTableRecord
100
AcDbBlockTableRecord
  2
*D1
340
0
 70
     0
280
     1
281
     0
  0
BLOCK_RECORD
  5
204
330
1
100
AcDbSymbolTableRecord
100
AcDbBlockTableRecord
  2
*D2
340
0
 70
     0
280
     1
281
     0
  0
BLOCK_RECORD
  5
205
330
1
100
AcDbSymbolTableRecord
100
AcDbBlockTableRecord
  2
*D3
340
0
 70
     0
280
     1
281
     0
  0
ENDTAB
  0
ENDSEC
  0
SECTION
  2
BLOCKS
  0
BLOCK
  5
20
330
200
100
AcDbEntity
  8
0
100
AcDbBlockBegin
  2
*Model_Space
 70
     0
 10
0.0
 20
0.0
 30
0.0
  3
*Model_Space
  1

  0
ENDBLK
  5
21
330
200
100
AcDbEntity
  8
0
100
AcDbBlockEnd
  0
BLOCK
  5
1C
330
201
100
AcDbEntity
 67
     1
  8
0
100
AcDbBlockBegin
  2
*Paper_Space
 70
     0
 10
0.0
 20
0.0
 30
0.0
  3
*Paper_Space
  1

  0
ENDBLK
  5
1D
330
201
100
AcDbEntity
 67
     1
  8
0
100
AcDbBlockEnd
  0
BLOCK
  5
208
330
202
100
AcDbEntity
  8
0
100
AcDbBlockBegin
  2
_CLOSED
 70
     0
 10
0.0
 20
0.0
 30
0.0
  3
_CLOSED
  1

  0
LINE
  5
209
330
202
100
AcDbEntity
  8
0
  6
ByBlock
 62
     0
100
AcDbLine
 10
0.0
 20
0.0
 30
0.0
 11
-1.0
 21
0.1666666667
 31
0.0
  0
LINE
  5
20A
330
202
100
AcDbEntity
  8
0
  6
ByBlock
 62
     0
100
AcDbLine
 10
-1.0
 20
0.1666666667
 30
0.0
 11
-1.0
 21
-0.1666666667
 31
0.0
  0
LINE
  5
20B
330
202
100
AcDbEntity
  8
0
  6
ByBlock
 62
     0
100
AcDbLine
 10
-1.0
 20
-0.1666666667
 30
0.0
 11
0.0
 21
0.0
 31
0.0
  0
LINE
  5
20C
330
202
100
AcDbEntity
  8
0
  6
ByBlock
 62
     0
100
AcDbLine
 10
-1.0
 20
0.0
 30
0.0
 11
0.0
 21
0.0
 31
0.0
  0
ENDBLK
  5
20D
330
202
100
AcDbEntity
  8
0
  6
ByBlock
 62
     0
100
AcDbBlockEnd
  0
BLOCK
  5
20E
330
203
100
AcDbEntity
  8
0
  6
Continuous
 62
     2
100
AcDbBlockBegin
  2
*D1
 70
     1
 10
0.0
 20
0.0
 30
0.0
  3
*D1
  1

  0
LINE
  5
6D6
330
203
100
AcDbEntity
  8
0
  6
Continuous
 62
     0
440
 16777216
370
    -2
100
AcDbLine
 10
6.105971587399361
 20
9.889266596367308
 30
0.0
 11
6.105971587399361
 21
11.2723440611673
 31
0.0
  0
LINE
  5
6D7
330
203
100
AcDbEntity
  8
0
  6
Continuous
 62
     0
440
 16777216
370
    -2
100
AcDbLine
 10
9.649398663099361
 20
9.913604624567307
 30
0.0
 11
9.649398663099361
 21
11.2723440611673
 31
0.0
  0
LINE
  5
6D8
330
203
100
AcDbEntity
  8
0
  6
Continuous
 62
     0
440
 16777216
370
    -2
100
AcDbLine
 10
6.293471587399361
 20
11.09234406116731
 30
0.0
 11
7.079351791966028
 21
11.09234406116731
 31
0.0
  0
LINE
  5
6D9
330
203
100
AcDbEntity
  8
0
  6
Continuous
 62
     0
440
 16777216
370
    -2
100
AcDbLine
 10
9.461898663099361
 20
11.09234406116731
 30
0.0
 11
8.426018458632695
 21
11.09234406116731
 31
0.0
  0
INSERT
  5
6DA
330
203
100
AcDbEntity
  8
0
  6
Continuous
 62
     0
440
 16777216
370
    -2
100
AcDbBlockReference
  2
_CLOSED
 10
6.105971587399361
 20
11.09234406116731
 30
0.0
 41
0.1875
 42
0.1875
 43
0.1875
 50
180.0
  0
INSERT
  5
6DB
330
203
100
AcDbEntity
  8
0
  6
Continuous
 62
     0
440
 16777216
370
    -2
100
AcDbBlockReference
  2
_CLOSED
 10
9.649398663099361
 20
11.09234406116731
 30
0.0
 41
0.1875
 42
0.1875
 43
0.1875
  0
MTEXT
  5
6DC
330
203
100
AcDbEntity
  8
0
  6
Continuous
 62
     0
440
 16777216
100
AcDbMText
 10
7.752685125299361
 20
11.42567739450064
 30
0.0
 40
0.25
 41
0.0
 46
0.0
 71
     2
 72
     1
  1
\A1;3.54\P [90.00]
 73
     1
 44
1.0
  0
POINT
  5
6DD
330
203
100
AcDbEntity
  8
Defpoints
  6
Continuous
 62
     0
440
 16777216
100
AcDbPoint
 10
6.105971587399361
 20
9.826766596367308
 30
0.0
  0
POINT
  5
6DE
330
203
100
AcDbEntity
  8
Defpoints
  6
Continuous
 62
     0
440
 16777216
100
AcDbPoint
 10
9.649398663099361
 20
9.851104624567307
 30
0.0
  0
POINT
  5
6DF
330
203
100
AcDbEntity
  8
Defpoints
  6
Continuous
 62
     0
440
 16777216
100
AcDbPoint
 10
9.649398663099361
 20
11.09234406116731
 30
0.0
  0
ENDBLK
  5
216
330
203
100
AcDbEntity
  8
0
  6
ByBlock
 62
     0
100
AcDbBlockEnd
  0
BLOCK
  5
217
330
204
100
AcDbEntity
  8
0
  6
Continuous
 62
     2
100
AcDbBlockBegin
  2
*D2
 70
     1
 10
0.0
 20
0.0
 30
0.0
  3
*D2
  1

  0
LINE
  5
6CC
330
204
100
AcDbEntity
  8
0
  6
Continuous
 62
     0
440
 16777216
370
    -2
100
AcDbLine
 10
15.25213527475704
 20
9.874039915167308
 30
0.0
 11
15.25213527475704
 21
11.2723440611673
 31
0.0
  0
LINE
  5
6CD
330
204
100
AcDbEntity
  8
0
  6
Continuous
 62
     0
440
 16777216
370
    -2
100
AcDbLine
 10
13.48048173145704
 20
9.883368004179445
 30
0.0
 11
13.48048173145704
 21
11.2723440611673
 31
0.0
  0
LINE
  5
6CE
330
204
100
AcDbEntity
  8
0
  6
Continuous
 62
     0
440
 16777216
370
    -2
100
AcDbLine
 10
13.66798173145704
 20
11.09234406116731
 30
0.0
 11
15.06463527475704
 21
11.09234406116731
 31
0.0
  0
LINE
  5
6CF
330
204
100
AcDbEntity
  8
0
  6
Continuous
 62
     0
440
 16777216
370
    -2
100
AcDbLine
 10
15.25213527475704
 20
11.09234406116731
 30
0.0
 11
15.43963527475704
 21
11.09234406116731
 31
0.0
  0
INSERT
  5
6D0
330
204
100
AcDbEntity
  8
0
  6
Continuous
 62
     0
440
 16777216
370
    -2
100
AcDbBlockReference
  2
_CLOSED
 10
13.48048173145704
 20
11.09234406116731
 30
0.0
 41
0.1875
 42
0.1875
 43
0.1875
 50
180.0
  0
INSERT
  5
6D1
330
204
100
AcDbEntity
  8
0
  6
Continuous
 62
     0
440
 16777216
370
    -2
100
AcDbBlockReference
  2
_CLOSED
 10
15.25213527475704
 20
11.09234406116731
 30
0.0
 41
0.1875
 42
0.1875
 43
0.1875
  0
MTEXT
  5
6D2
330
204
100
AcDbEntity
  8
0
  6
Continuous
 62
     0
440
 16777216
100
AcDbMText
 10
16.12963527475704
 20
11.42567739450064
 30
0.0
 40
0.25
 41
0.0
 46
0.0
 71
     2
 72
     1
  1
\A1;1.77\P [45.00]
 73
     1
 44
1.0
  0
POINT
  5
6D3
330
204
100
AcDbEntity
  8
Defpoints
  6
Continuous
 62
     0
440
 16777216
100
AcDbPoint
 10
15.25213527475704
 20
9.811539915167308
 30
0.0
  0
POINT
  5
6D4
330
204
100
AcDbEntity
  8
Defpoints
  6
Continuous
 62
     0
440
 16777216
100
AcDbPoint
 10
13.48048173145704
 20
9.820868004179445
 30
0.0
  0
POINT
  5
6D5
330
204
100
AcDbEntity
  8
Defpoints
  6
Continuous
 62
     0
440
 16777216
100
AcDbPoint
 10
13.48048173145704
 20
11.09234406116731
 30
0.0
  0
ENDBLK
  5
21F
330
204
100
AcDbEntity
  8
0
  6
ByBlock
 62
     0
100
AcDbBlockEnd
  0
BLOCK
  5
220
330
205
100
AcDbEntity
  8
0
  6
Continuous
 62
     2
100
AcDbBlockBegin
  2
*D3
 70
     1
 10
0.0
 20
0.0
 30
0.0
  3
*D3
  1

  0
LINE
  5
6C2
330
205
100
AcDbEntity
  8
0
  6
Continuous
 62
     0
440
 16777216
370
    -2
100
AcDbLine
 10
5.735939809999361
 20
9.811539915167308
 30
0.0
 11
3.475834176199362
 21
9.81153991516731
 31
0.0
  0
LINE
  5
6C3
330
205
100
AcDbEntity
  8
0
  6
Continuous
 62
     0
440
 16777216
370
    -2
100
AcDbLine
 10
5.831010232499362
 20
3.220988734067308
 30
0.0
 11
3.475834176199361
 21
3.220988734067308
 31
0.0
  0
LINE
  5
6C4
330
205
100
AcDbEntity
  8
0
  6
Continuous
 62
     0
440
 16777216
370
    -2
100
AcDbLine
 10
3.655834176199363
 20
9.62403991516731
 30
0.0
 11
3.655834176199362
 21
6.939597657900642
 31
0.0
  0
LINE
  5
6C5
330
205
100
AcDbEntity
  8
0
  6
Continuous
 62
     0
440
 16777216
370
    -2
100
AcDbLine
 10
3.655834176199361
 20
3.408488734067308
 30
0.0
 11
3.655834176199362
 21
6.092930991233974
 31
0.0
  0
INSERT
  5
6C6
330
205
100
AcDbEntity
  8
0
  6
Continuous
 62
     0
440
 16777216
370
    -2
100
AcDbBlockReference
  2
_CLOSED
 10
3.655834176199363
 20
9.81153991516731
 30
0.0
 41
0.1875
 42
0.1875
 43
0.1875
 50
90.0
  0
INSERT
  5
6C7
330
205
100
AcDbEntity
  8
0
  6
Continuous
 62
     0
440
 16777216
370
    -2
100
AcDbBlockReference
  2
_CLOSED
 10
3.655834176199361
 20
3.220988734067308
 30
0.0
 41
0.1875
 42
0.1875
 43
0.1875
 50
270.0
  0
MTEXT
  5
6C8
330
205
100
AcDbEntity
  8
0
  6
Continuous
 62
     0
440
 16777216
100
AcDbMText
 10
3.655834176199361
 20
6.849597657900642
 30
0.0
 40
0.25
 41
0.0
 46
0.0
 71
     2
 72
     1
  1
\A1;6.59\P [167.40]
 73
     1
 44
1.0
  0
POINT
  5
6C9
330
205
100
AcDbEntity
  8
Defpoints
  6
Continuous
 62
     0
440
 16777216
100
AcDbPoint
 10
5.798439809999361
 20
9.811539915167308
 30
0.0
  0
POINT
  5
6CA
330
205
100
AcDbEntity
  8
Defpoints
  6
Continuous
 62
     0
440
 16777216
100
AcDbPoint
 10
5.893510232499362
 20
3.220988734067308
 30
0.0
  0
POINT
  5
6CB
330
205
100
AcDbEntity
  8
Defpoints
  6
Continuous
 62
     0
440
 16777216
100
AcDbPoint
 10
3.655834176199361
 20
3.220988734067308
 30
0.0
  0
ENDBLK
  5
228
330
205
100
AcDbEntity
  8
0
  6
ByBlock
 62
     0
100
AcDbBlockEnd
  0
ENDSEC
  0
SECTION
  2
ENTITIES
  0
DIMENSION
  5
229
330
200
100
AcDbEntity
  8
0
  6
Continuous
100
AcDbDimension
  2
*D1
 10
9.649398663099361
 20
11.09234406116731
 30
0.0
 11
7.752685125299361
 21
11.09234406116731
 31
0.0
 70
   160
 71
     2
 42
3.5434270757
 73
     0
 74
     0
 75
     0
  3
DIMSTYLE_1
100
AcDbAlignedDimension
 13
6.105971587399361
 23
9.826766596367308
 33
0.0
 14
9.649398663099361
 24
9.851104624567307
 34
0.0
100
AcDbRotatedDimension
1001
ACAD
1000
DSTYLE
1002
{
1070
   140
1040
0.25
1070
    41
1040
0.1875
1002
}
  0
DIMENSION
  5
22A
330
200
100
AcDbEntity
  8
0
  6
Continuous
100
AcDbDimension
  2
*D2
 10
13.48048173145704
 20
11.09234406116731
 30
0.0
 11
16.12963527475704
 21
11.09234406116731
 31
0.0
 70
   160
 71
     2
 42
1.771653543300001
 73
     0
 74
     0
 75
     0
  3
DIMSTYLE_1
100
AcDbAlignedDimension
 13
15.25213527475704
 23
9.811539915167308
 33
0.0
 14
13.48048173145704
 24
9.820868004179445
 34
0.0
 50
180.0
100
AcDbRotatedDimension
1001
ACAD
1000
DSTYLE
1002
{
1070
   140
1040
0.25
1002
}
  0
DIMENSION
  5
22B
330
200
100
AcDbEntity
  8
0
  6
Continuous
100
AcDbDimension
  2
*D3
 10
3.655834176199361
 20
3.220988734067308
 30
0.0
 11
3.655834176199361
 21
6.516264324567309
 31
0.0
 70
   160
 71
     2
 42
6.5905511811
 73
     0
 74
     0
 75
     0
  3
DIMSTYLE_1
100
AcDbAlignedDimension
 13
5.798439809999361
 23
9.811539915167308
 33
0.0
 14
5.893510232499362
 24
3.220988734067308
 34
0.0
 50
270.0
100
AcDbRotatedDimension
1001
ACAD
1000
DSTYLE
1002
{
1070
   140
1040
0.25
1070
    41
1040
0.1875
1002
}
  0
LINE
  5
22C
330
200
100
AcDbEntity
  8
0
  6
Continuous
 62
     7
100
AcDbLine
 10
0.0
 20
0.0
 30
0.0
 11
0.0
 21
17.0
 31
0.0
  0
LINE
  5
22D
330
200
100
AcDbEntity
  8
0
  6
Continuous
 62
     7
100
AcDbLine
 10
0.0
 20
0.0
 30
0.0
 11
22.0
 21
0.0
 31
0.0
  0
LINE
  5
22E
330
200
100
AcDbEntity
  8
0
  6
Continuous
 62
     7
100
AcDbLine
 10
0.0
 20
17.0
 30
0.0
 11
22.0
 21
17.0
 31
0.0
  0
LINE
  5
22F
330
200
100
AcDbEntity
  8
0
  6
Continuous
 62
     7
100
AcDbLine
 10
22.0
 20
0.0
 30
0.0
 11
22.0
 21
17.0
 31
0.0
  0
LINE
  5
230
330
200
100
AcDbEntity
  8
0
  6
Continuous
100
AcDbLine
 10
6.228933119999362
 20
9.776946227867309
 30
0.0
 11
6.140586361099361
 21
9.688653287467307
 31
0.0
  0
LINE
  5
231
330
200
100
AcDbEntity
  8
0
  6
Continuous
100
AcDbLine
 10
6.140586361099361
 20
3.343875361767308
 30
0.0
 11
6.228933119999362
 21
3.255582421267308
 31
0.0
  0
LINE
  5
232
330
200
100
AcDbEntity
  8
0
  6
Continuous
100
AcDbLine
 10
6.270982558599361
 20
9.776946227867309
 30
0.0
 11
6.193290468699361
 21
9.688653287467307
 31
0.0
  0
LINE
  5
233
330
200
100
AcDbEntity
  8
0
  6
Continuous
100
AcDbLine
 10
6.25038977319936
 20
9.776946227867309
 30
0.0
 11
6.162150618399361
 21
9.688653287467307
 31
0.0
  0
LINE
  5
234
330
200
100
AcDbEntity
  8
0
  6
Continuous
100
AcDbLine
 10
6.312500575999361
 20
3.220988734067308
 30
0.0
 11
9.442869674599361
 21
3.220988734067308
 31
0.0
  0
LINE
  5
235
330
200
100
AcDbEntity
  8
0
  6
Continuous
100
AcDbLine
 10
6.228933119999362
 20
3.255582421267308
 30
0.0
 11
9.52643713059936
 21
3.255582421267308
 31
0.0
  0
LINE
  5
236
330
200
100
AcDbEntity
  8
0
  6
Continuous
100
AcDbLine
 10
6.162150618399361
 20
3.343875361767308
 30
0.0
 11
6.25038977319936
 21
3.255582421267308
 31
0.0
  0
LINE
  5
237
330
200
100
AcDbEntity
  8
0
  6
Continuous
100
AcDbLine
 10
6.193290468699361
 20
3.343875361767308
 30
0.0
 11
6.270982558599361
 21
3.255582421267308
 31
0.0
  0
LINE
  5
238
330
200
100
AcDbEntity
  8
0
  6
Continuous
100
AcDbLine
 10
6.140586361099361
 20
3.343875361767308
 30
0.0
 11
9.61478388939936
 21
3.343875361767308
 31
0.0
  0
LINE
  5
239
330
200
100
AcDbEntity
  8
0
  6
Continuous
100
AcDbLine
 10
6.105971587399361
 20
3.427391910667308
 30
0.0
 11
9.649398663099361
 21
3.427391910667308
 31
0.0
  0
LINE
  5
23A
330
200
100
AcDbEntity
  8
0
  6
Continuous
100
AcDbLine
 10
6.41607095199936
 20
8.772488546767307
 30
0.0
 11
6.458766414599361
 21
8.815184009367307
 31
0.0
  0
LINE
  5
23B
330
200
100
AcDbEntity
  8
0
  6
Continuous
100
AcDbLine
 10
6.105971587399361
 20
3.427391910667308
 30
0.0
 11
6.105971587399361
 21
9.605136738467308
 31
0.0
  0
LINE
  5
23C
330
200
100
AcDbEntity
  8
0
  6
Continuous
100
AcDbLine
 10
6.127578004699361
 20
3.427391910667308
 30
0.0
 11
6.127578004699361
 21
9.605136738467308
 31
0.0
  0
LINE
  5
23D
330
200
100
AcDbEntity
  8
0
  6
Continuous
100
AcDbLine
 10
6.162850256299361
 20
9.605136738467308
 30
0.0
 11
6.162850256299361
 21
3.427391910667308
 31
0.0
  0
LINE
  5
23E
330
200
100
AcDbEntity
  8
0
  6
Continuous
100
AcDbLine
 10
6.217433731699361
 20
7.285949363967308
 30
0.0
 11
6.217433731699361
 21
6.774138340367308
 31
0.0
  0
LINE
  5
23F
330
200
100
AcDbEntity
  8
0
  6
Continuous
100
AcDbLine
 10
6.217433731699361
 20
6.258390308867308
 30
0.0
 11
6.217433731699361
 21
5.746579285167308
 31
0.0
  0
LINE
  5
240
330
200
100
AcDbEntity
  8
0
  6
Continuous
100
AcDbLine
 10
6.225943243599362
 20
5.696919895867308
 30
0.0
 11
6.225943243599362
 21
6.307575052267308
 31
0.0
  0
LINE
  5
241
330
200
100
AcDbEntity
  8
0
  6
Continuous
100
AcDbLine
 10
6.225943243599362
 20
6.724478950967307
 30
0.0
 11
6.225943243599362
 21
7.335134107367307
 31
0.0
  0
LINE
  5
242
330
200
100
AcDbEntity
  8
0
  6
Continuous
100
AcDbLine
 10
6.237873333499361
 20
5.736736765567307
 30
0.0
 11
6.237873333499361
 21
6.252484797067308
 31
0.0
  0
LINE
  5
243
330
200
100
AcDbEntity
  8
0
  6
Continuous
100
AcDbLine
 10
6.253621364899361
 20
6.768232828467308
 30
0.0
 11
6.253621364899361
 21
7.283980859967307
 31
0.0
  0
LINE
  5
244
330
200
100
AcDbEntity
  8
0
  6
Continuous
100
AcDbLine
 10
6.271385912699361
 20
7.404121549867308
 30
0.0
 11
6.271385912699361
 21
7.348019826067307
 31
0.0
  0
LINE
  5
245
330
200
100
AcDbEntity
  8
0
  6
Continuous
100
AcDbLine
 10
6.321006615599361
 20
9.177681647367307
 30
0.0
 11
6.321006615599361
 21
8.280043852167308
 31
0.0
  0
LINE
  5
246
330
200
100
AcDbEntity
  8
0
  6
Continuous
100
AcDbLine
 10
6.322567014999362
 20
6.370659066167307
 30
0.0
 11
6.322567014999362
 21
6.405894858867307
 31
0.0
  0
LINE
  5
247
330
200
100
AcDbEntity
  8
0
  6
Continuous
100
AcDbLine
 10
6.322567014999362
 20
6.626624174967307
 30
0.0
 11
6.322567014999362
 21
6.656300182867308
 31
0.0
  0
LINE
  5
248
330
200
100
AcDbEntity
  8
0
  6
Continuous
100
AcDbLine
 10
6.338315046499361
 20
8.939492671067307
 30
0.0
 11
6.338315046499361
 21
9.093035978167309
 31
0.0
  0
LINE
  5
249
330
200
100
AcDbEntity
  8
0
  6
Continuous
100
AcDbLine
 10
6.369811109499361
 20
6.643576072667308
 30
0.0
 11
6.369811109499361
 21
6.616658025367307
 31
0.0
  0
LINE
  5
24A
330
200
100
AcDbEntity
  8
0
  6
Continuous
100
AcDbLine
 10
6.369811109499361
 20
6.415870623767307
 30
0.0
 11
6.369811109499361
 21
6.378469048967307
 31
0.0
  0
LINE
  5
24B
330
200
100
AcDbEntity
  8
0
  6
Continuous
100
AcDbLine
 10
6.392304867899361
 20
8.280043852167308
 30
0.0
 11
6.392304867899361
 21
9.177681647367307
 31
0.0
  0
LINE
  5
24C
330
200
100
AcDbEntity
  8
0
  6
Continuous
100
AcDbLine
 10
6.41607095199936
 20
9.177681647367307
 30
0.0
 11
6.41607095199936
 21
8.280043852167308
 31
0.0
  0
LINE
  5
24D
330
200
100
AcDbEntity
  8
0
  6
Continuous
100
AcDbLine
 10
6.483984337899361
 20
9.177681647367307
 30
0.0
 11
6.483984337899361
 21
8.280043852167308
 31
0.0
  0
LINE
  5
24E
330
200
100
AcDbEntity
  8
0
  6
Continuous
100
AcDbLine
 10
6.48736920439936
 20
8.280043852167308
 30
0.0
 11
6.48736920439936
 21
9.177681647367307
 31
0.0
  0
LINE
  5
24F
330
200
100
AcDbEntity
  8
0
  6
Continuous
100
AcDbLine
 10
6.511135288499361
 20
9.177681647367307
 30
0.0
 11
6.511135288499361
 21
8.280043852167308
 31
0.0
  0
LINE
  5
250
330
200
100
AcDbEntity
  8
0
  6
Continuous
100
AcDbLine
 10
6.582433540899361
 20
8.280043852167308
 30
0.0
 11
6.582433540899361
 21
9.177681647367307
 31
0.0
  0
LINE
  5
251
330
200
100
AcDbEntity
  8
0
  6
Continuous
100
AcDbLine
 10
6.375552912099362
 20
5.589098970267308
 30
0.0
 11
9.379817338499361
 21
5.589098970267308
 31
0.0
  0
LINE
  5
252
330
200
100
AcDbEntity
  8
0
  6
Continuous
100
AcDbLine
 10
9.37499643699936
 20
5.610752513567309
 30
0.0
 11
6.364625782099362
 21
5.610752513567309
 31
0.0
  0
LINE
  5
253
330
200
100
AcDbEntity
  8
0
  6
Continuous
100
AcDbLine
 10
6.225943243599362
 20
5.831224954467309
 30
0.0
 11
6.237873333499361
 21
5.831224954467309
 31
0.0
  0
LINE
  5
254
330
200
100
AcDbEntity
  8
0
  6
Continuous
100
AcDbLine
 10
9.501748885599361
 20
5.831224954467309
 30
0.0
 11
9.529427006999361
 21
5.831224954467309
 31
0.0
  0
LINE
  5
255
330
200
100
AcDbEntity
  8
0
  6
Continuous
100
AcDbLine
 10
7.641464652799362
 20
6.390280072567309
 30
0.0
 11
7.641464652799362
 21
6.415870623767307
 31
0.0
  0
LINE
  5
256
330
200
100
AcDbEntity
  8
0
  6
Continuous
100
AcDbLine
 10
7.641464652799362
 20
7.417839127767308
 30
0.0
 11
7.641464652799362
 21
7.443429678867309
 31
0.0
  0
LINE
  5
257
330
200
100
AcDbEntity
  8
0
  6
Continuous
100
AcDbLine
 10
6.225943243599362
 20
6.142248576567308
 30
0.0
 11
6.237873333499361
 21
6.142248576567308
 31
0.0
  0
LINE
  5
258
330
200
100
AcDbEntity
  8
0
  6
Continuous
100
AcDbLine
 10
9.501748885599361
 20
6.142248576567308
 30
0.0
 11
9.529427006999361
 21
6.142248576567308
 31
0.0
  0
LINE
  5
259
330
200
100
AcDbEntity
  8
0
  6
Continuous
100
AcDbLine
 10
6.534862509799362
 20
5.589098970267308
 30
0.0
 11
6.542927168499361
 21
5.594745905067307
 31
0.0
  0
LINE
  5
25A
330
200
100
AcDbEntity
  8
0
  6
Continuous
100
AcDbLine
 10
9.14657412049936
 20
7.417839127767308
 30
0.0
 11
9.183121215199362
 21
7.443429678867309
 31
0.0
  0
LINE
  5
25B
330
200
100
AcDbEntity
  8
0
  6
Continuous
100
AcDbLine
 10
6.364625782099362
 20
6.378469048967307
 30
0.0
 11
9.37499643699936
 21
6.378469048967307
 31
0.0
  0
LINE
  5
25C
330
200
100
AcDbEntity
  8
0
  6
Continuous
100
AcDbLine
 10
6.602094574099361
 20
6.390280072567309
 30
0.0
 11
7.641464652799362
 21
6.390280072567309
 31
0.0
  0
LINE
  5
25D
330
200
100
AcDbEntity
  8
0
  6
Continuous
100
AcDbLine
 10
8.783196936299361
 20
6.390280072567309
 30
0.0
 11
9.153275676499362
 21
6.390280072567309
 31
0.0
  0
LINE
  5
25E
330
200
100
AcDbEntity
  8
0
  6
Continuous
100
AcDbLine
 10
9.379817338499361
 20
6.415870623767307
 30
0.0
 11
6.375552912099362
 21
6.415870623767307
 31
0.0
  0
LINE
  5
25F
330
200
100
AcDbEntity
  8
0
  6
Continuous
100
AcDbLine
 10
6.537673824799361
 20
7.409965111967309
 30
0.0
 11
6.489881470199361
 21
7.443429678867309
 31
0.0
  0
LINE
  5
260
330
200
100
AcDbEntity
  8
0
  6
Continuous
100
AcDbLine
 10
6.583005475099361
 20
7.443429678867309
 30
0.0
 11
6.619552569799362
 21
7.417839127767308
 31
0.0
  0
LINE
  5
261
330
200
100
AcDbEntity
  8
0
  6
Continuous
100
AcDbLine
 10
9.219201514899362
 20
5.597545339667309
 30
0.0
 11
9.23126418059936
 21
5.589098970267308
 31
0.0
  0
LINE
  5
262
330
200
100
AcDbEntity
  8
0
  6
Continuous
100
AcDbLine
 10
7.462642627499361
 20
7.417839127767308
 30
0.0
 11
7.451780082999361
 21
7.443429678867309
 31
0.0
  0
LINE
  5
263
330
200
100
AcDbEntity
  8
0
  6
Continuous
100
AcDbLine
 10
7.50980664819936
 20
7.443429678867309
 30
0.0
 11
7.520669192699362
 21
7.417839127767308
 31
0.0
  0
LINE
  5
264
330
200
100
AcDbEntity
  8
0
  6
Continuous
100
AcDbLine
 10
9.26548878029936
 20
7.443429678867309
 30
0.0
 11
9.21769642579936
 21
7.409965111967309
 31
0.0
  0
LINE
  5
265
330
200
100
AcDbEntity
  8
0
  6
Continuous
100
AcDbLine
 10
6.375552912099362
 20
6.616658025367307
 30
0.0
 11
9.379817338499361
 21
6.616658025367307
 31
0.0
  0
LINE
  5
266
330
200
100
AcDbEntity
  8
0
  6
Continuous
100
AcDbLine
 10
9.390744468499361
 20
6.642248576567308
 30
0.0
 11
6.380373813599361
 21
6.642248576567308
 31
0.0
  0
LINE
  5
267
330
200
100
AcDbEntity
  8
0
  6
Continuous
100
AcDbLine
 10
9.529427006999361
 20
6.858784009567308
 30
0.0
 11
9.517496917099361
 21
6.858784009567308
 31
0.0
  0
LINE
  5
268
330
200
100
AcDbEntity
  8
0
  6
Continuous
100
AcDbLine
 10
6.253621364899361
 20
6.858784009567308
 30
0.0
 11
6.225943243599362
 21
6.858784009567308
 31
0.0
  0
LINE
  5
269
330
200
100
AcDbEntity
  8
0
  6
Continuous
100
AcDbLine
 10
6.225943243599362
 20
7.169807631667307
 30
0.0
 11
6.253621364899361
 21
7.169807631667307
 31
0.0
  0
LINE
  5
26A
330
200
100
AcDbEntity
  8
0
  6
Continuous
100
AcDbLine
 10
9.517496917099361
 20
7.169807631667307
 30
0.0
 11
9.529427006999361
 21
7.169807631667307
 31
0.0
  0
LINE
  5
26B
330
200
100
AcDbEntity
  8
0
  6
Continuous
100
AcDbLine
 10
8.783196936299361
 20
7.443429678867309
 30
0.0
 11
8.783196936299361
 21
7.417839127767308
 31
0.0
  0
LINE
  5
26C
330
200
100
AcDbEntity
  8
0
  6
Continuous
100
AcDbLine
 10
8.783196936299361
 20
6.415870623767307
 30
0.0
 11
8.783196936299361
 21
6.390280072567309
 31
0.0
  0
LINE
  5
26D
330
200
100
AcDbEntity
  8
0
  6
Continuous
100
AcDbLine
 10
6.380373813599361
 20
7.409965111967309
 30
0.0
 11
9.390744468499361
 21
7.409965111967309
 31
0.0
  0
LINE
  5
26E
330
200
100
AcDbEntity
  8
0
  6
Continuous
100
AcDbLine
 10
6.602094574099361
 20
7.417839127767308
 30
0.0
 11
7.641464652799362
 21
7.417839127767308
 31
0.0
  0
LINE
  5
26F
330
200
100
AcDbEntity
  8
0
  6
Continuous
100
AcDbLine
 10
8.783196936299361
 20
7.417839127767308
 30
0.0
 11
9.153275676499362
 21
7.417839127767308
 31
0.0
  0
LINE
  5
270
330
200
100
AcDbEntity
  8
0
  6
Continuous
100
AcDbLine
 10
9.379817338499361
 20
7.443429678867309
 30
0.0
 11
6.375552912099362
 21
7.443429678867309
 31
0.0
  0
LINE
  5
271
330
200
100
AcDbEntity
  8
0
  6
Continuous
100
AcDbLine
 10
9.172936709699362
 20
9.177681647367307
 30
0.0
 11
9.172936709699362
 21
8.280043852167308
 31
0.0
  0
LINE
  5
272
330
200
100
AcDbEntity
  8
0
  6
Continuous
100
AcDbLine
 10
9.24423496199936
 20
8.280043852167308
 30
0.0
 11
9.24423496199936
 21
9.177681647367307
 31
0.0
  0
LINE
  5
273
330
200
100
AcDbEntity
  8
0
  6
Continuous
100
AcDbLine
 10
9.268001046099362
 20
9.177681647367307
 30
0.0
 11
9.268001046099362
 21
8.280043852167308
 31
0.0
  0
LINE
  5
274
330
200
100
AcDbEntity
  8
0
  6
Continuous
100
AcDbLine
 10
9.271385912699361
 20
9.177681647367307
 30
0.0
 11
9.271385912699361
 21
8.280043852167308
 31
0.0
  0
LINE
  5
275
330
200
100
AcDbEntity
  8
0
  6
Continuous
100
AcDbLine
 10
9.339299298499362
 20
8.280043852167308
 30
0.0
 11
9.339299298499362
 21
9.177681647367307
 31
0.0
  0
LINE
  5
276
330
200
100
AcDbEntity
  8
0
  6
Continuous
100
AcDbLine
 10
9.36306538259936
 20
9.177681647367307
 30
0.0
 11
9.36306538259936
 21
8.280043852167308
 31
0.0
  0
LINE
  5
277
330
200
100
AcDbEntity
  8
0
  6
Continuous
100
AcDbLine
 10
9.385559140999362
 20
6.377139841867307
 30
0.0
 11
9.385559140999362
 21
6.415870623767307
 31
0.0
  0
LINE
  5
278
330
200
100
AcDbEntity
  8
0
  6
Continuous
100
AcDbLine
 10
9.385559140999362
 20
6.616658025367307
 30
0.0
 11
9.385559140999362
 21
6.642248576567308
 31
0.0
  0
LINE
  5
279
330
200
100
AcDbEntity
  8
0
  6
Continuous
100
AcDbLine
 10
9.41705520399936
 20
8.939492671067307
 30
0.0
 11
9.41705520399936
 21
9.093035978167309
 31
0.0
  0
LINE
  5
27A
330
200
100
AcDbEntity
  8
0
  6
Continuous
100
AcDbLine
 10
9.43280323549936
 20
6.650062364867308
 30
0.0
 11
9.43280323549936
 21
6.626651669867309
 31
0.0
  0
LINE
  5
27B
330
200
100
AcDbEntity
  8
0
  6
Continuous
100
AcDbLine
 10
9.43280323549936
 20
6.405904365067307
 30
0.0
 11
9.43280323549936
 21
6.364405613467308
 31
0.0
  0
LINE
  5
27C
330
200
100
AcDbEntity
  8
0
  6
Continuous
100
AcDbLine
 10
9.43436363499936
 20
8.280043852167308
 30
0.0
 11
9.43436363499936
 21
9.177681647367307
 31
0.0
  0
LINE
  5
27D
330
200
100
AcDbEntity
  8
0
  6
Continuous
100
AcDbLine
 10
9.483984337899361
 20
7.369116081067309
 30
0.0
 11
9.483984337899361
 21
7.403540667967307
 31
0.0
  0
LINE
  5
27E
330
200
100
AcDbEntity
  8
0
  6
Continuous
100
AcDbLine
 10
9.501748885599361
 20
6.252484797067308
 30
0.0
 11
9.501748885599361
 21
5.736736765567307
 31
0.0
  0
LINE
  5
27F
330
200
100
AcDbEntity
  8
0
  6
Continuous
100
AcDbLine
 10
9.50591217249936
 20
5.652136538967308
 30
0.0
 11
9.50591217249936
 21
5.653091601667307
 31
0.0
  0
LINE
  5
280
330
200
100
AcDbEntity
  8
0
  6
Continuous
100
AcDbLine
 10
9.517496917099361
 20
7.283980859967307
 30
0.0
 11
9.517496917099361
 21
6.768232828467308
 31
0.0
  0
LINE
  5
281
330
200
100
AcDbEntity
  8
0
  6
Continuous
100
AcDbLine
 10
9.529427006999361
 20
7.335948586167308
 30
0.0
 11
9.529427006999361
 21
6.724817362167309
 31
0.0
  0
LINE
  5
282
330
200
100
AcDbEntity
  8
0
  6
Continuous
100
AcDbLine
 10
9.529427006999361
 20
6.308389531067309
 30
0.0
 11
9.529427006999361
 21
5.697258307067308
 31
0.0
  0
LINE
  5
283
330
200
100
AcDbEntity
  8
0
  6
Continuous
100
AcDbLine
 10
9.53793651879936
 20
5.746579285167308
 30
0.0
 11
9.53793651879936
 21
6.258390308867308
 31
0.0
  0
LINE
  5
284
330
200
100
AcDbEntity
  8
0
  6
Continuous
100
AcDbLine
 10
9.53793651879936
 20
6.774138340367308
 30
0.0
 11
9.53793651879936
 21
7.285949363967308
 31
0.0
  0
LINE
  5
285
330
200
100
AcDbEntity
  8
0
  6
Continuous
100
AcDbLine
 10
9.59251999419936
 20
9.605136738467308
 30
0.0
 11
9.59251999419936
 21
3.427391910667308
 31
0.0
  0
LINE
  5
286
330
200
100
AcDbEntity
  8
0
  6
Continuous
100
AcDbLine
 10
9.62779224579936
 20
9.605136738467308
 30
0.0
 11
9.62779224579936
 21
3.427391910667308
 31
0.0
  0
LINE
  5
287
330
200
100
AcDbEntity
  8
0
  6
Continuous
100
AcDbLine
 10
9.649398663099361
 20
9.605136738467308
 30
0.0
 11
9.649398663099361
 21
3.427391910667308
 31
0.0
  0
LINE
  5
288
330
200
100
AcDbEntity
  8
0
  6
Continuous
100
AcDbLine
 10
9.420883552999361
 20
8.252484797067307
 30
0.0
 11
9.376359493299361
 21
8.252484797067307
 31
0.0
  0
LINE
  5
289
330
200
100
AcDbEntity
  8
0
  6
Continuous
100
AcDbLine
 10
9.325807517499361
 20
8.252484797067307
 30
0.0
 11
9.281680137099362
 21
8.252484797067307
 31
0.0
  0
LINE
  5
28A
330
200
100
AcDbEntity
  8
0
  6
Continuous
100
AcDbLine
 10
9.23078558929936
 20
8.252484797067307
 30
0.0
 11
9.186411961499361
 21
8.252484797067307
 31
0.0
  0
LINE
  5
28B
330
200
100
AcDbEntity
  8
0
  6
Continuous
100
AcDbLine
 10
6.568152727399361
 20
8.252484797067307
 30
0.0
 11
6.524960780899362
 21
8.252484797067307
 31
0.0
  0
LINE
  5
28C
330
200
100
AcDbEntity
  8
0
  6
Continuous
100
AcDbLine
 10
6.47375554329936
 20
8.252484797067307
 30
0.0
 11
6.429851691799361
 21
8.252484797067307
 31
0.0
  0
LINE
  5
28D
330
200
100
AcDbEntity
  8
0
  6
Continuous
100
AcDbLine
 10
6.379118832899361
 20
8.252484797067307
 30
0.0
 11
6.33460508939936
 21
8.252484797067307
 31
0.0
  0
LINE
  5
28E
330
200
100
AcDbEntity
  8
0
  6
Continuous
100
AcDbLine
 10
9.296603835899361
 20
8.815184009367307
 30
0.0
 11
9.339299298499362
 21
8.772488546767307
 31
0.0
  0
LINE
  5
28F
330
200
100
AcDbEntity
  8
0
  6
Continuous
100
AcDbLine
 10
9.649398663099361
 20
9.605136738467308
 30
0.0
 11
6.105971587399361
 21
9.605136738467308
 31
0.0
  0
LINE
  5
290
330
200
100
AcDbEntity
  8
0
  6
Continuous
100
AcDbLine
 10
6.140586361099361
 20
9.688653287467307
 30
0.0
 11
9.61478388939936
 21
9.688653287467307
 31
0.0
  0
LINE
  5
291
330
200
100
AcDbEntity
  8
0
  6
Continuous
100
AcDbLine
 10
6.228933119999362
 20
9.776946227867309
 30
0.0
 11
9.52643713059936
 21
9.776946227867309
 31
0.0
  0
LINE
  5
292
330
200
100
AcDbEntity
  8
0
  6
Continuous
100
AcDbLine
 10
9.48438769189936
 20
3.255582421267308
 30
0.0
 11
9.562079781799361
 21
3.343875361767308
 31
0.0
  0
LINE
  5
293
330
200
100
AcDbEntity
  8
0
  6
Continuous
100
AcDbLine
 10
9.504980477399362
 20
3.255582421267308
 30
0.0
 11
9.593219632099362
 21
3.343875361767308
 31
0.0
  0
LINE
  5
294
330
200
100
AcDbEntity
  8
0
  6
Continuous
100
AcDbLine
 10
9.52643713059936
 20
3.255582421267308
 30
0.0
 11
9.61478388939936
 21
3.343875361767308
 31
0.0
  0
LINE
  5
295
330
200
100
AcDbEntity
  8
0
  6
Continuous
100
AcDbLine
 10
9.442869674599361
 20
9.811539915167308
 30
0.0
 11
6.312500575999361
 21
9.811539915167308
 31
0.0
  0
LINE
  5
296
330
200
100
AcDbEntity
  8
0
  6
Continuous
100
AcDbLine
 10
9.61478388939936
 20
9.688653287467307
 30
0.0
 11
9.52643713059936
 21
9.776946227867309
 31
0.0
  0
LINE
  5
297
330
200
100
AcDbEntity
  8
0
  6
Continuous
100
AcDbLine
 10
9.593219632099362
 20
9.688653287467307
 30
0.0
 11
9.504980477399362
 21
9.776946227867309
 31
0.0
  0
LINE
  5
298
330
200
100
AcDbEntity
  8
0
  6
Continuous
100
AcDbLine
 10
9.48438769189936
 20
9.776946227867309
 30
0.0
 11
9.562079781799361
 21
9.688653287467307
 31
0.0
  0
LINE
  5
2AE
330
200
100
AcDbEntity
  8
0
  6
Continuous
100
AcDbLine
 10
13.68688490815704
 20
3.220988734067308
 30
0.0
 11
15.25213527475704
 21
3.220988734067308
 31
0.0
  0
LINE
  5
2AF
330
200
100
AcDbEntity
  8
0
  6
Continuous
100
AcDbLine
 10
13.60336835915704
 20
3.255582421267308
 30
0.0
 11
15.25213527475704
 21
3.255582421267308
 31
0.0
  0
LINE
  5
2B0
330
200
100
AcDbEntity
  8
0
  6
Continuous
100
AcDbLine
 10
15.31512740075704
 20
3.311539915167307
 30
0.0
 11
15.27575732205704
 21
3.311539915167307
 31
0.0
  0
LINE
  5
2B1
330
200
100
AcDbEntity
  8
0
  6
Continuous
100
AcDbLine
 10
13.51507541875704
 20
3.343875361767308
 30
0.0
 11
15.25213527475704
 21
3.343875361767308
 31
0.0
  0
LINE
  5
2B2
330
200
100
AcDbEntity
  8
0
  6
Continuous
100
AcDbLine
 10
13.48048173145704
 20
3.427391910667308
 30
0.0
 11
15.25213527475704
 21
3.427391910667308
 31
0.0
  0
LINE
  5
2B3
330
200
100
AcDbEntity
  8
0
  6
Continuous
100
AcDbLine
 10
15.31512740075704
 20
3.457209206467307
 30
0.0
 11
15.27575732205704
 21
3.457209206467307
 31
0.0
  0
LINE
  5
2B4
330
200
100
AcDbEntity
  8
0
  6
Continuous
100
AcDbLine
 10
13.60336835915704
 20
9.776946227867309
 30
0.0
 11
13.51507541875704
 21
9.688653287467307
 31
0.0
  0
LINE
  5
2B5
330
200
100
AcDbEntity
  8
0
  6
Continuous
100
AcDbLine
 10
13.60336835915704
 20
3.255582421267308
 30
0.0
 11
13.51507541875704
 21
3.343875361767308
 31
0.0
  0
LINE
  5
2B6
330
200
100
AcDbEntity
  8
0
  6
Continuous
100
AcDbLine
 10
15.27575732205704
 20
4.807602907267309
 30
0.0
 11
15.31512740075704
 21
4.807602907267309
 31
0.0
  0
LINE
  5
2B7
330
200
100
AcDbEntity
  8
0
  6
Continuous
100
AcDbLine
 10
14.56181257925704
 20
9.776946227867309
 30
0.0
 11
14.51986520145704
 21
9.688653287467307
 31
0.0
  0
LINE
  5
2B8
330
200
100
AcDbEntity
  8
0
  6
Continuous
100
AcDbLine
 10
14.56181257925704
 20
3.255582421267308
 30
0.0
 11
14.51986520145704
 21
3.343875361767308
 31
0.0
  0
LINE
  5
2B9
330
200
100
AcDbEntity
  8
0
  6
Continuous
100
AcDbLine
 10
13.48048173145704
 20
9.605136738467308
 30
0.0
 11
13.48048173145704
 21
7.443429678867309
 31
0.0
  0
LINE
  5
2BA
330
200
100
AcDbEntity
  8
0
  6
Continuous
100
AcDbLine
 10
13.48048173145704
 20
6.616658025367307
 30
0.0
 11
13.48048173145704
 21
6.415870623767307
 31
0.0
  0
LINE
  5
2BB
330
200
100
AcDbEntity
  8
0
  6
Continuous
100
AcDbLine
 10
13.48048173145704
 20
5.589098970267308
 30
0.0
 11
13.48048173145704
 21
3.427391910667308
 31
0.0
  0
LINE
  5
2BC
330
200
100
AcDbEntity
  8
0
  6
Continuous
100
AcDbLine
 10
13.51197779445704
 20
5.610752513567309
 30
0.0
 11
13.51197779445704
 21
6.378469048967307
 31
0.0
  0
LINE
  5
2BD
330
200
100
AcDbEntity
  8
0
  6
Continuous
100
AcDbLine
 10
13.51197779445704
 20
6.642248576567308
 30
0.0
 11
13.51197779445704
 21
7.409965111967309
 31
0.0
  0
LINE
  5
2BE
330
200
100
AcDbEntity
  8
0
  6
Continuous
100
AcDbLine
 10
13.48048173145704
 20
5.589098970267308
 30
0.0
 11
14.18773149695704
 21
5.589098970267308
 31
0.0
  0
LINE
  5
2BF
330
200
100
AcDbEntity
  8
0
  6
Continuous
100
AcDbLine
 10
14.22293069535704
 20
5.610752513567309
 30
0.0
 11
13.51197779445704
 21
5.610752513567309
 31
0.0
  0
LINE
  5
2C0
330
200
100
AcDbEntity
  8
0
  6
Continuous
100
AcDbLine
 10
13.97320364445704
 20
9.177681647367307
 30
0.0
 11
13.97320364445704
 21
8.280043852167308
 31
0.0
  0
LINE
  5
2C1
330
200
100
AcDbEntity
  8
0
  6
Continuous
100
AcDbLine
 10
14.03989908905703
 20
8.280043852167308
 30
0.0
 11
14.03989908905703
 21
9.177681647367307
 31
0.0
  0
LINE
  5
2C2
330
200
100
AcDbEntity
  8
0
  6
Continuous
100
AcDbLine
 10
14.06368108625704
 20
9.177681647367307
 30
0.0
 11
14.06368108625704
 21
8.280043852167308
 31
0.0
  0
LINE
  5
2C3
330
200
100
AcDbEntity
  8
0
  6
Continuous
100
AcDbLine
 10
14.07195756825704
 20
8.280043852167308
 30
0.0
 11
14.07195756825704
 21
9.177681647367307
 31
0.0
  0
LINE
  5
2C4
330
200
100
AcDbEntity
  8
0
  6
Continuous
100
AcDbLine
 10
14.14027809075704
 20
8.280043852167308
 30
0.0
 11
14.14027809075704
 21
9.177681647367307
 31
0.0
  0
LINE
  5
2C5
330
200
100
AcDbEntity
  8
0
  6
Continuous
100
AcDbLine
 10
14.16773787325704
 20
9.177681647367307
 30
0.0
 11
14.16773787325704
 21
8.280043852167308
 31
0.0
  0
LINE
  5
2C6
330
200
100
AcDbEntity
  8
0
  6
Continuous
100
AcDbLine
 10
14.21210920495704
 20
9.177681647367307
 30
0.0
 11
14.21210920495704
 21
8.280043852167308
 31
0.0
  0
LINE
  5
2C7
330
200
100
AcDbEntity
  8
0
  6
Continuous
100
AcDbLine
 10
14.25684717025704
 20
8.280043852167308
 30
0.0
 11
14.25684717025704
 21
9.177681647367307
 31
0.0
  0
LINE
  5
2C8
330
200
100
AcDbEntity
  8
0
  6
Continuous
100
AcDbLine
 10
14.39558582525704
 20
7.283980859967307
 30
0.0
 11
14.39558582525704
 21
6.768232828467308
 31
0.0
  0
LINE
  5
2C9
330
200
100
AcDbEntity
  8
0
  6
Continuous
100
AcDbLine
 10
14.39558582525704
 20
6.252484797067308
 30
0.0
 11
14.39558582525704
 21
5.736736765567307
 31
0.0
  0
LINE
  5
2CA
330
200
100
AcDbEntity
  8
0
  6
Continuous
100
AcDbLine
 10
14.40878095455704
 20
5.746579285167308
 30
0.0
 11
14.40878095455704
 21
6.258390308867308
 31
0.0
  0
LINE
  5
2CB
330
200
100
AcDbEntity
  8
0
  6
Continuous
100
AcDbLine
 10
14.40878095455704
 20
6.774138340367308
 30
0.0
 11
14.40878095455704
 21
7.285949363967308
 31
0.0
  0
LINE
  5
2CC
330
200
100
AcDbEntity
  8
0
  6
Continuous
100
AcDbLine
 10
13.51197779445704
 20
6.378469048967307
 30
0.0
 11
14.22293069535704
 21
6.378469048967307
 31
0.0
  0
LINE
  5
2CD
330
200
100
AcDbEntity
  8
0
  6
Continuous
100
AcDbLine
 10
14.18773149695704
 20
6.415870623767307
 30
0.0
 11
13.48048173145704
 21
6.415870623767307
 31
0.0
  0
LINE
  5
2CE
330
200
100
AcDbEntity
  8
0
  6
Continuous
100
AcDbLine
 10
14.63769711945704
 20
3.255582421267308
 30
0.0
 11
14.63461574025704
 21
3.343875361767308
 31
0.0
  0
LINE
  5
2CF
330
200
100
AcDbEntity
  8
0
  6
Continuous
100
AcDbLine
 10
14.50342997505704
 20
9.605136738467308
 30
0.0
 11
14.50342997505704
 21
3.427391910667308
 31
0.0
  0
LINE
  5
2D0
330
200
100
AcDbEntity
  8
0
  6
Continuous
100
AcDbLine
 10
14.63340843795704
 20
9.605136738467308
 30
0.0
 11
14.63340843795704
 21
3.427391910667308
 31
0.0
  0
LINE
  5
2D1
330
200
100
AcDbEntity
  8
0
  6
Continuous
100
AcDbLine
 10
14.63461574025704
 20
9.688653287467307
 30
0.0
 11
14.63769711945704
 21
9.776946227867309
 31
0.0
  0
LINE
  5
2D2
330
200
100
AcDbEntity
  8
0
  6
Continuous
100
AcDbLine
 10
13.48048173145704
 20
6.616658025367307
 30
0.0
 11
14.18773149695704
 21
6.616658025367307
 31
0.0
  0
LINE
  5
2D3
330
200
100
AcDbEntity
  8
0
  6
Continuous
100
AcDbLine
 10
14.22293069535704
 20
6.642248576567308
 30
0.0
 11
13.51197779445704
 21
6.642248576567308
 31
0.0
  0
LINE
  5
2D4
330
200
100
AcDbEntity
  8
0
  6
Continuous
100
AcDbLine
 10
15.25213527475704
 20
3.220988734067308
 30
0.0
 11
15.25213527475704
 21
9.811539915167308
 31
0.0
  0
LINE
  5
2D5
330
200
100
AcDbEntity
  8
0
  6
Continuous
100
AcDbLine
 10
15.27575732205704
 20
3.311539915167307
 30
0.0
 11
15.27575732205704
 21
9.689492671067307
 31
0.0
  0
LINE
  5
2D6
330
200
100
AcDbEntity
  8
0
  6
Continuous
100
AcDbLine
 10
15.31512740075704
 20
3.311539915167307
 30
0.0
 11
15.31512740075704
 21
4.807602907267309
 31
0.0
  0
LINE
  5
2D7
330
200
100
AcDbEntity
  8
0
  6
Continuous
100
AcDbLine
 10
15.31512740075704
 20
8.193429678867309
 30
0.0
 11
15.31512740075704
 21
9.689492671067307
 31
0.0
  0
LINE
  5
2D8
330
200
100
AcDbEntity
  8
0
  6
Continuous
100
AcDbLine
 10
13.51197779445704
 20
7.409965111967309
 30
0.0
 11
14.22293069535704
 21
7.409965111967309
 31
0.0
  0
LINE
  5
2D9
330
200
100
AcDbEntity
  8
0
  6
Continuous
100
AcDbLine
 10
14.18773149695704
 20
7.443429678867309
 30
0.0
 11
13.48048173145704
 21
7.443429678867309
 31
0.0
  0
LINE
  5
2DA
330
200
100
AcDbEntity
  8
0
  6
Continuous
100
AcDbLine
 10
15.31512740075704
 20
8.193429678867309
 30
0.0
 11
15.27575732205704
 21
8.193429678867309
 31
0.0
  0
LINE
  5
2DB
330
200
100
AcDbEntity
  8
0
  6
Continuous
100
AcDbLine
 10
14.21210920495704
 20
8.280043852167308
 30
0.0
 11
14.16773787325704
 21
8.280043852167308
 31
0.0
  0
LINE
  5
2DC
330
200
100
AcDbEntity
  8
0
  6
Continuous
100
AcDbLine
 10
14.14027809075704
 20
8.280043852167308
 30
0.0
 11
14.07195756825704
 21
8.280043852167308
 31
0.0
  0
LINE
  5
2DD
330
200
100
AcDbEntity
  8
0
  6
Continuous
100
AcDbLine
 10
14.07195756825704
 20
9.177681647367307
 30
0.0
 11
14.14027809075704
 21
9.177681647367307
 31
0.0
  0
LINE
  5
2DE
330
200
100
AcDbEntity
  8
0
  6
Continuous
100
AcDbLine
 10
14.16773787325704
 20
9.177681647367307
 30
0.0
 11
14.21210920495704
 21
9.177681647367307
 31
0.0
  0
LINE
  5
2DF
330
200
100
AcDbEntity
  8
0
  6
Continuous
100
AcDbLine
 10
15.27575732205704
 20
9.543823379667307
 30
0.0
 11
15.31512740075704
 21
9.543823379667307
 31
0.0
  0
LINE
  5
2E0
330
200
100
AcDbEntity
  8
0
  6
Continuous
100
AcDbLine
 10
15.25213527475704
 20
9.605136738467308
 30
0.0
 11
13.48048173145704
 21
9.605136738467308
 31
0.0
  0
LINE
  5
2E1
330
200
100
AcDbEntity
  8
0
  6
Continuous
100
AcDbLine
 10
13.51507541875704
 20
9.688653287467307
 30
0.0
 11
15.25213527475704
 21
9.688653287467307
 31
0.0
  0
LINE
  5
2E2
330
200
100
AcDbEntity
  8
0
  6
Continuous
100
AcDbLine
 10
15.27575732205704
 20
9.689492671067307
 30
0.0
 11
15.25213527475704
 21
9.689492671067307
 31
0.0
  0
LINE
  5
2E3
330
200
100
AcDbEntity
  8
0
  6
Continuous
100
AcDbLine
 10
15.27575732205704
 20
9.689492671067307
 30
0.0
 11
15.31512740075704
 21
9.689492671067307
 31
0.0
  0
LINE
  5
2E4
330
200
100
AcDbEntity
  8
0
  6
Continuous
100
AcDbLine
 10
13.60336835915704
 20
9.776946227867309
 30
0.0
 11
15.25213527475704
 21
9.776946227867309
 31
0.0
  0
LINE
  5
2E5
330
200
100
AcDbEntity
  8
0
  6
Continuous
100
AcDbLine
 10
15.25213527475704
 20
9.811539915167308
 30
0.0
 11
13.68688490815704
 21
9.811539915167308
 31
0.0
  0
ARC
  5
2E6
330
200
100
AcDbEntity
  8
0
  6
Continuous
100
AcDbCircle
 10
7.878137246699361
 20
6.500303507367307
 30
0.0
 40
0.5200801883000001
100
AcDbArc
 50
189.3734319485999
 51
192.2183889675999
  0
ARC
  5
2E7
330
200
100
AcDbEntity
  8
0
  6
Continuous
100
AcDbCircle
 10
7.876953435499361
 20
6.499980733167308
 30
0.0
 40
0.4716030066
100
AcDbArc
 50
190.3138825369
 51
193.4570751786
  0
ARC
  5
2E8
330
200
100
AcDbEntity
  8
0
  6
Continuous
100
AcDbCircle
 10
9.15243149649936
 20
5.760872758467309
 30
0.0
 40
0.2805099568
100
AcDbArc
 50
326.0681387857
 51
327.8338675513
  0
ARC
  5
2E9
330
200
100
AcDbEntity
  8
0
  6
Continuous
100
AcDbCircle
 10
6.602536581899361
 20
5.760607869467309
 30
0.0
 40
0.280028432
100
AcDbArc
 50
212.5802762938
 51
217.1651112112
  0
ARC
  5
2EA
330
200
100
AcDbEntity
  8
0
  6
Continuous
100
AcDbCircle
 10
9.153061878999361
 20
5.760444337367308
 30
0.0
 40
0.2797477797
100
AcDbArc
 50
322.8333431355
 51
326.0688716374001
  0
ARC
  5
2EB
330
200
100
AcDbEntity
  8
0
  6
Continuous
100
AcDbCircle
 10
9.153851190199361
 20
5.759855375167308
 30
0.0
 40
0.2787629793
100
AcDbArc
 50
322.1641148026
 51
322.8317979704
  0
ARC
  5
2EC
330
200
100
AcDbEntity
  8
0
  6
Continuous
100
AcDbCircle
 10
6.601519060299361
 20
5.759855375167308
 30
0.0
 40
0.2787629793
100
AcDbArc
 50
217.1682020296
 51
217.8358851974
  0
ARC
  5
2ED
330
200
100
AcDbEntity
  8
0
  6
Continuous
100
AcDbCircle
 10
6.601683985299361
 20
5.759325759767309
 30
0.0
 40
0.176059842
100
AcDbArc
 50
237.9123035218
 51
255.3670631493
  0
ARC
  5
2EE
330
200
100
AcDbEntity
  8
0
  6
Continuous
100
AcDbCircle
 10
9.153686265299361
 20
5.759325759767309
 30
0.0
 40
0.176059842
100
AcDbArc
 50
284.6329368507
 51
302.0876964782
  0
ARC
  5
2EF
330
200
100
AcDbEntity
  8
0
  6
Continuous
100
AcDbCircle
 10
6.420984006399361
 20
8.93946339276731
 30
0.0
 40
0.1298915075
100
AcDbArc
 50
219.0656586326
 51
257.2168103926999
  0
ARC
  5
2F0
330
200
100
AcDbEntity
  8
0
  6
Continuous
100
AcDbCircle
 10
9.334386244099361
 20
8.93946339276731
 30
0.0
 40
0.1298915075
100
AcDbArc
 50
282.7831896073
 51
320.9343413674
  0
ARC
  5
2F1
330
200
100
AcDbEntity
  8
0
  6
Continuous
100
AcDbCircle
 10
6.333984807399361
 20
9.693085125167309
 30
0.0
 40
0.118467536
100
AcDbArc
 50
97.54594511229996
 51
112.4817286172
  0
ARC
  5
2F2
330
200
100
AcDbEntity
  8
0
  6
Continuous
100
AcDbCircle
 10
6.333866013399362
 20
9.693412009467307
 30
0.0
 40
0.1181279061
100
AcDbArc
 50
90.00512546479999
 51
97.50964612719997
  0
ARC
  5
2F3
330
200
100
AcDbEntity
  8
0
  6
Continuous
100
AcDbCircle
 10
9.41087553179936
 20
3.312443211867307
 30
0.0
 40
0.0914544807
100
AcDbArc
 50
270.014400928
 51
276.5892398859
  0
ARC
  5
2F4
330
200
100
AcDbEntity
  8
0
  6
Continuous
100
AcDbCircle
 10
6.344494718699361
 20
9.720085437267307
 30
0.0
 40
0.0914544807
100
AcDbArc
 50
90.01440092790002
 51
96.58923988599999
  0
ARC
  5
2F5
330
200
100
AcDbEntity
  8
0
  6
Continuous
100
AcDbCircle
 10
9.410875019099361
 20
9.720105404167307
 30
0.0
 40
0.091434514
100
AcDbArc
 50
83.4119622565
 51
89.9852746466
  0
ARC
  5
2F6
330
200
100
AcDbEntity
  8
0
  6
Continuous
100
AcDbCircle
 10
6.344495231399361
 20
3.312423244967308
 30
0.0
 40
0.091434514
100
AcDbArc
 50
263.4119622565
 51
269.9852746466
  0
ARC
  5
2F7
330
200
100
AcDbEntity
  8
0
  6
Continuous
100
AcDbCircle
 10
9.333588066199361
 20
8.954221867367307
 30
0.0
 40
0.0896049946
100
AcDbArc
 50
86.3208320426
 51
89.49486436239999
  0
ARC
  5
2F8
330
200
100
AcDbEntity
  8
0
  6
Continuous
100
AcDbCircle
 10
6.42178027049936
 20
8.954239422767308
 30
0.0
 40
0.0895874231
100
AcDbArc
 50
90.50401064979999
 51
93.67865940189998
  0
ARC
  5
2F9
330
200
100
AcDbEntity
  8
0
  6
Continuous
100
AcDbCircle
 10
9.334761722399361
 20
9.092638867067307
 30
0.0
 40
0.0832226542
100
AcDbArc
 50
125.6572973582
 51
140.1075947898
  0
ARC
  5
2FA
330
200
100
AcDbEntity
  8
0
  6
Continuous
100
AcDbCircle
 10
6.42077255559936
 20
9.092795364267308
 30
0.0
 40
0.0829960933
100
AcDbArc
 50
36.5697390451
 51
53.9229368386
  0
ARC
  5
2FB
330
200
100
AcDbEntity
  8
0
  6
Continuous
100
AcDbCircle
 10
6.420782727899361
 20
8.939728560167308
 30
0.0
 40
0.0829850999
100
AcDbArc
 50
320.1436812584
 51
323.4285382245
  0
ARC
  5
2FC
330
200
100
AcDbEntity
  8
0
  6
Continuous
100
AcDbCircle
 10
9.334503039299361
 20
8.960959979967308
 30
0.0
 40
0.0828871265
100
AcDbArc
 50
140.1470433183
 51
143.448492955
  0
ARC
  5
2FD
330
200
100
AcDbEntity
  8
0
  6
Continuous
100
AcDbCircle
 10
6.42086767449936
 20
8.960960393267308
 30
0.0
 40
0.082886505
100
AcDbArc
 50
36.5509091952
 51
39.8526154969
  0
ARC
  5
2FE
330
200
100
AcDbEntity
  8
0
  6
Continuous
100
AcDbCircle
 10
9.334507623399362
 20
9.092869518167308
 30
0.0
 40
0.0828797703
100
AcDbArc
 50
140.1172740263
 51
143.3897675756
  0
ARC
  5
2FF
330
200
100
AcDbEntity
  8
0
  6
Continuous
100
AcDbCircle
 10
9.334378130399361
 20
9.093034790167308
 30
0.0
 40
0.0826773896
100
AcDbArc
 50
89.7737124534
 51
125.6012487249
  0
ARC
  5
300
330
200
100
AcDbEntity
  8
0
  6
Continuous
100
AcDbCircle
 10
6.420992390999361
 20
9.093035029967307
 30
0.0
 40
0.0826771495
100
AcDbArc
 50
53.9783461775
 51
89.77377236219998
  0
ARC
  5
301
330
200
100
AcDbEntity
  8
0
  6
Continuous
100
AcDbCircle
 10
9.334378601499361
 20
8.939488886367307
 30
0.0
 40
0.0826717417
100
AcDbArc
 50
216.6321451235
 51
273.436018738
  0
ARC
  5
302
330
200
100
AcDbEntity
  8
0
  6
Continuous
100
AcDbCircle
 10
6.42099440579936
 20
8.939481737867309
 30
0.0
 40
0.0826644424
100
AcDbArc
 50
266.5573305591999
 51
320.1809826821
  0
ARC
  5
303
330
200
100
AcDbEntity
  8
0
  6
Continuous
100
AcDbCircle
 10
6.42099721579936
 20
9.093381568267309
 30
0.0
 40
0.0823305949
100
AcDbArc
 50
89.77617780860001
 51
93.16294932979998
  0
ARC
  5
304
330
200
100
AcDbEntity
  8
0
  6
Continuous
100
AcDbCircle
 10
9.334376851299362
 20
9.093426762067307
 30
0.0
 40
0.0822854258
100
AcDbArc
 50
86.84841954319999
 51
89.77174384079999
  0
ARC
  5
31B
330
200
100
AcDbEntity
  8
0
  6
Continuous
100
AcDbCircle
 10
17.84985284005704
 20
3.427119775167308
 30
0.0
 40
3.2164444136
100
AcDbArc
 50
179.9951523447
 51
180.8003227776
  0
ARC
  5
31C
330
200
100
AcDbEntity
  8
0
  6
Continuous
100
AcDbCircle
 10
17.72549167675704
 20
9.606272181867307
 30
0.0
 40
3.0920834472
100
AcDbArc
 50
179.1834853047
 51
180.0210395731
  0
ARC
  5
31D
330
200
100
AcDbEntity
  8
0
  6
Continuous
100
AcDbCircle
 10
13.68688490815704
 20
9.693429678867309
 30
0.0
 40
0.1181102362
100
AcDbArc
 50
90.0
 51
135.0
  0
ARC
  5
31E
330
200
100
AcDbEntity
  8
0
  6
Continuous
100
AcDbCircle
 10
13.68688490815704
 20
3.339098970267308
 30
0.0
 40
0.1181102362
100
AcDbArc
 50
225.0
 51
270.0
  0
ARC
  5
31F
330
200
100
AcDbEntity
  8
0
  6
Continuous
100
AcDbCircle
 10
13.59859196765704
 20
3.427391910667308
 30
0.0
 40
0.1181102362
100
AcDbArc
 50
180.0
 51
225.0
  0
ARC
  5
320
330
200
100
AcDbEntity
  8
0
  6
Continuous
100
AcDbCircle
 10
13.59859196765704
 20
9.605136738467308
 30
0.0
 40
0.1181102362
100
AcDbArc
 50
135.0
 51
180.0
  0
ARC
  5
321
330
200
100
AcDbEntity
  8
0
  6
Continuous
100
AcDbCircle
 10
14.10428345785704
 20
9.176933485967309
 30
0.0
 40
0.0406092641
100
AcDbArc
 50
177.1389198383
 51
178.9443561853
  0
ARC
  5
322
330
200
100
AcDbEntity
  8
0
  6
Continuous
100
AcDbCircle
 10
14.10216238255704
 20
8.280620042067306
 30
0.0
 40
0.0384856098
100
AcDbArc
 50
180.8578397596
 51
182.8680558183999
  0
SPLINE
  5
323
330
200
100
AcDbEntity
  8
0
  6
Continuous
100
AcDbSpline
210
0.0
220
0.0
230
1.0
 70
     8
 71
     3
 72
     8
 73
     4
 74
     0
 42
0.0000001
 43
0.0000000001
 40
0.0
 40
0.0
 40
0.0
 40
0.0
 40
1.0
 40
1.0
 40
1.0
 40
1.0
 10
6.541845292199361
 20
6.379736499667309
 30
0.0
 10
6.561021941099361
 20
6.386660276367308
 30
0.0
 10
6.581706468699361
 20
6.390192298567308
 30
0.0
 10
6.602094574099361
 20
6.390280072567309
 30
0.0
  0
SPLINE
  5
324
330
200
100
AcDbEntity
  8
0
  6
Continuous
100
AcDbSpline
210
0.0
220
0.0
230
1.0
 70
     8
 71
     3
 72
     8
 73
     4
 74
     0
 42
0.0000001
 43
0.0000000001
 40
0.0
 40
0.0
 40
0.0
 40
0.0
 40
1.0
 40
1.0
 40
1.0
 40
1.0
 10
6.557206760199361
 20
6.616535631067309
 30
0.0
 10
6.537906607899361
 20
6.621555181367307
 30
0.0
 10
6.519221234299361
 20
6.630052840267307
 30
0.0
 10
6.502732039199361
 20
6.641268820367308
 30
0.0
  0
SPLINE
  5
325
330
200
100
AcDbEntity
  8
0
  6
Continuous
100
AcDbSpline
210
0.0
220
0.0
230
1.0
 70
     8
 71
     3
 72
     8
 73
     4
 74
     0
 42
0.0000001
 43
0.0000000001
 40
0.0
 40
0.0
 40
0.0
 40
0.0
 40
1.0
 40
1.0
 40
1.0
 40
1.0
 10
6.551646208699361
 20
7.410511152467307
 30
0.0
 10
6.567941219499361
 20
7.415329986067309
 30
0.0
 10
6.585102129299361
 20
7.417765972567307
 30
0.0
 10
6.602094574099361
 20
7.417839127767308
 30
0.0
  0
SPLINE
  5
326
330
200
100
AcDbEntity
  8
0
  6
Continuous
100
AcDbSpline
210
0.0
220
0.0
230
1.0
 70
     8
 71
     3
 72
     8
 73
     4
 74
     0
 42
0.0000001
 43
0.0000000001
 40
0.0
 40
0.0
 40
0.0
 40
0.0
 40
1.0
 40
1.0
 40
1.0
 40
1.0
 10
9.153275676499362
 20
7.417839127767308
 30
0.0
 10
9.170268121299361
 20
7.417765972567307
 30
0.0
 10
9.187429031099361
 20
7.415329986067309
 30
0.0
 10
9.203724041799361
 20
7.410511152467307
 30
0.0
  0
SPLINE
  5
327
330
200
100
AcDbEntity
  8
0
  6
Continuous
100
AcDbSpline
210
0.0
220
0.0
230
1.0
 70
     8
 71
     3
 72
     8
 73
     4
 74
     0
 42
0.0000001
 43
0.0000000001
 40
0.0
 40
0.0
 40
0.0
 40
0.0
 40
1.0
 40
1.0
 40
1.0
 40
1.0
 10
9.252638211399361
 20
6.641268820367308
 30
0.0
 10
9.236149016299361
 20
6.630052840267307
 30
0.0
 10
9.21746364269936
 20
6.621555181367307
 30
0.0
 10
9.198163490299361
 20
6.616535631067309
 30
0.0
  0
SPLINE
  5
328
330
200
100
AcDbEntity
  8
0
  6
Continuous
100
AcDbSpline
210
0.0
220
0.0
230
1.0
 70
     8
 71
     3
 72
     8
 73
     4
 74
     0
 42
0.0000001
 43
0.0000000001
 40
0.0
 40
0.0
 40
0.0
 40
0.0
 40
1.0
 40
1.0
 40
1.0
 40
1.0
 10
9.153275676499362
 20
6.390280072567309
 30
0.0
 10
9.17366378179936
 20
6.390192298567308
 30
0.0
 10
9.19434830949936
 20
6.386660276367308
 30
0.0
 10
9.213524958299361
 20
6.379736499667309
 30
0.0
  0
SPLINE
  5
329
330
200
100
AcDbEntity
  8
0
  6
Continuous
100
AcDbSpline
210
0.0
220
0.0
230
1.0
 70
     8
 71
     3
 72
    11
 73
     7
 74
     0
 42
0.0000001
 43
0.0000000001
 40
0.0
 40
0.0
 40
0.0
 40
0.0
 40
0.2500142603
 40
0.5000193344000001
 40
0.7500307442000001
 40
1.0
 40
1.0
 40
1.0
 40
1.0
 10
9.41705520399936
 20
8.939492671067307
 30
0.0
 10
9.41697477569936
 20
8.931157865567309
 30
0.0
 10
9.414526768499362
 20
8.914379509867307
 30
0.0
 10
9.403316117799361
 20
8.891587857467307
 30
0.0
 10
9.385866217399362
 20
8.873172074567307
 30
0.0
 10
9.37103318879936
 20
8.864920727067307
 30
0.0
 10
9.363223614799361
 20
8.862011947867308
 30
0.0
  0
SPLINE
  5
32A
330
200
100
AcDbEntity
  8
0
  6
Continuous
100
AcDbSpline
210
0.0
220
0.0
230
1.0
 70
     8
 71
     3
 72
    11
 73
     7
 74
     0
 42
0.0000001
 43
0.0000000001
 40
0.0
 40
0.0
 40
0.0
 40
0.0
 40
0.2499677455
 40
0.4999665482000001
 40
0.7499903016
 40
1.0
 40
1.0
 40
1.0
 40
1.0
 10
6.392109410799361
 20
8.862026131367308
 30
0.0
 10
6.384304488599362
 20
8.864937811567308
 30
0.0
 10
6.369481855099361
 20
8.873191379667307
 30
0.0
 10
6.352041705899361
 20
8.891604752467307
 30
0.0
 10
6.340848671399361
 20
8.914389294567307
 30
0.0
 10
6.338380139999361
 20
8.931161179567308
 30
0.0
 10
6.338315046499361
 20
8.939492671067307
 30
0.0
  0
SPLINE
  5
32B
330
200
100
AcDbEntity
  8
0
  6
Continuous
100
AcDbSpline
210
0.0
220
0.0
230
1.0
 70
     8
 71
     3
 72
    17
 73
    13
 74
     0
 42
0.0000001
 43
0.0000000001
 40
0.0
 40
0.0
 40
0.0
 40
0.0
 40
0.1073222578
 40
0.2139177931
 40
0.3222604959
 40
0.4343524334000001
 40
0.5537450470000001
 40
0.6846865236000001
 40
0.7565898881000001
 40
0.8335199163
 40
0.9153139018999999
 40
1.0
 40
1.0
 40
1.0
 40
1.0
 10
9.390744468499361
 20
7.409965111967309
 30
0.0
 10
9.397830890999362
 20
7.409663166967309
 30
0.0
 10
9.411968421799361
 20
7.408631172767307
 30
0.0
 10
9.432784747199361
 20
7.403575768467309
 30
0.0
 10
9.452582214299361
 20
7.394646980067308
 30
0.0
 10
9.47139632279936
 20
7.382175568567308
 30
0.0
 10
9.488600212299362
 20
7.365308752067308
 30
0.0
 10
9.500815604699361
 20
7.347668914767307
 30
0.0
 10
9.508715885099361
 20
7.330906974467309
 30
0.0
 10
9.513454555999361
 20
7.316377993867307
 30
0.0
 10
9.516712076399361
 20
7.300602250967308
 30
0.0
 10
9.517629201299362
 20
7.289576141067309
 30
0.0
 10
9.517496917099361
 20
7.283980859967307
 30
0.0
  0
SPLINE
  5
32C
330
200
100
AcDbEntity
  8
0
  6
Continuous
100
AcDbSpline
210
0.0
220
0.0
230
1.0
 70
     8
 71
     3
 72
    15
 73
    11
 74
     0
 42
0.0000001
 43
0.0000000001
 40
0.0
 40
0.0
 40
0.0
 40
0.0
 40
0.0848755364
 40
0.166741731
 40
0.3153931075
 40
0.5649853012000001
 40
0.6772658908000001
 40
0.7857687572
 40
0.892509264
 40
1.0
 40
1.0
 40
1.0
 40
1.0
 10
9.517496917099361
 20
6.768232828467308
 30
0.0
 10
9.517615203399362
 20
6.762632578467307
 30
0.0
 10
9.516768602099361
 20
6.751603724167308
 30
0.0
 10
9.512573728599361
 20
6.731177817067308
 30
0.0
 10
9.50082602289936
 20
6.701470587967307
 30
0.0
 10
9.478548894499361
 20
6.674793861667307
 30
0.0
 10
9.452600735799361
 20
6.657561233067307
 30
0.0
 10
9.43279192169936
 20
6.648623185267307
 30
0.0
 10
9.41196723059936
 20
6.643607735067307
 30
0.0
 10
9.397831502299361
 20
6.642563466667308
 30
0.0
 10
9.390744468499361
 20
6.642248576567308
 30
0.0
  0
SPLINE
  5
32D
330
200
100
AcDbEntity
  8
0
  6
Continuous
100
AcDbSpline
210
0.0
220
0.0
230
1.0
 70
     8
 71
     3
 72
    15
 73
    11
 74
     0
 42
0.0000001
 43
0.0000000001
 40
0.0
 40
0.0
 40
0.0
 40
0.0
 40
0.1074816942
 40
0.2142335186
 40
0.3227282182
 40
0.4350065074
 40
0.6845989982999999
 40
0.8332483881999998
 40
0.9151264864999999
 40
1.0
 40
1.0
 40
1.0
 40
1.0
 10
6.380373813599361
 20
6.642248576567308
 30
0.0
 10
6.373286718499361
 20
6.642549986467308
 30
0.0
 10
6.35914809949936
 20
6.643587368767308
 30
0.0
 10
6.338331218899361
 20
6.648631478567308
 30
0.0
 10
6.318517987899361
 20
6.657557313367309
 30
0.0
 10
6.292572136899361
 20
6.674794303467308
 30
0.0
 10
6.270289412099361
 20
6.701466577167309
 30
0.0
 10
6.258549692799361
 20
6.731178240067308
 30
0.0
 10
6.254347015599361
 20
6.751602271167309
 30
0.0
 10
6.253495466399361
 20
6.762632820867308
 30
0.0
 10
6.253621364899361
 20
6.768232828467308
 30
0.0
  0
SPLINE
  5
32E
330
200
100
AcDbEntity
  8
0
  6
Continuous
100
AcDbSpline
210
0.0
220
0.0
230
1.0
 70
     8
 71
     3
 72
    17
 73
    13
 74
     0
 42
0.0000001
 43
0.0000000001
 40
0.0
 40
0.0
 40
0.0
 40
0.0
 40
0.0846875334
 40
0.1664759467
 40
0.2434096628
 40
0.3153133426
 40
0.4462424102000001
 40
0.5656440589000001
 40
0.6777190287999999
 40
0.7860874495
 40
0.8926729874999999
 40
1.0
 40
1.0
 40
1.0
 40
1.0
 10
6.253621364899361
 20
7.283980859967307
 30
0.0
 10
6.253499462099362
 20
7.289576506067309
 30
0.0
 10
6.254409063299361
 20
7.300601210867307
 30
0.0
 10
6.257660365899361
 20
7.316379453967307
 30
0.0
 10
6.262402619999361
 20
7.330907084167307
 30
0.0
 10
6.270301748099361
 20
7.347669283467308
 30
0.0
 10
6.28252102199936
 20
7.365305110267307
 30
0.0
 10
6.299715857099362
 20
7.382181581267309
 30
0.0
 10
6.318543103699362
 20
7.394633764267307
 30
0.0
 10
6.338326829499361
 20
7.403591877867308
 30
0.0
 10
6.359150691799361
 20
7.408634082567308
 30
0.0
 10
6.373287349999361
 20
7.409655816967308
 30
0.0
 10
6.380373813599361
 20
7.409965111967309
 30
0.0
  0
SPLINE
  5
32F
330
200
100
AcDbEntity
  8
0
  6
Continuous
100
AcDbSpline
210
0.0
220
0.0
230
1.0
 70
     8
 71
     3
 72
    17
 73
    13
 74
     0
 42
0.0000001
 43
0.0000000001
 40
0.0
 40
0.0
 40
0.0
 40
0.0
 40
0.1073222578
 40
0.2139177931
 40
0.3222604959
 40
0.4343524334000001
 40
0.5537450470000001
 40
0.6846865236000001
 40
0.7565898881000001
 40
0.8335199163
 40
0.9153139018999999
 40
1.0
 40
1.0
 40
1.0
 40
1.0
 10
9.37499643699936
 20
6.378469048967307
 30
0.0
 10
9.382082859499361
 20
6.378167103967308
 30
0.0
 10
9.396220390299362
 20
6.377135109767309
 30
0.0
 10
9.41703671569936
 20
6.372079705467308
 30
0.0
 10
9.43683418279936
 20
6.363150917167308
 30
0.0
 10
9.455648291299361
 20
6.350679505567308
 30
0.0
 10
9.47285218079936
 20
6.333812689067308
 30
0.0
 10
9.48506757319936
 20
6.316172851767307
 30
0.0
 10
9.492967853599362
 20
6.299410911467308
 30
0.0
 10
9.49770652449936
 20
6.284881930867308
 30
0.0
 10
9.500964044899362
 20
6.269106187967308
 30
0.0
 10
9.501881169799361
 20
6.258080078067308
 30
0.0
 10
9.501748885599361
 20
6.252484797067308
 30
0.0
  0
SPLINE
  5
330
330
200
100
AcDbEntity
  8
0
  6
Continuous
100
AcDbSpline
210
0.0
220
0.0
230
1.0
 70
     8
 71
     3
 72
    15
 73
    11
 74
     0
 42
0.0000001
 43
0.0000000001
 40
0.0
 40
0.0
 40
0.0
 40
0.0
 40
0.0848755364
 40
0.166741731
 40
0.3153931075
 40
0.5649853012000001
 40
0.6772658908000001
 40
0.7857687572
 40
0.892509264
 40
1.0
 40
1.0
 40
1.0
 40
1.0
 10
9.501748885599361
 20
5.736736765567307
 30
0.0
 10
9.501867171899361
 20
5.731136515467307
 30
0.0
 10
9.50102057069936
 20
5.720107661167308
 30
0.0
 10
9.496825697099362
 20
5.699681754067308
 30
0.0
 10
9.485077991499361
 20
5.669974524967308
 30
0.0
 10
9.46280086299936
 20
5.643297798667308
 30
0.0
 10
9.436852704299361
 20
5.626065170067308
 30
0.0
 10
9.41704389019936
 20
5.617127122267309
 30
0.0
 10
9.396219199099361
 20
5.612111672067308
 30
0.0
 10
9.38208347079936
 20
5.611067403667307
 30
0.0
 10
9.37499643699936
 20
5.610752513567309
 30
0.0
  0
SPLINE
  5
331
330
200
100
AcDbEntity
  8
0
  6
Continuous
100
AcDbSpline
210
0.0
220
0.0
230
1.0
 70
     8
 71
     3
 72
    11
 73
     7
 74
     0
 42
0.0000001
 43
0.0000000001
 40
0.0
 40
0.0
 40
0.0
 40
0.0
 40
0.2395890158
 40
0.4794972786000001
 40
0.7287154437000001
 40
1.0
 40
1.0
 40
1.0
 40
1.0
 10
6.364625782099362
 20
5.610752513567309
 30
0.0
 10
6.35515496319936
 20
5.611155301767308
 30
0.0
 10
6.336115709899361
 20
5.612778492967308
 30
0.0
 10
6.308650256599361
 20
5.622480461667308
 30
0.0
 10
6.282969739699361
 20
5.638612802367308
 30
0.0
 10
6.268622046699361
 20
5.653772339067307
 30
0.0
 10
6.262260962199361
 20
5.662417736767308
 30
0.0
  0
SPLINE
  5
332
330
200
100
AcDbEntity
  8
0
  6
Continuous
100
AcDbSpline
210
0.0
220
0.0
230
1.0
 70
     8
 71
     3
 72
    10
 73
     6
 74
     0
 42
0.0000001
 43
0.0000000001
 40
0.0
 40
0.0
 40
0.0
 40
0.0
 40
0.4597498442
 40
0.7217267615000001
 40
1.0
 40
1.0
 40
1.0
 40
1.0
 10
6.262260962199361
 20
5.662417736767308
 30
0.0
 10
6.255053644599361
 20
5.672213256267308
 30
0.0
 10
6.245923984799361
 20
5.689402664867309
 30
0.0
 10
6.239223339699361
 20
5.715046367867307
 30
0.0
 10
6.237707888699361
 20
5.729377732767307
 30
0.0
 10
6.237873333499361
 20
5.736736765567307
 30
0.0
  0
SPLINE
  5
333
330
200
100
AcDbEntity
  8
0
  6
Continuous
100
AcDbSpline
210
0.0
220
0.0
230
1.0
 70
     8
 71
     3
 72
    17
 73
    13
 74
     0
 42
0.0000001
 43
0.0000000001
 40
0.0
 40
0.0
 40
0.0
 40
0.0
 40
0.0846875334
 40
0.1664759467
 40
0.2434096628
 40
0.3153133426
 40
0.4462424102000001
 40
0.5656440589000001
 40
0.6777190287999999
 40
0.7860874495
 40
0.8926729874999999
 40
1.0
 40
1.0
 40
1.0
 40
1.0
 10
6.237873333499361
 20
6.252484797067308
 30
0.0
 10
6.23775143059936
 20
6.258080443067308
 30
0.0
 10
6.23866103179936
 20
6.269105147867307
 30
0.0
 10
6.24191233439936
 20
6.284883390967308
 30
0.0
 10
6.246654588499361
 20
6.299411021167308
 30
0.0
 10
6.254553716599361
 20
6.316173220467307
 30
0.0
 10
6.266772990499361
 20
6.333809047267308
 30
0.0
 10
6.28396782559936
 20
6.350685518367308
 30
0.0
 10
6.302795072199361
 20
6.363137701267309
 30
0.0
 10
6.32257879799936
 20
6.372095814867307
 30
0.0
 10
6.343402660299361
 20
6.377138019567308
 30
0.0
 10
6.357539318499362
 20
6.378159753967308
 30
0.0
 10
6.364625782099362
 20
6.378469048967307
 30
0.0
  0
SPLINE
  5
334
330
200
100
AcDbEntity
  8
0
  6
Continuous
100
AcDbSpline
210
0.0
220
0.0
230
1.0
 70
     8
 71
     3
 72
    15
 73
    11
 74
     0
 42
0.0000001
 43
0.0000000001
 40
0.0
 40
0.0
 40
0.0
 40
0.0
 40
0.08168839
 40
0.1562306401
 40
0.2836928637
 40
0.4946047739
 40
0.5993941761000001
 40
0.7122619542000001
 40
0.8430156559
 40
1.0
 40
1.0
 40
1.0
 40
1.0
 10
9.43436363499936
 20
9.177681647367307
 30
0.0
 10
9.434317335599361
 20
9.180695275867309
 30
0.0
 10
9.433580559399361
 20
9.186489120567308
 30
0.0
 10
9.429647689399361
 20
9.196269196067309
 30
0.0
 10
9.419940718899361
 20
9.208526258667308
 30
0.0
 10
9.403109410999361
 20
9.214337556867308
 30
0.0
 10
9.387264596299361
 20
9.211966754567308
 30
0.0
 10
9.375654753099361
 20
9.205826271267309
 30
0.0
 10
9.365787445899361
 20
9.194292513667308
 30
0.0
 10
9.363083505899361
 20
9.183473731167309
 30
0.0
 10
9.36306538259936
 20
9.177681647367307
 30
0.0
  0
SPLINE
  5
335
330
200
100
AcDbEntity
  8
0
  6
Continuous
100
AcDbSpline
210
0.0
220
0.0
230
1.0
 70
     8
 71
     3
 72
    17
 73
    13
 74
     0
 42
0.0000001
 43
0.0000000001
 40
0.0
 40
0.0
 40
0.0
 40
0.0
 40
0.0817539906
 40
0.1574591112
 40
0.2877626473
 40
0.4001258179000001
 40
0.5045406875000001
 40
0.6080271601
 40
0.7176829153000001
 40
0.8441448590999998
 40
0.9185001733
 40
1.0
 40
1.0
 40
1.0
 40
1.0
 10
9.36306538259936
 20
8.280043852167308
 30
0.0
 10
9.363164787799361
 20
8.277016750567309
 30
0.0
 10
9.363828126799361
 20
8.271158807167307
 30
0.0
 10
9.367778920299361
 20
8.261147604767307
 30
0.0
 10
9.375657911899361
 20
8.251885771767307
 30
0.0
 10
9.38725885009936
 20
8.245767546667307
 30
0.0
 10
9.39920194909936
 20
8.243987069567307
 30
0.0
 10
9.41098864919936
 20
8.246071460467309
 30
0.0
 10
9.422196264799362
 20
8.252298083267309
 30
0.0
 10
9.429762639799362
 20
8.261398745667309
 30
0.0
 10
9.433615093599362
 20
8.271227289767306
 30
0.0
 10
9.434261939199361
 20
8.27702624796731
 30
0.0
 10
9.43436363499936
 20
8.280043852167308
 30
0.0
  0
SPLINE
  5
336
330
200
100
AcDbEntity
  8
0
  6
Continuous
100
AcDbSpline
210
0.0
220
0.0
230
1.0
 70
     8
 71
     3
 72
    15
 73
    11
 74
     0
 42
0.0000001
 43
0.0000000001
 40
0.0
 40
0.0
 40
0.0
 40
0.0
 40
0.1444980005
 40
0.2727438973
 40
0.3876589132999999
 40
0.4971471586
 40
0.6072746228
 40
0.7242968103000001
 40
0.8546041248999999
 40
1.0
 40
1.0
 40
1.0
 40
1.0
 10
9.24423496199936
 20
9.177681647367307
 30
0.0
 10
9.24413349939936
 20
9.183022414367307
 30
0.0
 10
9.241779025999361
 20
9.193219198867307
 30
0.0
 10
9.23282852159936
 20
9.204908643367309
 30
0.0
 10
9.221290854999361
 20
9.211595287867309
 30
0.0
 10
9.208887557599361
 20
9.213784767967309
 30
0.0
 10
9.196355296099362
 20
9.211792742767309
 30
0.0
 10
9.184618294099362
 20
9.205093240967308
 30
0.0
 10
9.175345994099361
 20
9.193411215667309
 30
0.0
 10
9.172967095699361
 20
9.183056484367307
 30
0.0
 10
9.172936709699362
 20
9.177681647367307
 30
0.0
  0
SPLINE
  5
337
330
200
100
AcDbEntity
  8
0
  6
Continuous
100
AcDbSpline
210
0.0
220
0.0
230
1.0
 70
     8
 71
     3
 72
    15
 73
    11
 74
     0
 42
0.0000001
 43
0.0000000001
 40
0.0
 40
0.0
 40
0.0
 40
0.0
 40
0.145165937
 40
0.2754258161
 40
0.3924012473
 40
0.502604314
 40
0.6120011600000001
 40
0.7270072094
 40
0.8556038
 40
1.0
 40
1.0
 40
1.0
 40
1.0
 10
9.172936709699362
 20
8.280043852167308
 30
0.0
 10
9.172985642999361
 20
8.274676045067309
 30
0.0
 10
9.17533525199936
 20
8.264331341467308
 30
0.0
 10
9.184592935399361
 20
8.252639228267309
 30
0.0
 10
9.196346227399361
 20
8.245948940567309
 30
0.0
 10
9.20886470309936
 20
8.243976801867308
 30
0.0
 10
9.221309288999361
 20
8.245986706367308
 30
0.0
 10
9.23284286399936
 20
8.252772977567309
 30
0.0
 10
9.24170840019936
 20
8.264517490267309
 30
0.0
 10
9.244134799899361
 20
8.274705225267309
 30
0.0
 10
9.24423496199936
 20
8.280043852167308
 30
0.0
  0
SPLINE
  5
338
330
200
100
AcDbEntity
  8
0
  6
Continuous
100
AcDbSpline
210
0.0
220
0.0
230
1.0
 70
     8
 71
     3
 72
    16
 73
    12
 74
     0
 42
0.0000001
 43
0.0000000001
 40
0.0
 40
0.0
 40
0.0
 40
0.0
 40
0.0774195478
 40
0.1499798554
 40
0.2774909959
 40
0.3901381086
 40
0.4968520616
 40
0.604378369
 40
0.7192987565000001
 40
0.8498590402999999
 40
1.0
 40
1.0
 40
1.0
 40
1.0
 10
6.41607095199936
 20
8.280043852167308
 30
0.0
 10
6.416176946499361
 20
8.277180814567307
 30
0.0
 10
6.416741631499361
 20
8.271607053067308
 30
0.0
 10
6.420388536199361
 20
8.261908815567309
 30
0.0
 10
6.427820763899361
 20
8.252601812367307
 30
0.0
 10
6.439204038599362
 20
8.246123326067309
 30
0.0
 10
6.451327725999361
 20
8.243941502767309
 30
0.0
 10
6.463590622999361
 20
8.245865978167309
 30
0.0
 10
6.475275462099362
 20
8.252292206967307
 30
0.0
 10
6.48486150519936
 20
8.263919939367307
 30
0.0
 10
6.487268682299362
 20
8.274488623567307
 30
0.0
 10
6.48736920439936
 20
8.280043852167308
 30
0.0
  0
SPLINE
  5
339
330
200
100
AcDbEntity
  8
0
  6
Continuous
100
AcDbSpline
210
0.0
220
0.0
230
1.0
 70
     8
 71
     3
 72
    15
 73
    11
 74
     0
 42
0.0000001
 43
0.0000000001
 40
0.0
 40
0.0
 40
0.0
 40
0.0
 40
0.1502965057
 40
0.2808714342
 40
0.3958835903
 40
0.5034491616
 40
0.6102113510000001
 40
0.7228846512999999
 40
0.8506401236
 40
1.0
 40
1.0
 40
1.0
 40
1.0
 10
6.48736920439936
 20
9.177681647367307
 30
0.0
 10
6.48728769949936
 20
9.183237439867307
 30
0.0
 10
6.48485586689936
 20
9.19380306026731
 30
0.0
 10
6.47528117449936
 20
9.205423131267307
 30
0.0
 10
6.463609597999361
 20
9.211861225067309
 30
0.0
 10
6.451351046599361
 20
9.213784273667307
 30
0.0
 10
6.439237766699361
 20
9.211616358867308
 30
0.0
 10
6.427829464699361
 20
9.205169946667307
 30
0.0
 10
6.418591021699361
 20
9.193598082767309
 30
0.0
 10
6.416159390099361
 20
9.183202702667308
 30
0.0
 10
6.41607095199936
 20
9.177681647367307
 30
0.0
  0
SPLINE
  5
33A
330
200
100
AcDbEntity
  8
0
  6
Continuous
100
AcDbSpline
210
0.0
220
0.0
230
1.0
 70
     8
 71
     3
 72
    17
 73
    13
 74
     0
 42
0.0000001
 43
0.0000000001
 40
0.0
 40
0.0
 40
0.0
 40
0.0
 40
0.1084792518
 40
0.2156163088
 40
0.3240653529
 40
0.4357778992
 40
0.5540473229
 40
0.6837783559
 40
0.7553434251000001
 40
0.832276114
 40
0.9145061984999999
 40
1.0
 40
1.0
 40
1.0
 40
1.0
 10
9.379817338499361
 20
6.616658025367307
 30
0.0
 10
9.38876232439936
 20
6.617044419667308
 30
0.0
 10
9.406546982199362
 20
6.618432501367308
 30
0.0
 10
9.43270641299936
 20
6.624718156567308
 30
0.0
 10
9.457377234399361
 20
6.636073092767308
 30
0.0
 10
9.480664247599362
 20
6.651725356467308
 30
0.0
 10
9.502043339899362
 20
6.672564998067308
 30
0.0
 10
9.517169936099362
 20
6.694422758467307
 30
0.0
 10
9.526954042599362
 20
6.715252169667309
 30
0.0
 10
9.532860800899362
 20
6.733408574167308
 30
0.0
 10
9.53694253329936
 20
6.753211933567309
 30
0.0
 10
9.53810032629936
 20
6.767084016967308
 30
0.0
 10
9.53793651879936
 20
6.774138340367308
 30
0.0
  0
SPLINE
  5
33B
330
200
100
AcDbEntity
  8
0
  6
Continuous
100
AcDbSpline
210
0.0
220
0.0
230
1.0
 70
     8
 71
     3
 72
    16
 73
    12
 74
     0
 42
0.0000001
 43
0.0000000001
 40
0.0
 40
0.0
 40
0.0
 40
0.0
 40
0.0856477574
 40
0.1678411805
 40
0.2446346592
 40
0.3161793467
 40
0.5637259956000001
 40
0.6755480492000001
 40
0.7841252852
 40
0.8914039697999999
 40
1.0
 40
1.0
 40
1.0
 40
1.0
 10
9.53793651879936
 20
7.285949363967308
 30
0.0
 10
9.538146464699362
 20
7.293006097367308
 30
0.0
 10
9.537013276399362
 20
7.306877793267309
 30
0.0
 10
9.532919642699361
 20
7.326651045767308
 30
0.0
 10
9.52691361429936
 20
7.344739440867309
 30
0.0
 10
9.512927818799362
 20
7.374254901867308
 30
0.0
 10
9.489521947099362
 20
7.402488509967309
 30
0.0
 10
9.457361761799361
 20
7.424002829167308
 30
0.0
 10
9.432690646199361
 20
7.435353413667307
 30
0.0
 10
9.406552379199361
 20
7.441725546967308
 30
0.0
 10
9.388760302699362
 20
7.443039815667308
 30
0.0
 10
9.379817338499361
 20
7.443429678867309
 30
0.0
  0
SPLINE
  5
33C
330
200
100
AcDbEntity
  8
0
  6
Continuous
100
AcDbSpline
210
0.0
220
0.0
230
1.0
 70
     8
 71
     3
 72
    16
 73
    12
 74
     0
 42
0.0000001
 43
0.0000000001
 40
0.0
 40
0.0
 40
0.0
 40
0.0
 40
0.1085111787
 40
0.2156735244
 40
0.324162113
 40
0.4359032982000001
 40
0.5543464974
 40
0.6842903123000001
 40
0.8322358593
 40
0.9144054118999999
 40
1.0
 40
1.0
 40
1.0
 40
1.0
 10
6.375552912099362
 20
7.443429678867309
 30
0.0
 10
6.366608518799361
 20
7.443043221267307
 30
0.0
 10
6.348825800999361
 20
7.441660333067307
 30
0.0
 10
6.322663884799362
 20
7.435384458167309
 30
0.0
 10
6.298004238299361
 20
7.424012852067308
 30
0.0
 10
6.274691141699361
 20
7.408380836267308
 30
0.0
 10
6.253351305999362
 20
7.387448791767308
 30
0.0
 10
6.234696045599361
 20
7.360324104367307
 30
0.0
 10
6.223609619099361
 20
7.332436040867309
 30
0.0
 10
6.218353355499361
 20
7.306882658267308
 30
0.0
 10
6.21730288079936
 20
7.293010151467308
 30
0.0
 10
6.217433731699361
 20
7.285949363967308
 30
0.0
  0
SPLINE
  5
33D
330
200
100
AcDbEntity
  8
0
  6
Continuous
100
AcDbSpline
210
0.0
220
0.0
230
1.0
 70
     8
 71
     3
 72
    17
 73
    13
 74
     0
 42
0.0000001
 43
0.0000000001
 40
0.0
 40
0.0
 40
0.0
 40
0.0
 40
0.085500921
 40
0.1676910177
 40
0.244616258
 40
0.3162012697
 40
0.4459708111
 40
0.5642684626
 40
0.6759605826000001
 40
0.7843930683
 40
0.8915342576
 40
1.0
 40
1.0
 40
1.0
 40
1.0
 10
6.217433731699361
 20
6.774138340367308
 30
0.0
 10
6.217307223999361
 20
6.767082677067309
 30
0.0
 10
6.218437151099362
 20
6.753217722667308
 30
0.0
 10
6.222490780199361
 20
6.733407626367307
 30
0.0
 10
6.228419547599361
 20
6.715261090667308
 30
0.0
 10
6.238200012199361
 20
6.694426371367308
 30
0.0
 10
6.253328270299361
 20
6.672560154067308
 30
0.0
 10
6.274709090299361
 20
6.651717290867308
 30
0.0
 10
6.298002140099361
 20
6.636070766167309
 30
0.0
 10
6.322676623899361
 20
6.624743209967308
 30
0.0
 10
6.348819376199362
 20
6.618385518467308
 30
0.0
 10
6.366609751099361
 20
6.617060061767308
 30
0.0
 10
6.375552912099362
 20
6.616658025367307
 30
0.0
  0
SPLINE
  5
33E
330
200
100
AcDbEntity
  8
0
  6
Continuous
100
AcDbSpline
210
0.0
220
0.0
230
1.0
 70
     8
 71
     3
 72
    17
 73
    13
 74
     0
 42
0.0000001
 43
0.0000000001
 40
0.0
 40
0.0
 40
0.0
 40
0.0
 40
0.0817624751
 40
0.1574584243
 40
0.2877512342
 40
0.4001392958
 40
0.5045506345000001
 40
0.6080351452000001
 40
0.7176736796
 40
0.8441456453
 40
0.9185022964999999
 40
1.0
 40
1.0
 40
1.0
 40
1.0
 10
6.392304867899361
 20
9.177681647367307
 30
0.0
 10
6.392194196299361
 20
9.180708712867309
 30
0.0
 10
6.391540715699361
 20
9.186566067467307
 30
0.0
 10
6.387592645699361
 20
9.196580080467308
 30
0.0
 10
6.379711055899361
 20
9.205839870367309
 30
0.0
 10
6.368110426499361
 20
9.211958785167309
 30
0.0
 10
6.356166292799361
 20
9.213741624067308
 30
0.0
 10
6.344381045699361
 20
9.211653402967309
 30
0.0
 10
6.333172543099361
 20
9.205429265467309
 30
0.0
 10
6.325608017399361
 20
9.196326360567308
 30
0.0
 10
6.321754941799361
 20
9.186498626167308
 30
0.0
 10
6.321103354799361
 20
9.180699376067309
 30
0.0
 10
6.321006615599361
 20
9.177681647367307
 30
0.0
  0
SPLINE
  5
33F
330
200
100
AcDbEntity
  8
0
  6
Continuous
100
AcDbSpline
210
0.0
220
0.0
230
1.0
 70
     8
 71
     3
 72
    17
 73
    13
 74
     0
 42
0.0000001
 43
0.0000000001
 40
0.0
 40
0.0
 40
0.0
 40
0.0
 40
0.1547905002
 40
0.2812360527
 40
0.3909820965999999
 40
0.4944707224
 40
0.5988523556000001
 40
0.7112228437
 40
0.7739635090000001
 40
0.8427313245999998
 40
0.918344485
 40
1.0
 40
1.0
 40
1.0
 40
1.0
 10
6.321006615599361
 20
8.280043852167308
 30
0.0
 10
6.32106571329936
 20
8.274313416567308
 30
0.0
 10
6.323636025299361
 20
8.263706582067307
 30
0.0
 10
6.333170814899361
 20
8.252319272667309
 30
0.0
 10
6.344361263699362
 20
8.246062686867308
 30
0.0
 10
6.356148329599362
 20
8.243995960967309
 30
0.0
 10
6.368067240999361
 20
8.245723315367309
 30
0.0
 10
6.377486221599361
 20
8.250600645467308
 30
0.0
 10
6.383947409599361
 20
8.256985061167307
 30
0.0
 10
6.388314916799361
 20
8.263349401067308
 30
0.0
 10
6.391486400399361
 20
8.271175371167307
 30
0.0
 10
6.392266621699361
 20
8.277020998067309
 30
0.0
 10
6.392304867899361
 20
8.280043852167308
 30
0.0
  0
SPLINE
  5
340
330
200
100
AcDbEntity
  8
0
  6
Continuous
100
AcDbSpline
210
0.0
220
0.0
230
1.0
 70
     8
 71
     3
 72
    15
 73
    11
 74
     0
 42
0.0000001
 43
0.0000000001
 40
0.0
 40
0.0
 40
0.0
 40
0.0
 40
0.1444980005
 40
0.2727438973
 40
0.3876589132999999
 40
0.4971471586
 40
0.6072746228
 40
0.7242968103000001
 40
0.8546041248999999
 40
1.0
 40
1.0
 40
1.0
 40
1.0
 10
6.511135288499361
 20
8.280043852167308
 30
0.0
 10
6.511236751199361
 20
8.27470308516731
 30
0.0
 10
6.513591224599362
 20
8.264506300667308
 30
0.0
 10
6.522541728899361
 20
8.252816856167308
 30
0.0
 10
6.534079395599361
 20
8.246130211667308
 30
0.0
 10
6.546482692899361
 20
8.243940731567308
 30
0.0
 10
6.55901495449936
 20
8.245932756767308
 30
0.0
 10
6.570751956399361
 20
8.252632258567308
 30
0.0
 10
6.580024256399361
 20
8.264314283867308
 30
0.0
 10
6.582403154799361
 20
8.274669015267308
 30
0.0
 10
6.582433540899361
 20
8.280043852167308
 30
0.0
  0
SPLINE
  5
341
330
200
100
AcDbEntity
  8
0
  6
Continuous
100
AcDbSpline
210
0.0
220
0.0
230
1.0
 70
     8
 71
     3
 72
    15
 73
    11
 74
     0
 42
0.0000001
 43
0.0000000001
 40
0.0
 40
0.0
 40
0.0
 40
0.0
 40
0.145165937
 40
0.2754258161
 40
0.3924012473
 40
0.502604314
 40
0.6120011600000001
 40
0.7270072094
 40
0.8556038
 40
1.0
 40
1.0
 40
1.0
 40
1.0
 10
6.582433540899361
 20
9.177681647367307
 30
0.0
 10
6.582384607599361
 20
9.183049454567306
 30
0.0
 10
6.580034998499361
 20
9.193394158067308
 30
0.0
 10
6.570777315199361
 20
9.205086271267308
 30
0.0
 10
6.55902402319936
 20
9.211776558967308
 30
0.0
 10
6.546505547499361
 20
9.213748697667309
 30
0.0
 10
6.534060961599361
 20
9.211738793167308
 30
0.0
 10
6.522527386599361
 20
9.204952521967307
 30
0.0
 10
6.513661850399361
 20
9.193208009267307
 30
0.0
 10
6.511235450599361
 20
9.183020274267308
 30
0.0
 10
6.511135288499361
 20
9.177681647367307
 30
0.0
  0
SPLINE
  5
342
330
200
100
AcDbEntity
  8
0
  6
Continuous
100
AcDbSpline
210
0.0
220
0.0
230
1.0
 70
     8
 71
     3
 72
    16
 73
    12
 74
     0
 42
0.0000001
 43
0.0000000001
 40
0.0
 40
0.0
 40
0.0
 40
0.0
 40
0.0774195478
 40
0.1499798554
 40
0.2774909959
 40
0.3901381086
 40
0.4968520616
 40
0.604378369
 40
0.7192987565000001
 40
0.8498590402999999
 40
1.0
 40
1.0
 40
1.0
 40
1.0
 10
9.339299298499362
 20
9.177681647367307
 30
0.0
 10
9.33919330399936
 20
9.180544684967307
 30
0.0
 10
9.338628619099361
 20
9.186118446467308
 30
0.0
 10
9.334981714299361
 20
9.195816683967308
 30
0.0
 10
9.327549486599361
 20
9.205123687267306
 30
0.0
 10
9.316166211899361
 20
9.211602173467309
 30
0.0
 10
9.304042524599362
 20
9.213783996867308
 30
0.0
 10
9.29177962759936
 20
9.211859521367308
 30
0.0
 10
9.280094788399361
 20
9.20543329256731
 30
0.0
 10
9.270508745299361
 20
9.193805560167309
 30
0.0
 10
9.268101568299361
 20
9.183236875967308
 30
0.0
 10
9.268001046099362
 20
9.177681647367307
 30
0.0
  0
SPLINE
  5
343
330
200
100
AcDbEntity
  8
0
  6
Continuous
100
AcDbSpline
210
0.0
220
0.0
230
1.0
 70
     8
 71
     3
 72
    15
 73
    11
 74
     0
 42
0.0000001
 43
0.0000000001
 40
0.0
 40
0.0
 40
0.0
 40
0.0
 40
0.1502965057
 40
0.2808714342
 40
0.3958835903
 40
0.5034491616
 40
0.6102113510000001
 40
0.7228846512999999
 40
0.8506401236
 40
1.0
 40
1.0
 40
1.0
 40
1.0
 10
9.268001046099362
 20
8.280043852167308
 30
0.0
 10
9.268082551099361
 20
8.274488059667307
 30
0.0
 10
9.270514383599362
 20
8.263922439267307
 30
0.0
 10
9.280089075999361
 20
8.252302368267308
 30
0.0
 10
9.291760652499361
 20
8.245864274567308
 30
0.0
 10
9.304019203999361
 20
8.243941225867308
 30
0.0
 10
9.316132483899361
 20
8.246109140667309
 30
0.0
 10
9.327540785899362
 20
8.252555552867308
 30
0.0
 10
9.336779228799361
 20
8.264127416767307
 30
0.0
 10
9.339210860399361
 20
8.274522796867307
 30
0.0
 10
9.339299298499362
 20
8.280043852167308
 30
0.0
  0
SPLINE
  5
344
330
200
100
AcDbEntity
  8
0
  6
Continuous
100
AcDbSpline
210
0.0
220
0.0
230
1.0
 70
     8
 71
     3
 72
    12
 73
     8
 74
     0
 42
0.0000001
 43
0.0000000001
 40
0.0
 40
0.0
 40
0.0
 40
0.0
 40
0.2442293123
 40
0.3651513240999999
 40
0.4868564459000001
 40
0.7355486497000001
 40
1.0
 40
1.0
 40
1.0
 40
1.0
 10
9.379817338499361
 20
5.589098970267308
 30
0.0
 10
9.390947567399361
 20
5.589579759867309
 30
0.0
 10
9.40763213329936
 20
5.591051849567309
 30
0.0
 10
9.429206032299362
 20
5.596544745567307
 30
0.0
 10
9.450121694699362
 20
5.604715591167307
 30
0.0
 10
9.475301329299361
 20
5.619451953267308
 30
0.0
 10
9.49262866809936
 20
5.635539051567308
 30
0.0
 10
9.500479330799361
 20
5.644697879267308
 30
0.0
  0
SPLINE
  5
345
330
200
100
AcDbEntity
  8
0
  6
Continuous
100
AcDbSpline
210
0.0
220
0.0
230
1.0
 70
     8
 71
     3
 72
    12
 73
     8
 74
     0
 42
0.0000001
 43
0.0000000001
 40
0.0
 40
0.0
 40
0.0
 40
0.0
 40
0.2148889346
 40
0.3899380529
 40
0.5796034035000001
 40
0.7846269454000002
 40
1.0
 40
1.0
 40
1.0
 40
1.0
 10
9.500479330799361
 20
5.644697879267308
 30
0.0
 10
9.505641758299359
 20
5.650720527967308
 30
0.0
 10
9.514204258799361
 20
5.662376671867308
 30
0.0
 10
9.524336266599361
 20
5.681282753267309
 30
0.0
 10
9.531651203299361
 20
5.701079100467307
 30
0.0
 10
9.536625089799361
 20
5.723081999767309
 30
0.0
 10
9.538121081199362
 20
5.738631157867308
 30
0.0
 10
9.53793651879936
 20
5.746579285167308
 30
0.0
  0
SPLINE
  5
346
330
200
100
AcDbEntity
  8
0
  6
Continuous
100
AcDbSpline
210
0.0
220
0.0
230
1.0
 70
     8
 71
     3
 72
    16
 73
    12
 74
     0
 42
0.0000001
 43
0.0000000001
 40
0.0
 40
0.0
 40
0.0
 40
0.0
 40
0.0856477574
 40
0.1678411805
 40
0.2446346592
 40
0.3161793467
 40
0.5637259956000001
 40
0.6755480492000001
 40
0.7841252852
 40
0.8914039697999999
 40
1.0
 40
1.0
 40
1.0
 40
1.0
 10
9.53793651879936
 20
6.258390308867308
 30
0.0
 10
9.538146464699362
 20
6.265447042267307
 30
0.0
 10
9.537013276399362
 20
6.279318738067308
 30
0.0
 10
9.532919642699361
 20
6.299091990667308
 30
0.0
 10
9.52691361429936
 20
6.317180385767308
 30
0.0
 10
9.512927818799362
 20
6.346695846767307
 30
0.0
 10
9.489521947099362
 20
6.374929454867308
 30
0.0
 10
9.457361761799361
 20
6.396443773967307
 30
0.0
 10
9.432690646199361
 20
6.407794358567308
 30
0.0
 10
9.406552379199361
 20
6.414166491867307
 30
0.0
 10
9.388760302699362
 20
6.415480760567307
 30
0.0
 10
9.379817338499361
 20
6.415870623767307
 30
0.0
  0
SPLINE
  5
347
330
200
100
AcDbEntity
  8
0
  6
Continuous
100
AcDbSpline
210
0.0
220
0.0
230
1.0
 70
     8
 71
     3
 72
    16
 73
    12
 74
     0
 42
0.0000001
 43
0.0000000001
 40
0.0
 40
0.0
 40
0.0
 40
0.0
 40
0.1085111787
 40
0.2156735244
 40
0.324162113
 40
0.4359032982000001
 40
0.5543464974
 40
0.6842903123000001
 40
0.8322358593
 40
0.9144054118999999
 40
1.0
 40
1.0
 40
1.0
 40
1.0
 10
6.375552912099362
 20
6.415870623767307
 30
0.0
 10
6.366608518799361
 20
6.415484166167308
 30
0.0
 10
6.348825800999361
 20
6.414101277967308
 30
0.0
 10
6.322663884799362
 20
6.407825403067308
 30
0.0
 10
6.298004238299361
 20
6.396453796867307
 30
0.0
 10
6.274691141699361
 20
6.380821781167307
 30
0.0
 10
6.253351305999362
 20
6.359889736667307
 30
0.0
 10
6.234696045599361
 20
6.332765049167308
 30
0.0
 10
6.223609619099361
 20
6.304876985767309
 30
0.0
 10
6.218353355499361
 20
6.279323603167309
 30
0.0
 10
6.21730288079936
 20
6.265451096367307
 30
0.0
 10
6.217433731699361
 20
6.258390308867308
 30
0.0
  0
SPLINE
  5
348
330
200
100
AcDbEntity
  8
0
  6
Continuous
100
AcDbSpline
210
0.0
220
0.0
230
1.0
 70
     8
 71
     3
 72
    11
 73
     7
 74
     0
 42
0.0000001
 43
0.0000000001
 40
0.0
 40
0.0
 40
0.0
 40
0.0
 40
0.2863418779
 40
0.5496126982
 40
0.7856192055
 40
1.0
 40
1.0
 40
1.0
 40
1.0
 10
6.217433731699361
 20
5.746579285167308
 30
0.0
 10
6.217239881199361
 20
5.735767744367308
 30
0.0
 10
6.219855957099362
 20
5.714972132767307
 30
0.0
 10
6.228363151699361
 20
5.686420530167307
 30
0.0
 10
6.240912359699361
 20
5.662391610367308
 30
0.0
 10
6.251240157899361
 20
5.648782252267308
 30
0.0
 10
6.256610624799361
 20
5.642724228767308
 30
0.0
  0
SPLINE
  5
349
330
200
100
AcDbEntity
  8
0
  6
Continuous
100
AcDbSpline
210
0.0
220
0.0
230
1.0
 70
     8
 71
     3
 72
    12
 73
     8
 74
     0
 42
0.0000001
 43
0.0000000001
 40
0.0
 40
0.0
 40
0.0
 40
0.0
 40
0.2636612873
 40
0.5122695559000001
 40
0.6341585414000001
 40
0.7553117109000001
 40
1.0
 40
1.0
 40
1.0
 40
1.0
 10
6.256610624799361
 20
5.642724228767308
 30
0.0
 10
6.264437002599361
 20
5.633895875367308
 30
0.0
 10
6.28160324309936
 20
5.618370291067309
 30
0.0
 10
6.306424439799362
 20
5.604201141867307
 30
0.0
 10
6.32699656029936
 20
5.596296568467309
 30
0.0
 10
6.348213561999361
 20
5.590957765267308
 30
0.0
 10
6.364614970999362
 20
5.589590681267308
 30
0.0
 10
6.375552912099362
 20
5.589098970267308
 30
0.0
  0
SPLINE
  5
34A
330
200
100
AcDbEntity
  8
0
  6
Continuous
100
AcDbSpline
210
0.0
220
0.0
230
1.0
 70
     8
 71
     3
 72
     8
 73
     4
 74
     0
 42
0.0000001
 43
0.0000000001
 40
0.0
 40
0.0
 40
0.0
 40
0.0
 40
1.0
 40
1.0
 40
1.0
 40
1.0
 10
6.458766414599361
 20
8.815184009367307
 30
0.0
 10
6.444999265299361
 20
8.811096035867308
 30
0.0
 10
6.430389600799361
 20
8.809115322267308
 30
0.0
 10
6.41603856689936
 20
8.809657312767308
 30
0.0
  0
SPLINE
  5
34B
330
200
100
AcDbEntity
  8
0
  6
Continuous
100
AcDbSpline
210
0.0
220
0.0
230
1.0
 70
     8
 71
     3
 72
     9
 73
     5
 74
     0
 42
0.0000001
 43
0.0000000001
 40
0.0
 40
0.0
 40
0.0
 40
0.0
 40
0.4998692061
 40
1.0
 40
1.0
 40
1.0
 40
1.0
 10
6.320370798999361
 20
8.791938367067308
 30
0.0
 10
6.331317207499361
 20
8.785416753067309
 30
0.0
 10
6.354558160199361
 20
8.774493654067308
 30
0.0
 10
6.379482077999361
 20
8.768358881567307
 30
0.0
 10
6.392090523599361
 20
8.766474105467308
 30
0.0
  0
SPLINE
  5
34C
330
200
100
AcDbEntity
  8
0
  6
Continuous
100
AcDbSpline
210
0.0
220
0.0
230
1.0
 70
     8
 71
     3
 72
     8
 73
     4
 74
     0
 42
0.0000001
 43
0.0000000001
 40
0.0
 40
0.0
 40
0.0
 40
0.0
 40
1.0
 40
1.0
 40
1.0
 40
1.0
 10
9.339331683599361
 20
8.809657312767308
 30
0.0
 10
9.324980649699361
 20
8.809115322267308
 30
0.0
 10
9.310370985199361
 20
8.811096035867308
 30
0.0
 10
9.296603835899361
 20
8.815184009367307
 30
0.0
  0
SPLINE
  5
34D
330
200
100
AcDbEntity
  8
0
  6
Continuous
100
AcDbSpline
210
0.0
220
0.0
230
1.0
 70
     8
 71
     3
 72
     9
 73
     5
 74
     0
 42
0.0000001
 43
0.0000000001
 40
0.0
 40
0.0
 40
0.0
 40
0.0
 40
0.5001307939000001
 40
1.0
 40
1.0
 40
1.0
 40
1.0
 10
9.36327972699936
 20
8.766474105467308
 30
0.0
 10
9.375888172499362
 20
8.768358881567307
 30
0.0
 10
9.400812090299361
 20
8.774493654067308
 30
0.0
 10
9.424053042999361
 20
8.785416753067309
 30
0.0
 10
9.434999451599361
 20
8.791938367067308
 30
0.0
  0
SPLINE
  5
34E
330
200
100
AcDbEntity
  8
0
  6
Continuous
100
AcDbSpline
210
0.0
220
0.0
230
1.0
 70
     8
 71
     3
 72
    11
 73
     7
 74
     0
 42
0.0000001
 43
0.0000000001
 40
0.0
 40
0.0
 40
0.0
 40
0.0
 40
0.2500180541
 40
0.5000270973
 40
0.7500194862999999
 40
1.0
 40
1.0
 40
1.0
 40
1.0
 10
9.41705520399936
 20
9.093035978167309
 30
0.0
 10
9.41697397819936
 20
9.101371377667309
 30
0.0
 10
9.414526783599361
 20
9.118151008167309
 30
0.0
 10
9.403314233599362
 20
9.140943141667307
 30
0.0
 10
9.385863262799361
 20
9.159359612867309
 30
0.0
 10
9.371028847499362
 20
9.167610180967308
 30
0.0
 10
9.363218279799362
 20
9.170518728667309
 30
0.0
  0
SPLINE
  5
34F
330
200
100
AcDbEntity
  8
0
  6
Continuous
100
AcDbSpline
210
0.0
220
0.0
230
1.0
 70
     8
 71
     3
 72
     9
 73
     5
 74
     0
 42
0.0000001
 43
0.0000000001
 40
0.0
 40
0.0
 40
0.0
 40
0.0
 40
0.4999799461000001
 40
1.0
 40
1.0
 40
1.0
 40
1.0
 10
9.270871291699361
 20
9.014075669067308
 30
0.0
 10
9.278544553599362
 20
9.023268596167309
 30
0.0
 10
9.298143446599361
 20
9.038562071967307
 30
0.0
 10
9.322403037099361
 20
9.043717547467307
 30
0.0
 10
9.334378038699361
 20
9.043823379667307
 30
0.0
  0
SPLINE
  5
350
330
200
100
AcDbEntity
  8
0
  6
Continuous
100
AcDbSpline
210
0.0
220
0.0
230
1.0
 70
     8
 71
     3
 72
    11
 73
     7
 74
     0
 42
0.0000001
 43
0.0000000001
 40
0.0
 40
0.0
 40
0.0
 40
0.0
 40
0.2499999044
 40
0.4999958126000001
 40
0.7499974817
 40
1.0
 40
1.0
 40
1.0
 40
1.0
 10
9.363229777899361
 20
9.038632487767308
 30
0.0
 10
9.371044228399361
 20
9.035734620667309
 30
0.0
 10
9.38586405009936
 20
9.027454376967307
 30
0.0
 10
9.403319617999361
 20
9.009050280867308
 30
0.0
 10
9.414524614799361
 20
8.986257162467307
 30
0.0
 10
9.416981548099361
 20
8.969480438867307
 30
0.0
 10
9.41705520399936
 20
8.961146214367307
 30
0.0
  0
SPLINE
  5
351
330
200
100
AcDbEntity
  8
0
  6
Continuous
100
AcDbSpline
210
0.0
220
0.0
230
1.0
 70
     8
 71
     3
 72
    11
 73
     7
 74
     0
 42
0.0000001
 43
0.0000000001
 40
0.0
 40
0.0
 40
0.0
 40
0.0
 40
0.249972331
 40
0.4999690239000001
 40
0.7499881717
 40
1.0
 40
1.0
 40
1.0
 40
1.0
 10
6.392123945499361
 20
9.170508061067309
 30
0.0
 10
6.38431708829936
 20
9.167597440867309
 30
0.0
 10
6.369490441299361
 20
9.159344916867308
 30
0.0
 10
6.352046444699362
 20
9.140930396867307
 30
0.0
 10
6.340847392399362
 20
9.118143335067308
 30
0.0
 10
6.338384228199361
 20
9.101368797767309
 30
0.0
 10
6.338315046499361
 20
9.093035978167309
 30
0.0
  0
SPLINE
  5
352
330
200
100
AcDbEntity
  8
0
  6
Continuous
100
AcDbSpline
210
0.0
220
0.0
230
1.0
 70
     8
 71
     3
 72
    11
 73
     7
 74
     0
 42
0.0000001
 43
0.0000000001
 40
0.0
 40
0.0
 40
0.0
 40
0.0
 40
0.2500027056
 40
0.5000044265
 40
0.7500003485
 40
1.0
 40
1.0
 40
1.0
 40
1.0
 10
6.338315046499361
 20
8.961146214367307
 30
0.0
 10
6.338388867999361
 20
8.969480432367307
 30
0.0
 10
6.340845584599361
 20
8.986257136967306
 30
0.0
 10
6.352050617999361
 20
9.009050247867309
 30
0.0
 10
6.36950613019936
 20
9.027454333367309
 30
0.0
 10
6.384325934999361
 20
9.035734530467308
 30
0.0
 10
6.392140351099361
 20
9.038632433667308
 30
0.0
  0
SPLINE
  5
353
330
200
100
AcDbEntity
  8
0
  6
Continuous
100
AcDbSpline
210
0.0
220
0.0
230
1.0
 70
     8
 71
     3
 72
     9
 73
     5
 74
     0
 42
0.0000001
 43
0.0000000001
 40
0.0
 40
0.0
 40
0.0
 40
0.0
 40
0.5000200629
 40
1.0
 40
1.0
 40
1.0
 40
1.0
 10
6.420992211899361
 20
9.043823379667307
 30
0.0
 10
6.432967289999361
 20
9.043717308867307
 30
0.0
 10
6.457227058699361
 20
9.038562157367307
 30
0.0
 10
6.47682600419936
 20
9.023268338167309
 30
0.0
 10
6.484499261299361
 20
9.01407530526731
 30
0.0
  0
SPLINE
  5
354
330
200
100
AcDbEntity
  8
0
  6
Continuous
100
AcDbSpline
210
0.0
220
0.0
230
1.0
 70
     8
 71
     3
 72
     8
 73
     4
 74
     0
 42
0.0000001
 43
0.0000000001
 40
0.0
 40
0.0
 40
0.0
 40
0.0
 40
1.0
 40
1.0
 40
1.0
 40
1.0
 10
9.504980477399362
 20
3.255582421267308
 30
0.0
 10
9.494126179799362
 20
3.244721507567308
 30
0.0
 10
9.480870980599361
 20
3.235858491367308
 30
0.0
 10
9.466686101099361
 20
3.229979340467307
 30
0.0
  0
SPLINE
  5
355
330
200
100
AcDbEntity
  8
0
  6
Continuous
100
AcDbSpline
210
0.0
220
0.0
230
1.0
 70
     8
 71
     3
 72
     9
 73
     5
 74
     0
 42
0.0000001
 43
0.0000000001
 40
0.0
 40
0.0
 40
0.0
 40
0.0
 40
0.5079487134000001
 40
1.0
 40
1.0
 40
1.0
 40
1.0
 10
9.59251999419936
 20
9.605136738467308
 30
0.0
 10
9.59251999419936
 20
9.620432159967307
 30
0.0
 10
9.58735559329936
 20
9.650783905367308
 30
0.0
 10
9.57186771319936
 20
9.677529822467306
 30
0.0
 10
9.562079781799361
 20
9.688653287467307
 30
0.0
  0
SPLINE
  5
356
330
200
100
AcDbEntity
  8
0
  6
Continuous
100
AcDbSpline
210
0.0
220
0.0
230
1.0
 70
     8
 71
     3
 72
     8
 73
     4
 74
     0
 42
0.0000001
 43
0.0000000001
 40
0.0
 40
0.0
 40
0.0
 40
0.0
 40
1.0
 40
1.0
 40
1.0
 40
1.0
 10
9.593219632099362
 20
9.688653287467307
 30
0.0
 10
9.604076461099362
 20
9.677789840767308
 30
0.0
 10
9.612932708199361
 20
9.664526289267307
 30
0.0
 10
9.618807116299361
 20
9.650335569067308
 30
0.0
  0
SPLINE
  5
357
330
200
100
AcDbEntity
  8
0
  6
Continuous
100
AcDbSpline
210
0.0
220
0.0
230
1.0
 70
     8
 71
     3
 72
     8
 73
     4
 74
     0
 42
0.0000001
 43
0.0000000001
 40
0.0
 40
0.0
 40
0.0
 40
0.0
 40
1.0
 40
1.0
 40
1.0
 40
1.0
 10
9.618807116299361
 20
9.650335569067308
 30
0.0
 10
9.624682492699362
 20
9.636142509667307
 30
0.0
 10
9.62779224579936
 20
9.620497825067308
 30
0.0
 10
9.62779224579936
 20
9.605136738467308
 30
0.0
  0
SPLINE
  5
358
330
200
100
AcDbEntity
  8
0
  6
Continuous
100
AcDbSpline
210
0.0
220
0.0
230
1.0
 70
     8
 71
     3
 72
     8
 73
     4
 74
     0
 42
0.0000001
 43
0.0000000001
 40
0.0
 40
0.0
 40
0.0
 40
0.0
 40
1.0
 40
1.0
 40
1.0
 40
1.0
 10
6.13656313429936
 20
9.650335569067308
 30
0.0
 10
6.142437542299362
 20
9.664526289267307
 30
0.0
 10
6.15129378939936
 20
9.677789840767308
 30
0.0
 10
6.162150618399361
 20
9.688653287467307
 30
0.0
  0
SPLINE
  5
359
330
200
100
AcDbEntity
  8
0
  6
Continuous
100
AcDbSpline
210
0.0
220
0.0
230
1.0
 70
     8
 71
     3
 72
     9
 73
     5
 74
     0
 42
0.0000001
 43
0.0000000001
 40
0.0
 40
0.0
 40
0.0
 40
0.0
 40
0.4920512866
 40
1.0
 40
1.0
 40
1.0
 40
1.0
 10
6.193290468699361
 20
9.688653287467307
 30
0.0
 10
6.183502537399361
 20
9.677529822467306
 30
0.0
 10
6.168014657299361
 20
9.650783905367308
 30
0.0
 10
6.162850256299361
 20
9.620432159967307
 30
0.0
 10
6.162850256299361
 20
9.605136738467308
 30
0.0
  0
SPLINE
  5
35A
330
200
100
AcDbEntity
  8
0
  6
Continuous
100
AcDbSpline
210
0.0
220
0.0
230
1.0
 70
     8
 71
     3
 72
     8
 73
     4
 74
     0
 42
0.0000001
 43
0.0000000001
 40
0.0
 40
0.0
 40
0.0
 40
0.0
 40
1.0
 40
1.0
 40
1.0
 40
1.0
 10
6.127578004699361
 20
9.605136738467308
 30
0.0
 10
6.127578004699361
 20
9.620497825067308
 30
0.0
 10
6.130687757899361
 20
9.636142509667307
 30
0.0
 10
6.13656313429936
 20
9.650335569067308
 30
0.0
  0
SPLINE
  5
35B
330
200
100
AcDbEntity
  8
0
  6
Continuous
100
AcDbSpline
210
0.0
220
0.0
230
1.0
 70
     8
 71
     3
 72
     8
 73
     4
 74
     0
 42
0.0000001
 43
0.0000000001
 40
0.0
 40
0.0
 40
0.0
 40
0.0
 40
1.0
 40
1.0
 40
1.0
 40
1.0
 10
6.25038977319936
 20
9.776946227867309
 30
0.0
 10
6.26124407069936
 20
9.787807141567308
 30
0.0
 10
6.274499269899362
 20
9.796670157867309
 30
0.0
 10
6.288684149399361
 20
9.802549308767307
 30
0.0
  0
SPLINE
  5
35C
330
200
100
AcDbEntity
  8
0
  6
Continuous
100
AcDbSpline
210
0.0
220
0.0
230
1.0
 70
     8
 71
     3
 72
     8
 73
     4
 74
     0
 42
0.0000001
 43
0.0000000001
 40
0.0
 40
0.0
 40
0.0
 40
0.0
 40
1.0
 40
1.0
 40
1.0
 40
1.0
 10
9.466686101099361
 20
9.802549308767307
 30
0.0
 10
9.480870980599361
 20
9.796670157867309
 30
0.0
 10
9.494126179799362
 20
9.787807141567308
 30
0.0
 10
9.504980477399362
 20
9.776946227867309
 30
0.0
  0
SPLINE
  5
35D
330
200
100
AcDbEntity
  8
0
  6
Continuous
100
AcDbSpline
210
0.0
220
0.0
230
1.0
 70
     8
 71
     3
 72
     9
 73
     5
 74
     0
 42
0.0000001
 43
0.0000000001
 40
0.0
 40
0.0
 40
0.0
 40
0.0
 40
0.5088806898
 40
1.0
 40
1.0
 40
1.0
 40
1.0
 10
9.48438769189936
 20
9.776946227867309
 30
0.0
 10
9.47622567699936
 20
9.786221925067309
 30
0.0
 10
9.45697985899936
 20
9.801950800167309
 30
0.0
 10
9.433210967599361
 20
9.809570015767308
 30
0.0
 10
9.42136527809936
 20
9.810936152367307
 30
0.0
  0
SPLINE
  5
35E
330
200
100
AcDbEntity
  8
0
  6
Continuous
100
AcDbSpline
210
0.0
220
0.0
230
1.0
 70
     8
 71
     3
 72
     8
 73
     4
 74
     0
 42
0.0000001
 43
0.0000000001
 40
0.0
 40
0.0
 40
0.0
 40
0.0
 40
1.0
 40
1.0
 40
1.0
 40
1.0
 10
9.421514804399361
 20
9.811539915167308
 30
0.0
 10
9.43686724559936
 20
9.811539915167308
 30
0.0
 10
9.45250356129936
 20
9.808427489867307
 30
0.0
 10
9.466686101099361
 20
9.802549308767307
 30
0.0
  0
SPLINE
  5
35F
330
200
100
AcDbEntity
  8
0
  6
Continuous
100
AcDbSpline
210
0.0
220
0.0
230
1.0
 70
     8
 71
     3
 72
     9
 73
     5
 74
     0
 42
0.0000001
 43
0.0000000001
 40
0.0
 40
0.0
 40
0.0
 40
0.0
 40
0.4910965492
 40
1.0
 40
1.0
 40
1.0
 40
1.0
 10
9.42136998779936
 20
3.221592848967308
 30
0.0
 10
9.433214338699361
 20
3.222959151767307
 30
0.0
 10
9.456981134299361
 20
3.230579372767308
 30
0.0
 10
9.476225830799361
 20
3.246306898867308
 30
0.0
 10
9.48438769189936
 20
3.255582421267308
 30
0.0
  0
SPLINE
  5
360
330
200
100
AcDbEntity
  8
0
  6
Continuous
100
AcDbSpline
210
0.0
220
0.0
230
1.0
 70
     8
 71
     3
 72
     9
 73
     5
 74
     0
 42
0.0000001
 43
0.0000000001
 40
0.0
 40
0.0
 40
0.0
 40
0.0
 40
0.4910965492
 40
1.0
 40
1.0
 40
1.0
 40
1.0
 10
6.334000262799361
 20
9.810935800167309
 30
0.0
 10
6.32215591179936
 20
9.809569497367307
 30
0.0
 10
6.298389116199361
 20
9.801949276467308
 30
0.0
 10
6.279144419799361
 20
9.786221750267309
 30
0.0
 10
6.270982558599361
 20
9.776946227867309
 30
0.0
  0
SPLINE
  5
361
330
200
100
AcDbEntity
  8
0
  6
Continuous
100
AcDbSpline
210
0.0
220
0.0
230
1.0
 70
     8
 71
     3
 72
     9
 73
     5
 74
     0
 42
0.0000001
 43
0.0000000001
 40
0.0
 40
0.0
 40
0.0
 40
0.0
 40
0.5088806898
 40
1.0
 40
1.0
 40
1.0
 40
1.0
 10
6.270982558599361
 20
3.255582421267308
 30
0.0
 10
6.279144573599361
 20
3.246306724067308
 30
0.0
 10
6.298390391599361
 20
3.230577848967308
 30
0.0
 10
6.32215928299936
 20
3.222958633467309
 30
0.0
 10
6.334004972399362
 20
3.221592496867307
 30
0.0
  0
SPLINE
  5
362
330
200
100
AcDbEntity
  8
0
  6
Continuous
100
AcDbSpline
210
0.0
220
0.0
230
1.0
 70
     8
 71
     3
 72
     8
 73
     4
 74
     0
 42
0.0000001
 43
0.0000000001
 40
0.0
 40
0.0
 40
0.0
 40
0.0
 40
1.0
 40
1.0
 40
1.0
 40
1.0
 10
6.333855446099361
 20
3.220988734067308
 30
0.0
 10
6.318503004899361
 20
3.220988734067308
 30
0.0
 10
6.302866689199361
 20
3.224101159267307
 30
0.0
 10
6.288684149399361
 20
3.229979340467307
 30
0.0
  0
SPLINE
  5
363
330
200
100
AcDbEntity
  8
0
  6
Continuous
100
AcDbSpline
210
0.0
220
0.0
230
1.0
 70
     8
 71
     3
 72
     8
 73
     4
 74
     0
 42
0.0000001
 43
0.0000000001
 40
0.0
 40
0.0
 40
0.0
 40
0.0
 40
1.0
 40
1.0
 40
1.0
 40
1.0
 10
6.288684149399361
 20
3.229979340467307
 30
0.0
 10
6.274499269899362
 20
3.235858491367308
 30
0.0
 10
6.26124407069936
 20
3.244721507567308
 30
0.0
 10
6.25038977319936
 20
3.255582421267308
 30
0.0
  0
SPLINE
  5
364
330
200
100
AcDbEntity
  8
0
  6
Continuous
100
AcDbSpline
210
0.0
220
0.0
230
1.0
 70
     8
 71
     3
 72
     9
 73
     5
 74
     0
 42
0.0000001
 43
0.0000000001
 40
0.0
 40
0.0
 40
0.0
 40
0.0
 40
0.5079487134000001
 40
1.0
 40
1.0
 40
1.0
 40
1.0
 10
6.162850256299361
 20
3.427391910667308
 30
0.0
 10
6.162850256299361
 20
3.412096489167308
 30
0.0
 10
6.168014657299361
 20
3.381744743767309
 30
0.0
 10
6.183502537399361
 20
3.354998826667308
 30
0.0
 10
6.193290468699361
 20
3.343875361767308
 30
0.0
  0
SPLINE
  5
365
330
200
100
AcDbEntity
  8
0
  6
Continuous
100
AcDbSpline
210
0.0
220
0.0
230
1.0
 70
     8
 71
     3
 72
     8
 73
     4
 74
     0
 42
0.0000001
 43
0.0000000001
 40
0.0
 40
0.0
 40
0.0
 40
0.0
 40
1.0
 40
1.0
 40
1.0
 40
1.0
 10
6.162150618399361
 20
3.343875361767308
 30
0.0
 10
6.15129378939936
 20
3.354738808467308
 30
0.0
 10
6.142437542299362
 20
3.368002359867308
 30
0.0
 10
6.13656313429936
 20
3.382193080067308
 30
0.0
  0
SPLINE
  5
366
330
200
100
AcDbEntity
  8
0
  6
Continuous
100
AcDbSpline
210
0.0
220
0.0
230
1.0
 70
     8
 71
     3
 72
     8
 73
     4
 74
     0
 42
0.0000001
 43
0.0000000001
 40
0.0
 40
0.0
 40
0.0
 40
0.0
 40
1.0
 40
1.0
 40
1.0
 40
1.0
 10
9.618807116299361
 20
3.382193080067308
 30
0.0
 10
9.612932708199361
 20
3.368002359867308
 30
0.0
 10
9.604076461099362
 20
3.354738808467308
 30
0.0
 10
9.593219632099362
 20
3.343875361767308
 30
0.0
  0
SPLINE
  5
367
330
200
100
AcDbEntity
  8
0
  6
Continuous
100
AcDbSpline
210
0.0
220
0.0
230
1.0
 70
     8
 71
     3
 72
     9
 73
     5
 74
     0
 42
0.0000001
 43
0.0000000001
 40
0.0
 40
0.0
 40
0.0
 40
0.0
 40
0.4920512866
 40
1.0
 40
1.0
 40
1.0
 40
1.0
 10
9.562079781799361
 20
3.343875361767308
 30
0.0
 10
9.57186771319936
 20
3.354998826667308
 30
0.0
 10
9.58735559329936
 20
3.381744743767309
 30
0.0
 10
9.59251999419936
 20
3.412096489167308
 30
0.0
 10
9.59251999419936
 20
3.427391910667308
 30
0.0
  0
SPLINE
  5
368
330
200
100
AcDbEntity
  8
0
  6
Continuous
100
AcDbSpline
210
0.0
220
0.0
230
1.0
 70
     8
 71
     3
 72
     8
 73
     4
 74
     0
 42
0.0000001
 43
0.0000000001
 40
0.0
 40
0.0
 40
0.0
 40
0.0
 40
1.0
 40
1.0
 40
1.0
 40
1.0
 10
9.62779224579936
 20
3.427391910667308
 30
0.0
 10
9.62779224579936
 20
3.412030824067308
 30
0.0
 10
9.624682492699362
 20
3.396386139467308
 30
0.0
 10
9.618807116299361
 20
3.382193080067308
 30
0.0
  0
SPLINE
  5
369
330
200
100
AcDbEntity
  8
0
  6
Continuous
100
AcDbSpline
210
0.0
220
0.0
230
1.0
 70
     8
 71
     3
 72
     8
 73
     4
 74
     0
 42
0.0000001
 43
0.0000000001
 40
0.0
 40
0.0
 40
0.0
 40
0.0
 40
1.0
 40
1.0
 40
1.0
 40
1.0
 10
6.13656313429936
 20
3.382193080067308
 30
0.0
 10
6.130687757899361
 20
3.396386139467308
 30
0.0
 10
6.127578004699361
 20
3.412030824067308
 30
0.0
 10
6.127578004699361
 20
3.427391910667308
 30
0.0
  0
SPLINE
  5
36A
330
200
100
AcDbEntity
  8
0
  6
Continuous
100
AcDbSpline
210
0.0
220
0.0
230
1.0
 70
     8
 71
     3
 72
     8
 73
     4
 74
     0
 42
0.0000001
 43
0.0000000001
 40
0.0
 40
0.0
 40
0.0
 40
0.0
 40
1.0
 40
1.0
 40
1.0
 40
1.0
 10
9.466686101099361
 20
3.229979340467307
 30
0.0
 10
9.45250356129936
 20
3.224101159267307
 30
0.0
 10
9.43686724559936
 20
3.220988734067308
 30
0.0
 10
9.421514804399361
 20
3.220988734067308
 30
0.0
  0
SPLINE
  5
36D
330
200
100
AcDbEntity
  8
0
  6
Continuous
100
AcDbSpline
210
0.0
220
0.0
230
1.0
 70
     8
 71
     3
 72
    17
 73
    13
 74
     0
 42
0.0000001
 43
0.0000000001
 40
0.0
 40
0.0
 40
0.0
 40
0.0
 40
0.1124695865
 40
0.2270489769
 40
0.3445888574
 40
0.4653680282
 40
0.5902366542000001
 40
0.7201136764000001
 40
0.7875579869
 40
0.8567770362
 40
0.9279703665999999
 40
1.0
 40
1.0
 40
1.0
 40
1.0
 10
14.22293069535704
 20
7.409965111967309
 30
0.0
 10
14.23169140965704
 20
7.409658122167309
 30
0.0
 10
14.24938459845704
 20
7.408585744567309
 30
0.0
 10
14.27585644935704
 20
7.403538148467308
 30
0.0
 10
14.30196992085704
 20
7.394672718967308
 30
0.0
 10
14.32756746965704
 20
7.382384231267307
 30
0.0
 10
14.35182096745704
 20
7.365800873767307
 30
0.0
 10
14.36999332505704
 20
7.348188459767309
 30
0.0
 10
14.38206512095704
 20
7.331199901067309
 30
0.0
 10
14.38931040465704
 20
7.316627364367308
 30
0.0
 10
14.39434165075704
 20
7.300805751867308
 30
0.0
 10
14.39578903825704
 20
7.289591306167308
 30
0.0
 10
14.39558582525704
 20
7.283980859967307
 30
0.0
  0
SPLINE
  5
36E
330
200
100
AcDbEntity
  8
0
  6
Continuous
100
AcDbSpline
210
0.0
220
0.0
230
1.0
 70
     8
 71
     3
 72
    17
 73
    13
 74
     0
 42
0.0000001
 43
0.0000000001
 40
0.0
 40
0.0
 40
0.0
 40
0.0
 40
0.0720673255
 40
0.1432097611
 40
0.2124279835
 40
0.2798544424
 40
0.4097335277000001
 40
0.5346144885000001
 40
0.6554052832
 40
0.7729470237000001
 40
0.8875237961999999
 40
1.0
 40
1.0
 40
1.0
 40
1.0
 10
14.39558582525704
 20
6.768232828467308
 30
0.0
 10
14.39576750845704
 20
6.762618216967309
 30
0.0
 10
14.39443455865704
 20
6.751399701267308
 30
0.0
 10
14.38940061425704
 20
6.735561644567308
 30
0.0
 10
14.38206318205704
 20
6.721042391067308
 30
0.0
 10
14.36998081085704
 20
6.704066725367308
 30
0.0
 10
14.35183603895704
 20
6.686423213267309
 30
0.0
 10
14.32757881735704
 20
6.669834131467307
 30
0.0
 10
14.30198411155704
 20
6.657531793067308
 30
0.0
 10
14.27586668955704
 20
6.648661213467308
 30
0.0
 10
14.24938477175704
 20
6.643652952367308
 30
0.0
 10
14.23169221555704
 20
6.642568729567308
 30
0.0
 10
14.22293069535704
 20
6.642248576567308
 30
0.0
  0
SPLINE
  5
36F
330
200
100
AcDbEntity
  8
0
  6
Continuous
100
AcDbSpline
210
0.0
220
0.0
230
1.0
 70
     8
 71
     3
 72
    17
 73
    13
 74
     0
 42
0.0000001
 43
0.0000000001
 40
0.0
 40
0.0
 40
0.0
 40
0.0
 40
0.1124695865
 40
0.2270489769
 40
0.3445888574
 40
0.4653680282
 40
0.5902366542000001
 40
0.7201136764000001
 40
0.7875579869
 40
0.8567770362
 40
0.9279703665999999
 40
1.0
 40
1.0
 40
1.0
 40
1.0
 10
14.22293069535704
 20
6.378469048967307
 30
0.0
 10
14.23169140965704
 20
6.378162059167307
 30
0.0
 10
14.24938459845704
 20
6.377089681567307
 30
0.0
 10
14.27585644935704
 20
6.372042085467308
 30
0.0
 10
14.30196992085704
 20
6.363176655967308
 30
0.0
 10
14.32756746965704
 20
6.350888168267308
 30
0.0
 10
14.35182096745704
 20
6.334304810767308
 30
0.0
 10
14.36999332505704
 20
6.316692396767308
 30
0.0
 10
14.38206512095704
 20
6.299703838067307
 30
0.0
 10
14.38931040465704
 20
6.285131301367307
 30
0.0
 10
14.39434165075704
 20
6.269309688867307
 30
0.0
 10
14.39578903825704
 20
6.258095243267309
 30
0.0
 10
14.39558582525704
 20
6.252484797067308
 30
0.0
  0
SPLINE
  5
370
330
200
100
AcDbEntity
  8
0
  6
Continuous
100
AcDbSpline
210
0.0
220
0.0
230
1.0
 70
     8
 71
     3
 72
    17
 73
    13
 74
     0
 42
0.0000001
 43
0.0000000001
 40
0.0
 40
0.0
 40
0.0
 40
0.0
 40
0.0720673255
 40
0.1432097611
 40
0.2124279835
 40
0.2798544424
 40
0.4097335277000001
 40
0.5346144885000001
 40
0.6554052832
 40
0.7729470237000001
 40
0.8875237961999999
 40
1.0
 40
1.0
 40
1.0
 40
1.0
 10
14.39558582525704
 20
5.736736765567307
 30
0.0
 10
14.39576750845704
 20
5.731122153967307
 30
0.0
 10
14.39443455865704
 20
5.719903638267309
 30
0.0
 10
14.38940061425704
 20
5.704065581567308
 30
0.0
 10
14.38206318205704
 20
5.689546328067308
 30
0.0
 10
14.36998081085704
 20
5.672570662367308
 30
0.0
 10
14.35183603895704
 20
5.654927150267308
 30
0.0
 10
14.32757881735704
 20
5.638338068467309
 30
0.0
 10
14.30198411155704
 20
5.626035730067307
 30
0.0
 10
14.27586668955704
 20
5.617165150467307
 30
0.0
 10
14.24938477175704
 20
5.612156889367307
 30
0.0
 10
14.23169221555704
 20
5.611072666567308
 30
0.0
 10
14.22293069535704
 20
5.610752513567309
 30
0.0
  0
SPLINE
  5
371
330
200
100
AcDbEntity
  8
0
  6
Continuous
100
AcDbSpline
210
0.0
220
0.0
230
1.0
 70
     8
 71
     3
 72
    17
 73
    13
 74
     0
 42
0.0000001
 43
0.0000000001
 40
0.0
 40
0.0
 40
0.0
 40
0.0
 40
0.0726030863
 40
0.1416616763
 40
0.2072048388
 40
0.2697237952
 40
0.3886546715999999
 40
0.5036781217000001
 40
0.6177397190999999
 40
0.7344298732
 40
0.859760752
 40
1.0
 40
1.0
 40
1.0
 40
1.0
 10
14.25684717025704
 20
9.177681647367307
 30
0.0
 10
14.25678528895704
 20
9.180715334067308
 30
0.0
 10
14.25574836035704
 20
9.186673166667308
 30
0.0
 10
14.25157680395703
 20
9.194387289167307
 30
0.0
 10
14.24606627085704
 20
9.200584898867308
 30
0.0
 10
14.23782714535704
 20
9.206898149967306
 30
0.0
 10
14.22617533455704
 20
9.211685782967309
 30
0.0
 10
14.21164431195704
 20
9.213707721567308
 30
0.0
 10
14.19711133965704
 20
9.212056522467307
 30
0.0
 10
14.18319886955704
 20
9.206139206767307
 30
0.0
 10
14.17124879745704
 20
9.194859625767309
 30
0.0
 10
14.16775946585704
 20
9.183542659267308
 30
0.0
 10
14.16773787325704
 20
9.177681647367307
 30
0.0
  0
SPLINE
  5
372
330
200
100
AcDbEntity
  8
0
  6
Continuous
100
AcDbSpline
210
0.0
220
0.0
230
1.0
 70
     8
 71
     3
 72
    18
 73
    14
 74
     0
 42
0.0000001
 43
0.0000000001
 40
0.0
 40
0.0
 40
0.0
 40
0.0
 40
0.0726017279
 40
0.1413726631
 40
0.2665945317
 40
0.3830711729
 40
0.4970124134000001
 40
0.6119113854
 40
0.7307082979000001
 40
0.7930761439000001
 40
0.8584241594999999
 40
0.9273993995999999
 40
1.0
 40
1.0
 40
1.0
 40
1.0
 10
14.16773787325704
 20
8.280043852167308
 30
0.0
 10
14.16785528075704
 20
8.277007269667308
 30
0.0
 10
14.16865766445704
 20
8.271058547267307
 30
0.0
 10
14.17348416545704
 20
8.260833512367307
 30
0.0
 10
14.18319608785704
 20
8.251561332167307
 30
0.0
 10
14.19712052665704
 20
8.245686289167307
 30
0.0
 10
14.21164848455704
 20
8.244004494667308
 30
0.0
 10
14.22620101955704
 20
8.246040085767308
 30
0.0
 10
14.23778888215704
 20
8.250945210967309
 30
0.0
 10
14.24609568895704
 20
8.257145949867307
 30
0.0
 10
14.25168460755704
 20
8.263273170567309
 30
0.0
 10
14.25580399295704
 20
8.271047367267307
 30
0.0
 10
14.25671133505704
 20
8.27700808536731
 30
0.0
 10
14.25684717025704
 20
8.280043852167308
 30
0.0
  0
SPLINE
  5
373
330
200
100
AcDbEntity
  8
0
  6
Continuous
100
AcDbSpline
210
0.0
220
0.0
230
1.0
 70
     8
 71
     3
 72
    15
 73
    11
 74
     0
 42
0.0000001
 43
0.0000000001
 40
0.0
 40
0.0
 40
0.0
 40
0.0
 40
0.1491320171
 40
0.2802741011
 40
0.3953552533
 40
0.5022538925
 40
0.6079902068000001
 40
0.7209768251000001
 40
0.8505956412000001
 40
1.0
 40
1.0
 40
1.0
 40
1.0
 10
14.03989908905703
 20
9.177681647367307
 30
0.0
 10
14.03979939545704
 20
9.183017050567309
 30
0.0
 10
14.03749932465704
 20
9.193153077567309
 30
0.0
 10
14.02885002125704
 20
9.204807787767309
 30
0.0
 10
14.01781723875704
 20
9.211538626567307
 30
0.0
 10
14.00606579595704
 20
9.213791493567308
 30
0.0
 10
13.99430907115704
 20
9.211793764267307
 30
0.0
 10
13.98349336095704
 20
9.204958226367308
 30
0.0
 10
13.97524405095704
 20
9.193156218267308
 30
0.0
 10
13.97323052895704
 20
9.183027659367308
 30
0.0
 10
13.97320364445704
 20
9.177681647367307
 30
0.0
  0
SPLINE
  5
374
330
200
100
AcDbEntity
  8
0
  6
Continuous
100
AcDbSpline
210
0.0
220
0.0
230
1.0
 70
     8
 71
     3
 72
    15
 73
    11
 74
     0
 42
0.0000001
 43
0.0000000001
 40
0.0
 40
0.0
 40
0.0
 40
0.0
 40
0.1491684401
 40
0.2787493978
 40
0.3916811957
 40
0.4974904861000001
 40
0.6042787856000001
 40
0.7194623329000001
 40
0.8509776226000001
 40
1.0
 40
1.0
 40
1.0
 40
1.0
 10
13.97320364445704
 20
8.280043852167308
 30
0.0
 10
13.97324693975704
 20
8.274704727867309
 30
0.0
 10
13.97523563755704
 20
8.264585725667309
 30
0.0
 10
13.98346892285704
 20
8.252775075167308
 30
0.0
 10
13.99430155265704
 20
8.245947868667308
 30
0.0
 10
14.00604267775704
 20
8.243969035067308
 30
0.0
 10
14.01783710635704
 20
8.246043125967307
 30
0.0
 10
14.02886306305704
 20
8.252875618867308
 30
0.0
 10
14.03742984105704
 20
8.264582087567308
 30
0.0
 10
14.03980067515704
 20
8.274710688367308
 30
0.0
 10
14.03989908905703
 20
8.280043852167308
 30
0.0
  0
SPLINE
  5
375
330
200
100
AcDbEntity
  8
0
  6
Continuous
100
AcDbSpline
210
0.0
220
0.0
230
1.0
 70
     8
 71
     3
 72
    17
 73
    13
 74
     0
 42
0.0000001
 43
0.0000000001
 40
0.0
 40
0.0
 40
0.0
 40
0.0
 40
0.1120783931
 40
0.2266364797
 40
0.3444780049
 40
0.4657194376
 40
0.5908795278
 40
0.7208296958
 40
0.7881980433
 40
0.8572468376999999
 40
0.9282257337
 40
1.0
 40
1.0
 40
1.0
 40
1.0
 10
14.18773149695704
 20
6.616658025367307
 30
0.0
 10
14.19878488245704
 20
6.617052672567307
 30
0.0
 10
14.22113641505704
 20
6.618508689367308
 30
0.0
 10
14.25465819385704
 20
6.624796536267307
 30
0.0
 10
14.28778468985704
 20
6.636077116367308
 30
0.0
 10
14.32034622155704
 20
6.651512282167308
 30
0.0
 10
14.35150964575704
 20
6.671939243267308
 30
0.0
 10
14.37505905365704
 20
6.693706152667308
 30
0.0
 10
14.39083989295704
 20
6.714833741667307
 30
0.0
 10
14.40039859325704
 20
6.733041092767308
 30
0.0
 10
14.40709584935704
 20
6.752902953467309
 30
0.0
 10
14.40904834145704
 20
6.767060363467308
 30
0.0
 10
14.40878095455704
 20
6.774138340367308
 30
0.0
  0
SPLINE
  5
376
330
200
100
AcDbEntity
  8
0
  6
Continuous
100
AcDbSpline
210
0.0
220
0.0
230
1.0
 70
     8
 71
     3
 72
    17
 73
    13
 74
     0
 42
0.0000001
 43
0.0000000001
 40
0.0
 40
0.0
 40
0.0
 40
0.0
 40
0.0717951329
 40
0.1426870796
 40
0.2116591774
 40
0.2790194536
 40
0.409075673
 40
0.5343069033
 40
0.6555399921000001
 40
0.7733762801000001
 40
0.8879320245
 40
1.0
 40
1.0
 40
1.0
 40
1.0
 10
14.40878095455704
 20
7.285949363967308
 30
0.0
 10
14.40912345065704
 20
7.293025553667307
 30
0.0
 10
14.40721103695704
 20
7.307195625067308
 30
0.0
 10
14.40048189395704
 20
7.327034149867309
 30
0.0
 10
14.39077976225704
 20
7.345147714467309
 30
0.0
 10
14.37491443245704
 20
7.366198347467308
 30
0.0
 10
14.35148868355704
 20
7.388101642067308
 30
0.0
 10
14.32034487405704
 20
7.408606451367308
 30
0.0
 10
14.28776170235704
 20
7.424005158767307
 30
0.0
 10
14.25464145505704
 20
7.435271866567308
 30
0.0
 10
14.22113800165704
 20
7.441650640867308
 30
0.0
 10
14.19878277115704
 20
7.443031474667309
 30
0.0
 10
14.18773149695704
 20
7.443429678867309
 30
0.0
  0
SPLINE
  5
377
330
200
100
AcDbEntity
  8
0
  6
Continuous
100
AcDbSpline
210
0.0
220
0.0
230
1.0
 70
     8
 71
     3
 72
    15
 73
    11
 74
     0
 42
0.0000001
 43
0.0000000001
 40
0.0
 40
0.0
 40
0.0
 40
0.0
 40
0.0762096407
 40
0.1490851034
 40
0.2821071286
 40
0.4030464657000001
 40
0.5173281007
 40
0.7406864743000002
 40
0.8627309766999999
 40
1.0
 40
1.0
 40
1.0
 40
1.0
 10
14.14027809075704
 20
9.177681647367307
 30
0.0
 10
14.14016686705704
 20
9.180331177467307
 30
0.0
 10
14.13959531155704
 20
9.185536589267307
 30
0.0
 10
14.13600088545704
 20
9.19477554506731
 30
0.0
 10
14.12853430015704
 20
9.203757600167309
 30
0.0
 10
14.11735292365704
 20
9.210414838967308
 30
0.0
 10
14.10174968955704
 20
9.214420191867308
 30
0.0
 10
14.08487850315704
 20
9.211453821067308
 30
0.0
 10
14.07144849285704
 20
9.200894275167309
 30
0.0
 10
14.06676011095704
 20
9.19280211016731
 30
0.0
 10
14.06533324365704
 20
9.188243664867307
 30
0.0
  0
SPLINE
  5
378
330
200
100
AcDbEntity
  8
0
  6
Continuous
100
AcDbSpline
210
0.0
220
0.0
230
1.0
 70
     8
 71
     3
 72
     8
 73
     4
 74
     0
 42
0.0000001
 43
0.0000000001
 40
0.0
 40
0.0
 40
0.0
 40
0.0
 40
1.0
 40
1.0
 40
1.0
 40
1.0
 10
14.06533324365704
 20
9.188243664867307
 30
0.0
 10
14.06439510195704
 20
9.185246562167307
 30
0.0
 10
14.06388156275704
 20
9.18209706266731
 30
0.0
 10
14.06372481345704
 20
9.178960477867308
 30
0.0
  0
SPLINE
  5
379
330
200
100
AcDbEntity
  8
0
  6
Continuous
100
AcDbSpline
210
0.0
220
0.0
230
1.0
 70
     8
 71
     3
 72
     9
 73
     5
 74
     0
 42
0.0000001
 43
0.0000000001
 40
0.0
 40
0.0
 40
0.0
 40
0.0
 40
0.7544598642000001
 40
1.0
 40
1.0
 40
1.0
 40
1.0
 10
14.06372497945704
 20
8.278694371667308
 30
0.0
 10
14.06385033355704
 20
8.276190486067308
 30
0.0
 10
14.06433446585704
 20
8.272872355667308
 30
0.0
 10
14.06526486725704
 20
8.269680643267308
 30
0.0
 10
14.06552270515704
 20
8.268906540367309
 30
0.0
  0
SPLINE
  5
37A
330
200
100
AcDbEntity
  8
0
  6
Continuous
100
AcDbSpline
210
0.0
220
0.0
230
1.0
 70
     8
 71
     3
 72
    14
 73
    10
 74
     0
 42
0.0000001
 43
0.0000000001
 40
0.0
 40
0.0
 40
0.0
 40
0.0
 40
0.1368262361
 40
0.2585851
 40
0.4821724800000001
 40
0.5966906848
 40
0.7179167914
 40
0.8513950652
 40
1.0
 40
1.0
 40
1.0
 40
1.0
 10
14.06552270515704
 20
8.268906540367309
 30
0.0
 10
14.06701718205704
 20
8.264419693667308
 30
0.0
 10
14.07178164235704
 20
8.256485515367309
 30
0.0
 10
14.08521118825704
 20
8.246151289567308
 30
0.0
 10
14.10198334635704
 20
8.243328505967308
 30
0.0
 10
14.11748608775704
 20
8.247361551967307
 30
0.0
 10
14.12862962265704
 20
8.254002767667309
 30
0.0
 10
14.13769011005704
 20
8.265041185767309
 30
0.0
 10
14.14018481505704
 20
8.274908394467308
 30
0.0
 10
14.14027809075704
 20
8.280043852167308
 30
0.0
  0
SPLINE
  5
37B
330
200
100
AcDbEntity
  8
0
  6
Continuous
100
AcDbSpline
210
0.0
220
0.0
230
1.0
 70
     8
 71
     3
 72
    15
 73
    11
 74
     0
 42
0.0000001
 43
0.0000000001
 40
0.0
 40
0.0
 40
0.0
 40
0.0
 40
0.1134699549
 40
0.2292043618
 40
0.3479320090999999
 40
0.4698155958
 40
0.5951610092000001
 40
0.7245438622
 40
0.8591902025999999
 40
1.0
 40
1.0
 40
1.0
 40
1.0
 10
14.18773149695704
 20
5.589098970267308
 30
0.0
 10
14.19790964255704
 20
5.589462368167309
 30
0.0
 10
14.21846364505704
 20
5.590763940967308
 30
0.0
 10
14.24933657385704
 20
5.596000788867307
 30
0.0
 10
14.27994001645704
 20
5.605573215667309
 30
0.0
 10
14.31012444395704
 20
5.618683673367309
 30
0.0
 10
14.33937579855704
 20
5.635813191167308
 30
0.0
 10
14.36689468015704
 20
5.657571989767308
 30
0.0
 10
14.39098163195704
 20
5.685195249367307
 30
0.0
 10
14.40154801205704
 20
5.708057460567307
 30
0.0
 10
14.40505005335704
 20
5.720201128767309
 30
0.0
  0
SPLINE
  5
37C
330
200
100
AcDbEntity
  8
0
  6
Continuous
100
AcDbSpline
210
0.0
220
0.0
230
1.0
 70
     8
 71
     3
 72
     8
 73
     4
 74
     0
 42
0.0000001
 43
0.0000000001
 40
0.0
 40
0.0
 40
0.0
 40
0.0
 40
1.0
 40
1.0
 40
1.0
 40
1.0
 10
14.40505005335704
 20
5.720201128767309
 30
0.0
 10
14.40751069475704
 20
5.728733641467307
 30
0.0
 10
14.40911618665704
 20
5.737705382567307
 30
0.0
 10
14.40878095455704
 20
5.746579285167308
 30
0.0
  0
SPLINE
  5
37D
330
200
100
AcDbEntity
  8
0
  6
Continuous
100
AcDbSpline
210
0.0
220
0.0
230
1.0
 70
     8
 71
     3
 72
    17
 73
    13
 74
     0
 42
0.0000001
 43
0.0000000001
 40
0.0
 40
0.0
 40
0.0
 40
0.0
 40
0.0717951329
 40
0.1426870796
 40
0.2116591774
 40
0.2790194536
 40
0.409075673
 40
0.5343069033
 40
0.6555399921000001
 40
0.7733762801000001
 40
0.8879320245
 40
1.0
 40
1.0
 40
1.0
 40
1.0
 10
14.40878095455704
 20
6.258390308867308
 30
0.0
 10
14.40912345065704
 20
6.265466498567308
 30
0.0
 10
14.40721103695704
 20
6.279636569967308
 30
0.0
 10
14.40048189395704
 20
6.299475094667307
 30
0.0
 10
14.39077976225704
 20
6.317588659367308
 30
0.0
 10
14.37491443245704
 20
6.338639292367307
 30
0.0
 10
14.35148868355704
 20
6.360542586967309
 30
0.0
 10
14.32034487405704
 20
6.381047396267307
 30
0.0
 10
14.28776170235704
 20
6.396446103667308
 30
0.0
 10
14.25464145505704
 20
6.407712811367307
 30
0.0
 10
14.22113800165704
 20
6.414091585667309
 30
0.0
 10
14.19878277115704
 20
6.415472419567308
 30
0.0
 10
14.18773149695704
 20
6.415870623767307
 30
0.0
  0
LINE
  5
37E
330
200
100
AcDbEntity
  8
0
  6
Continuous
100
AcDbLine
 10
14.63372220565704
 20
3.382193080067308
 30
0.0
 11
14.63461574025704
 21
3.343875361767308
 31
0.0
  0
SPLINE
  5
37F
330
200
100
AcDbEntity
  8
0
  6
Continuous
100
AcDbSpline
210
0.0
220
0.0
230
1.0
 70
     8
 71
     3
 72
     9
 73
     5
 74
     0
 42
0.0000001
 43
0.0000000001
 40
0.0
 40
0.0
 40
0.0
 40
0.0
 40
0.4696335269
 40
1.0
 40
1.0
 40
1.0
 40
1.0
 10
14.51986520145704
 20
3.343875361767308
 30
0.0
 10
14.51411466655704
 20
3.355979375467308
 30
0.0
 10
14.50596997545704
 20
3.383682663967308
 30
0.0
 10
14.50342997505704
 20
3.412258358567308
 30
0.0
 10
14.50342997505704
 20
3.427391910667308
 30
0.0
  0
SPLINE
  5
380
330
200
100
AcDbEntity
  8
0
  6
Continuous
100
AcDbSpline
210
0.0
220
0.0
230
1.0
 70
     8
 71
     3
 72
    11
 73
     7
 74
     0
 42
0.0000001
 43
0.0000000001
 40
0.0
 40
0.0
 40
0.0
 40
0.0
 40
0.4258676977000001
 40
0.734609427
 40
0.9242595023000001
 40
1.0
 40
1.0
 40
1.0
 40
1.0
 10
14.63903438855704
 20
3.229979340467307
 30
0.0
 10
14.63914417525704
 20
3.228676308567308
 30
0.0
 10
14.63935066885704
 20
3.226474551867307
 30
0.0
 10
14.63972891215704
 20
3.223522510867308
 30
0.0
 10
14.64005390945704
 20
3.222036877467308
 30
0.0
 10
14.64037923985704
 20
3.220988734067308
 30
0.0
 10
14.64061180495704
 20
3.220988734067308
 30
0.0
  0
SPLINE
  5
381
330
200
100
AcDbEntity
  8
0
  6
Continuous
100
AcDbSpline
210
0.0
220
0.0
230
1.0
 70
     8
 71
     3
 72
     9
 73
     5
 74
     0
 42
0.0000001
 43
0.0000000001
 40
0.0
 40
0.0
 40
0.0
 40
0.0
 40
0.303795855
 40
1.0
 40
1.0
 40
1.0
 40
1.0
 10
14.63769711945704
 20
3.255582421267308
 30
0.0
 10
14.63778767535704
 20
3.252987657367308
 30
0.0
 10
14.63811909565704
 20
3.244448300567308
 30
0.0
 10
14.63853484225704
 20
3.235908332567308
 30
0.0
 10
14.63903438855704
 20
3.229979340467307
 30
0.0
  0
SPLINE
  5
382
330
200
100
AcDbEntity
  8
0
  6
Continuous
100
AcDbSpline
210
0.0
220
0.0
230
1.0
 70
     8
 71
     3
 72
     9
 73
     5
 74
     0
 42
0.0000001
 43
0.0000000001
 40
0.0
 40
0.0
 40
0.0
 40
0.0
 40
0.5303664731000001
 40
1.0
 40
1.0
 40
1.0
 40
1.0
 10
14.50342997505704
 20
9.605136738467308
 30
0.0
 10
14.50342997505704
 20
9.620270290567308
 30
0.0
 10
14.50596997545704
 20
9.648845985167309
 30
0.0
 10
14.51411466655704
 20
9.676549273667308
 30
0.0
 10
14.51986520145704
 20
9.688653287467307
 30
0.0
  0
LINE
  5
383
330
200
100
AcDbEntity
  8
0
  6
Continuous
100
AcDbLine
 10
14.63461574025704
 20
9.688653287467307
 30
0.0
 11
14.63372220565704
 21
9.650335569067308
 31
0.0
  0
SPLINE
  5
384
330
200
100
AcDbEntity
  8
0
  6
Continuous
100
AcDbSpline
210
0.0
220
0.0
230
1.0
 70
     8
 71
     3
 72
     9
 73
     5
 74
     0
 42
0.0000001
 43
0.0000000001
 40
0.0
 40
0.0
 40
0.0
 40
0.0
 40
0.1937995011
 40
1.0
 40
1.0
 40
1.0
 40
1.0
 10
14.63903438855704
 20
9.802549308767307
 30
0.0
 10
14.63889532985704
 20
9.800898855567309
 30
0.0
 10
14.63828534425704
 20
9.792373627267307
 30
0.0
 10
14.63793743645704
 20
9.783832201567308
 30
0.0
 10
14.63769711945704
 20
9.776946227867309
 30
0.0
  0
SPLINE
  5
385
330
200
100
AcDbEntity
  8
0
  6
Continuous
100
AcDbSpline
210
0.0
220
0.0
230
1.0
 70
     8
 71
     3
 72
    11
 73
     7
 74
     0
 42
0.0000001
 43
0.0000000001
 40
0.0
 40
0.0
 40
0.0
 40
0.0
 40
0.3071203201
 40
0.571565128
 40
0.7976692301
 40
1.0
 40
1.0
 40
1.0
 40
1.0
 10
14.56181257925704
 20
9.776946227867309
 30
0.0
 10
14.56423947095704
 20
9.782054471067308
 30
0.0
 10
14.56943417255704
 20
9.791273640667309
 30
0.0
 10
14.57906187025704
 20
9.802529864567308
 30
0.0
 10
14.58981542195704
 20
9.809777325267308
 30
0.0
 10
14.59776492655704
 20
9.811539915167308
 30
0.0
 10
14.60149072575704
 20
9.811539915167308
 30
0.0
  0
SPLINE
  5
386
330
200
100
AcDbEntity
  8
0
  6
Continuous
100
AcDbSpline
210
0.0
220
0.0
230
1.0
 70
     8
 71
     3
 72
    11
 73
     7
 74
     0
 42
0.0000001
 43
0.0000000001
 40
0.0
 40
0.0
 40
0.0
 40
0.0
 40
0.075739537
 40
0.2653892106
 40
0.5741318614999999
 40
1.0
 40
1.0
 40
1.0
 40
1.0
 10
14.64061180495704
 20
9.811539915167308
 30
0.0
 10
14.64037924275704
 20
9.811539915167308
 30
0.0
 10
14.64005390665704
 20
9.810491782767309
 30
0.0
 10
14.63972891705704
 20
9.809006145967309
 30
0.0
 10
14.63935066795704
 20
9.806054103767309
 30
0.0
 10
14.63914417535704
 20
9.803852342067306
 30
0.0
 10
14.63903438855704
 20
9.802549308767307
 30
0.0
  0
SPLINE
  5
387
330
200
100
AcDbEntity
  8
0
  6
Continuous
100
AcDbSpline
210
0.0
220
0.0
230
1.0
 70
     8
 71
     3
 72
    11
 73
     7
 74
     0
 42
0.0000001
 43
0.0000000001
 40
0.0
 40
0.0
 40
0.0
 40
0.0
 40
0.2023158874
 40
0.4284106686
 40
0.6928724231000001
 40
1.0
 40
1.0
 40
1.0
 40
1.0
 10
14.60149072575704
 20
3.220988734067308
 30
0.0
 10
14.59776519585704
 20
3.220988734067308
 30
0.0
 10
14.58981597055704
 20
3.222750532767308
 30
0.0
 10
14.57906271655704
 20
3.229998392867307
 30
0.0
 10
14.56943450925704
 20
3.241254455967308
 30
0.0
 10
14.56423953145704
 20
3.250474050867309
 30
0.0
 10
14.56181257925704
 20
3.255582421267308
 30
0.0
  0
ELLIPSE
  5
388
330
200
100
AcDbEntity
  8
0
  6
Continuous
100
AcDbEllipse
 10
6.312500575999361
 20
9.693429678867309
 30
0.0
 11
0.1181822296
 21
0.0
 31
0.0
210
0.0
220
0.0
230
1.0
 40
0.9993908270000002
 41
7.853981634
 42
8.6393797974
  0
ELLIPSE
  5
389
330
200
100
AcDbEntity
  8
0
  6
Continuous
100
AcDbEllipse
 10
6.224153817099361
 20
9.605136738467308
 30
0.0
 11
-0.1181822296
 21
0.0
 31
0.0
210
0.0
220
0.0
230
1.0
 40
0.9993908270000002
 41
5.4977871438
 42
6.2831853072
  0
ELLIPSE
  5
38A
330
200
100
AcDbEntity
  8
0
  6
Continuous
100
AcDbEllipse
 10
6.224153817099361
 20
3.427391910667308
 30
0.0
 11
0.1181822296
 21
0.0
 31
0.0
210
0.0
220
0.0
230
1.0
 40
0.9993908270000002
 41
3.1415926536
 42
3.926990817
  0
ELLIPSE
  5
38B
330
200
100
AcDbEntity
  8
0
  6
Continuous
100
AcDbEllipse
 10
6.312500575999361
 20
3.339098970267308
 30
0.0
 11
-0.1181822296
 21
0.0
 31
0.0
210
0.0
220
0.0
230
1.0
 40
0.9993908270000002
 41
7.068583470599999
 42
7.853981634
  0
ELLIPSE
  5
38C
330
200
100
AcDbEntity
  8
0
  6
Continuous
100
AcDbEllipse
 10
9.442869674599361
 20
3.339098970267308
 30
0.0
 11
-0.1181822296
 21
0.0
 31
0.0
210
0.0
220
0.0
230
1.0
 40
0.9993908270000002
 41
7.853981634
 42
8.6393797974
  0
ELLIPSE
  5
38D
330
200
100
AcDbEntity
  8
0
  6
Continuous
100
AcDbEllipse
 10
9.531216433499361
 20
3.427391910667308
 30
0.0
 11
0.1181822296
 21
0.0
 31
0.0
210
0.0
220
0.0
230
1.0
 40
0.9993908270000002
 41
5.4977871438
 42
6.2831853072
  0
ELLIPSE
  5
38E
330
200
100
AcDbEntity
  8
0
  6
Continuous
100
AcDbEllipse
 10
9.531216433499361
 20
9.605136738467308
 30
0.0
 11
-0.1181822296
 21
0.0
 31
0.0
210
0.0
220
0.0
230
1.0
 40
0.9993908270000002
 41
3.1415926536
 42
3.926990817
  0
ELLIPSE
  5
38F
330
200
100
AcDbEntity
  8
0
  6
Continuous
100
AcDbEllipse
 10
9.442869674599361
 20
9.693429678867309
 30
0.0
 11
0.1181822296
 21
0.0
 31
0.0
210
0.0
220
0.0
230
1.0
 40
0.9993908270000002
 41
7.068583470599999
 42
7.853981634
  0
LINE
  5
63F
330
200
100
AcDbEntity
  8
0
  6
Continuous
100
AcDbLine
 10
6.105971587399361
 20
14.87048640297086
 30
0.0
 11
6.127578004699361
 21
14.25175956617086
 31
0.0
  0
LINE
  5
640
330
200
100
AcDbEntity
  8
0
  6
Continuous
100
AcDbLine
 10
6.224141818199361
 20
14.93347852897086
 30
0.0
 11
6.224141818199361
 21
14.89410845027085
 31
0.0
  0
LINE
  5
641
330
200
100
AcDbEntity
  8
0
  6
Continuous
100
AcDbLine
 10
6.140586361099361
 20
14.87048640297086
 30
0.0
 11
6.162150618399361
 21
14.25296686847086
 31
0.0
  0
LINE
  5
642
330
200
100
AcDbEntity
  8
0
  6
Continuous
100
AcDbLine
 10
6.25038977319936
 20
14.25604824767086
 30
0.0
 11
6.228933119999362
 21
14.87048640297086
 31
0.0
  0
LINE
  5
643
330
200
100
AcDbEntity
  8
0
  6
Continuous
100
AcDbLine
 10
6.369811109499361
 20
14.87048640297086
 30
0.0
 11
6.369811109499361
 21
14.89410845027085
 31
0.0
  0
LINE
  5
644
330
200
100
AcDbEntity
  8
0
  6
Continuous
100
AcDbLine
 10
6.369811109499361
 20
14.93347852897086
 30
0.0
 11
6.369811109499361
 21
14.89410845027085
 31
0.0
  0
LINE
  5
645
330
200
100
AcDbEntity
  8
0
  6
Continuous
100
AcDbLine
 10
6.312500575999361
 20
14.87048640297086
 30
0.0
 11
6.333855446099361
 21
14.25896293317086
 31
0.0
  0
LINE
  5
646
330
200
100
AcDbEntity
  8
0
  6
Continuous
100
AcDbLine
 10
6.224141818199361
 20
14.93347852897086
 30
0.0
 11
9.531228432399361
 21
14.93347852897086
 31
0.0
  0
LINE
  5
647
330
200
100
AcDbEntity
  8
0
  6
Continuous
100
AcDbLine
 10
6.224141818199361
 20
14.89410845027085
 30
0.0
 11
9.531228432399361
 21
14.89410845027085
 31
0.0
  0
LINE
  5
648
330
200
100
AcDbEntity
  8
0
  6
Continuous
100
AcDbLine
 10
6.105971587399361
 20
14.87048640297086
 30
0.0
 11
9.649398663099361
 21
14.87048640297086
 31
0.0
  0
LINE
  5
649
330
200
100
AcDbEntity
  8
0
  6
Continuous
100
AcDbLine
 10
6.162850256299361
 20
14.12178110327086
 30
0.0
 11
6.344471732199362
 21
14.21984185397086
 31
0.0
  0
LINE
  5
64A
330
200
100
AcDbEntity
  8
0
  6
Continuous
100
AcDbLine
 10
9.421514804399361
 20
14.25896293317086
 30
0.0
 11
9.62779224579936
 21
14.25175956617086
 31
0.0
  0
LINE
  5
64B
330
200
100
AcDbEntity
  8
0
  6
Continuous
100
AcDbLine
 10
6.127578004699361
 20
14.25175956617086
 30
0.0
 11
6.333855446099361
 21
14.25896293317086
 31
0.0
  0
LINE
  5
64C
330
200
100
AcDbEntity
  8
0
  6
Continuous
100
AcDbLine
 10
9.41089851829936
 20
14.21984185397086
 30
0.0
 11
9.59251999419936
 21
14.12178110327086
 31
0.0
  0
LINE
  5
64D
330
200
100
AcDbEntity
  8
0
  6
Continuous
100
AcDbLine
 10
9.421514804399361
 20
14.25896293317086
 30
0.0
 11
9.442869674599361
 21
14.87048640297086
 31
0.0
  0
LINE
  5
64E
330
200
100
AcDbEntity
  8
0
  6
Continuous
100
AcDbLine
 10
9.385559140999362
 20
14.93347852897086
 30
0.0
 11
9.385559140999362
 21
14.89410845027085
 31
0.0
  0
LINE
  5
64F
330
200
100
AcDbEntity
  8
0
  6
Continuous
100
AcDbLine
 10
9.385559140999362
 20
14.89410845027085
 30
0.0
 11
9.385559140999362
 21
14.87048640297086
 31
0.0
  0
LINE
  5
650
330
200
100
AcDbEntity
  8
0
  6
Continuous
100
AcDbLine
 10
9.52643713059936
 20
14.87048640297086
 30
0.0
 11
9.504980477399362
 21
14.25604824767086
 31
0.0
  0
LINE
  5
651
330
200
100
AcDbEntity
  8
0
  6
Continuous
100
AcDbLine
 10
9.593219632099362
 20
14.25296686847086
 30
0.0
 11
9.61478388939936
 21
14.87048640297086
 31
0.0
  0
LINE
  5
652
330
200
100
AcDbEntity
  8
0
  6
Continuous
100
AcDbLine
 10
9.62779224579936
 20
14.25175956617086
 30
0.0
 11
9.649398663099361
 21
14.87048640297086
 31
0.0
  0
LINE
  5
653
330
200
100
AcDbEntity
  8
0
  6
Continuous
100
AcDbLine
 10
9.531228432399361
 20
14.93347852897086
 30
0.0
 11
9.531228432399361
 21
14.89410845027085
 31
0.0
  0
ARC
  5
654
330
200
100
AcDbEntity
  8
0
  6
Continuous
100
AcDbCircle
 10
6.422673721299361
 20
14.26206453567086
 30
0.0
 40
0.2952755906
100
AcDbArc
 50
181.9999999999999
 51
208.3654200402999
  0
ARC
  5
655
330
200
100
AcDbEntity
  8
0
  6
Continuous
100
AcDbCircle
 10
6.422673721299361
 20
14.26206453567086
 30
0.0
 40
0.2606819033
100
AcDbArc
 50
181.9999999999999
 51
208.3654200402
  0
ARC
  5
656
330
200
100
AcDbEntity
  8
0
  6
Continuous
100
AcDbCircle
 10
6.422673721299361
 20
14.26206453567086
 30
0.0
 40
0.1723889629
100
AcDbArc
 50
181.9999999999999
 51
208.3654200402
  0
ARC
  5
657
330
200
100
AcDbEntity
  8
0
  6
Continuous
100
AcDbCircle
 10
7.877685125299361
 20
15.04765175727086
 30
0.0
 40
1.948818897599999
100
AcDbArc
 50
208.3654200402
 51
302.3076989427
  0
ARC
  5
658
330
200
100
AcDbEntity
  8
0
  6
Continuous
100
AcDbCircle
 10
7.877685125299361
 20
15.04765175727086
 30
0.0
 40
1.948818897599999
100
AcDbArc
 50
303.6166532933
 51
323.9558811487
  0
ARC
  5
659
330
200
100
AcDbEntity
  8
0
  6
Continuous
100
AcDbCircle
 10
7.877685125299361
 20
15.04765175727086
 30
0.0
 40
1.948818897599999
100
AcDbArc
 50
328.4218807595999
 51
331.6345799598
  0
ARC
  5
65A
330
200
100
AcDbEntity
  8
0
  6
Continuous
100
AcDbCircle
 10
7.877685125299361
 20
15.04765175727086
 30
0.0
 40
1.948818897599999
100
AcDbArc
 50
302.3076989427
 51
303.6166532933
  0
ARC
  5
65B
330
200
100
AcDbEntity
  8
0
  6
Continuous
100
AcDbCircle
 10
7.877685125299361
 20
15.04765175727086
 30
0.0
 40
1.948818897599999
100
AcDbArc
 50
278.0698856625
 51
278.4041633233
  0
ARC
  5
65C
330
200
100
AcDbEntity
  8
0
  6
Continuous
100
AcDbCircle
 10
7.877685125299361
 20
15.04765175727086
 30
0.0
 40
1.948818897599999
100
AcDbArc
 50
253.1916733533
 51
261.9301143375
  0
ARC
  5
65D
330
200
100
AcDbEntity
  8
0
  6
Continuous
100
AcDbCircle
 10
7.877685125299361
 20
15.04765175727086
 30
0.0
 40
1.948818897599999
100
AcDbArc
 50
323.9558811487
 51
328.4218807595999
  0
ARC
  5
65E
330
200
100
AcDbEntity
  8
0
  6
Continuous
100
AcDbCircle
 10
7.877685125299361
 20
15.04765175727086
 30
0.0
 40
1.948818897599999
100
AcDbArc
 50
322.4523888518
 51
323.9230589634001
  0
ARC
  5
65F
330
200
100
AcDbEntity
  8
0
  6
Continuous
100
AcDbCircle
 10
7.877685125299361
 20
15.04765175727086
 30
0.0
 40
1.948818897599999
100
AcDbArc
 50
319.6580990226
 51
321.5951675163
  0
ARC
  5
660
330
200
100
AcDbEntity
  8
0
  6
Continuous
100
AcDbCircle
 10
7.877685125299361
 20
15.04765175727086
 30
0.0
 40
1.948818897599999
100
AcDbArc
 50
312.004168992
 51
318.5135935806
  0
ARC
  5
661
330
200
100
AcDbEntity
  8
0
  6
Continuous
100
AcDbCircle
 10
7.877685125299361
 20
15.04765175727086
 30
0.0
 40
1.948818897599999
100
AcDbArc
 50
289.3315012979
 51
294.2221978705
  0
ARC
  5
662
330
200
100
AcDbEntity
  8
0
  6
Continuous
100
AcDbCircle
 10
7.877685125299361
 20
15.04765175727086
 30
0.0
 40
1.948818897599999
100
AcDbArc
 50
280.7397461121
 51
286.1435488424
  0
ARC
  5
663
330
200
100
AcDbEntity
  8
0
  6
Continuous
100
AcDbCircle
 10
7.877685125299361
 20
15.04765175727086
 30
0.0
 40
1.948818897599999
100
AcDbArc
 50
211.5781192404
 51
250.6684987021
  0
ARC
  5
664
330
200
100
AcDbEntity
  8
0
  6
Continuous
100
AcDbCircle
 10
7.877685125299361
 20
15.04765175727086
 30
0.0
 40
1.914225210399999
100
AcDbArc
 50
208.3654200402
 51
331.6345799598
  0
ARC
  5
665
330
200
100
AcDbEntity
  8
0
  6
Continuous
100
AcDbCircle
 10
7.877685125299361
 20
15.04765175727086
 30
0.0
 40
1.8259322699
100
AcDbArc
 50
208.3654200402
 51
331.6345799598
  0
ARC
  5
666
330
200
100
AcDbEntity
  8
0
  6
Continuous
100
AcDbCircle
 10
7.877685125299361
 20
15.04765175727086
 30
0.0
 40
1.742415720999999
100
AcDbArc
 50
208.3654200402
 51
331.6345799598
  0
ARC
  5
667
330
200
100
AcDbEntity
  8
0
  6
Continuous
100
AcDbCircle
 10
9.332696529199361
 20
14.26206453567086
 30
0.0
 40
0.2952755906
100
AcDbArc
 50
331.6345799597
 51
358.0
  0
ARC
  5
668
330
200
100
AcDbEntity
  8
0
  6
Continuous
100
AcDbCircle
 10
9.332696529199361
 20
14.26206453567086
 30
0.0
 40
0.2606819033
100
AcDbArc
 50
331.6345799598
 51
358.0
  0
ARC
  5
669
330
200
100
AcDbEntity
  8
0
  6
Continuous
100
AcDbCircle
 10
9.332696529199361
 20
14.26206453567086
 30
0.0
 40
0.1723889629
100
AcDbArc
 50
331.6345799598
 51
358.0
  0
SPLINE
  5
66A
330
200
100
AcDbEntity
  8
0
  6
Continuous
100
AcDbSpline
210
0.0
220
0.0
230
1.0
 70
     8
 71
     3
 72
     9
 73
     5
 74
     0
 42
0.0000001
 43
0.0000000001
 40
0.0
 40
0.0
 40
0.0
 40
0.0
 40
0.5
 40
1.0
 40
1.0
 40
1.0
 40
1.0
 10
6.333855446099361
 20
14.25896293317086
 30
0.0
 10
6.334092837799361
 20
14.25216492517086
 30
0.0
 10
6.336079893799361
 20
14.23856557127086
 30
0.0
 10
6.341240075999361
 20
14.22582730857086
 30
0.0
 10
6.344471732199362
 20
14.21984185397086
 30
0.0
  0
SPLINE
  5
66B
330
200
100
AcDbEntity
  8
0
  6
Continuous
100
AcDbSpline
210
0.0
220
0.0
230
1.0
 70
     8
 71
     3
 72
     9
 73
     5
 74
     0
 42
0.0000001
 43
0.0000000001
 40
0.0
 40
0.0
 40
0.0
 40
0.0
 40
0.5
 40
1.0
 40
1.0
 40
1.0
 40
1.0
 10
9.41089851829936
 20
14.21984185397086
 30
0.0
 10
9.41413017449936
 20
14.22582730857086
 30
0.0
 10
9.419290356799361
 20
14.23856557127086
 30
0.0
 10
9.42127741279936
 20
14.25216492517086
 30
0.0
 10
9.421514804399361
 20
14.25896293317086
 30
0.0
  0
ENDSEC
  0
SECTION
  2
OBJECTS
  0
DICTIONARY
  5
C
330
0
100
AcDbDictionary
281
     1
  3
ACAD_CIP_PREVIOUS_PRODUCT_INFO
350
3E5
  3
ACAD_COLOR
350
3C6
  3
ACAD_DETAILVIEWSTYLE
350
3E0
  3
ACAD_GROUP
350
D
  3
ACAD_LAYOUT
350
1A
  3
ACAD_MATERIAL
350
394
  3
ACAD_MLEADERSTYLE
350
3DB
  3
ACAD_MLINESTYLE
350
17
  3
ACAD_PLOTSETTINGS
350
19
  3
ACAD_PLOTSTYLENAME
350
E
  3
ACAD_SCALELIST
350
3C9
  3
ACAD_SECTIONVIEWSTYLE
350
3DD
  3
ACAD_TABLESTYLE
350
3C7
  3
ACAD_VISUALSTYLE
350
3AD
  3
ACDB_RECOMPOSE_DATA
350
6E9
  3
AcDbVariableDictionary
350
6E0
  3
ASE_INDEX_DICTIONARY
350
607
  0
XRECORD
  5
3E5
102
{ACAD_REACTORS
330
C
102
}
330
C
100
AcDbXrecord
280
     1
300
ACD
300
2013
300
85871ACD_2013_0F
  0
DICTIONARY
  5
3C6
102
{ACAD_REACTORS
330
C
102
}
330
C
100
AcDbDictionary
281
     1
  0
DICTIONARY
  5
3E0
102
{ACAD_REACTORS
330
C
102
}
330
C
100
AcDbDictionary
281
     1
  3
Imperial24
350
3E1
  0
DICTIONARY
  5
D
102
{ACAD_REACTORS
330
C
102
}
330
C
100
AcDbDictionary
281
     1
  0
DICTIONARY
  5
1A
102
{ACAD_REACTORS
330
C
102
}
330
C
100
AcDbDictionary
281
     1
  3
Layout1
350
391
  3
Model
350
390
  0
DICTIONARY
  5
394
102
{ACAD_REACTORS
330
C
102
}
330
C
100
AcDbDictionary
281
     1
  3
ByBlock
350
39D
  3
ByLayer
350
395
  3
Global
350
3A5
  0
DICTIONARY
  5
3DB
102
{ACAD_REACTORS
330
C
102
}
330
C
100
AcDbDictionary
281
     1
  3
Standard
350
3DC
  0
DICTIONARY
  5
17
102
{ACAD_REACTORS
330
C
102
}
330
C
100
AcDbDictionary
281
     1
  3
Standard
350
18
  0
DICTIONARY
  5
19
102
{ACAD_REACTORS
330
C
102
}
330
C
100
AcDbDictionary
281
     1
  0
ACDBDICTIONARYWDFLT
  5
E
102
{ACAD_REACTORS
330
C
102
}
330
C
100
AcDbDictionary
281
     1
  3
Normal
350
F
100
AcDbDictionaryWithDefault
340
F
  0
DICTIONARY
  5
3C9
102
{ACAD_REACTORS
330
C
102
}
330
C
100
AcDbDictionary
281
     1
  3
A0
350
3CA
  3
A1
350
3CB
  3
A2
350
3CC
  3
A3
350
3CD
  3
A4
350
3CE
  3
A5
350
3CF
  3
A6
350
3D0
  3
A7
350
3D1
  3
A8
350
3D2
  3
A9
350
3D3
  3
B0
350
3D4
  3
B1
350
3D5
  3
B2
350
3D6
  3
B3
350
3D7
  3
B4
350
3D8
  3
B5
350
3D9
  3
B6
350
3DA
  0
DICTIONARY
  5
3DD
102
{ACAD_REACTORS
330
C
102
}
330
C
100
AcDbDictionary
281
     1
  3
Imperial24
350
3DF
  0
DICTIONARY
  5
3C7
102
{ACAD_REACTORS
330
C
102
}
330
C
100
AcDbDictionary
281
     1
  3
Standard
350
3C8
  0
DICTIONARY
  5
3AD
102
{ACAD_REACTORS
330
C
102
}
330
C
100
AcDbDictionary
281
     1
  3
2dWireframe
350
3B3
  3
Basic
350
3B2
  3
Brighten
350
3B9
  3
ColorChange
350
3BD
  3
Conceptual
350
3B6
  3
Dim
350
3B8
  3
EdgeColorOff
350
3C5
  3
Facepattern
350
3BC
  3
Flat
350
3AE
  3
FlatWithEdges
350
3AF
  3
Gouraud
350
3B0
  3
GouraudWithEdges
350
3B1
  3
Hidden
350
3B5
  3
JitterOff
350
3C3
  3
Linepattern
350
3BB
  3
OverhangOff
350
3C4
  3
Realistic
350
3B7
  3
Shaded
350
3C2
  3
Shaded with edges
350
3C1
  3
Shades of Gray
350
3BE
  3
Sketchy
350
3BF
  3
Thicken
350
3BA
  3
Wireframe
350
3B4
  3
X-Ray
350
3C0
  0
XRECORD
  5
6E9
102
{ACAD_REACTORS
330
C
102
}
330
C
100
AcDbXrecord
280
     1
 90
        1
330
3C8
  0
DICTIONARY
  5
6E0
102
{ACAD_REACTORS
330
C
102
}
330
C
100
AcDbDictionary
281
     1
  3
CANNOSCALE
350
6E5
  3
CMLEADERSTYLE
350
6E2
  3
CTABLESTYLE
350
6E1
  3
CVIEWDETAILSTYLE
350
6E3
  3
CVIEWSECTIONSTYLE
350
6E4
  3
XCLIPFRAME
350
6E6
  0
DICTIONARY
  5
607
102
{ACAD_REACTORS
330
C
102
}
330
C
100
AcDbDictionary
281
     1
  3
ASEBlockHierarchyIndexRecord
350
609
1001
DCO15
1040
1813311013.925
  0
ACDBDETAILVIEWSTYLE
  5
3E1
102
{ACAD_REACTORS
330
3E0
102
}
330
3E0
100
AcDbModelDocViewStyle
 70
     0
  3
Imperial24
290
     0
100
AcDbDetailViewStyle
 70
     0
 71
     0
 90
        3
 71
     1
340
11
 62
   256
 40
0.24
340
0
 62
   256
 40
0.24
300

 40
0.36
280
     3
 71
     2
340
16
 90
       25
 62
   256
 71
     3
340
11
 62
   256
 40
0.24
 90
        1
 40
0.75
 90
        1
300
%<\AcVar ViewType \f "%tc1">% %<\AcVar ViewDetailId>%\PSCALE %<\AcVar ViewScale \f "%sn">%
 71
     4
340
16
 90
       25
 62
   256
340
16
 90
       25
 62
   256
280
     0
  0
LAYOUT
  5
391
102
{ACAD_REACTORS
330
1A
102
}
330
1A
100
AcDbPlotSettings
  1

  2
none_device
  4
ANSI_C_(22.00_x_17.00_Inches)
  6

 40
0.0
 41
0.0
 42
0.0
 43
0.0
 44
558.8
 45
431.8
 46
0.0
 47
0.0
 48
0.0
 49
0.0
140
0.0
141
0.0
142
1.0
143
1.0
 70
     0
 72
     0
 73
     0
 74
     0
  7

 75
     0
147
1.0
 76
     0
 77
     2
 78
   300
148
0.0
149
0.0
100
AcDbLayout
  1
Layout1
 70
     1
 71
     1
 10
0.0
 20
0.0
 11
12.0
 21
9.0
 12
0.0
 22
0.0
 32
0.0
 14
1.000000000000000E+20
 24
1.000000000000000E+20
 34
1.000000000000000E+20
 15
-1.000000000000000E+20
 25
-1.000000000000000E+20
 35
-1.000000000000000E+20
146
0.0
 13
0.0
 23
0.0
 33
0.0
 16
1.0
 26
0.0
 36
0.0
 17
0.0
 27
1.0
 37
0.0
 76
     0
330
201
  0
LAYOUT
  5
390
102
{ACAD_REACTORS
330
1A
102
}
330
1A
100
AcDbPlotSettings
  1

  2
none_device
  4
ANSI_C_(22.00_x_17.00_Inches)
  6

 40
0.0
 41
0.0
 42
0.0
 43
0.0
 44
558.8
 45
431.8
 46
0.0
 47
0.0
 48
0.0
 49
0.0
140
0.0
141
0.0
142
1.0
143
1.0
 70
  1024
 72
     0
 73
     0
 74
     0
  7

 75
     0
147
1.0
 76
     0
 77
     2
 78
   300
148
0.0
149
0.0
100
AcDbLayout
  1
Model
 70
     0
 71
     0
 10
0.0
 20
0.0
 11
22.0
 21
17.0
 12
0.0
 22
0.0
 32
0.0
 14
0.0
 24
0.0
 34
0.0
 15
0.0
 25
0.0
 35
0.0
146
0.0
 13
0.0
 23
0.0
 33
0.0
 16
1.0
 26
0.0
 36
0.0
 17
0.0
 27
1.0
 37
0.0
 76
     0
330
200
331
1F4
  0
MATERIAL
  5
39D
102
{ACAD_XDICTIONARY
360
39E
102
}
102
{ACAD_REACTORS
330
394
102
}
330
394
100
AcDbMaterial
  1
ByBlock
 72
     0
 43
0.0208333333333333
 43
0.0
 43
0.0
 43
0.0
 43
0.0
 43
0.0208333333333333
 43
0.0
 43
0.0
 43
0.0
 43
0.0
 43
1.0
 43
0.0
 43
0.0
 43
0.0
 43
0.0
 43
1.0
 77
     0
 47
0.0208333333333333
 47
0.0
 47
0.0
 47
0.0
 47
0.0
 47
0.0208333333333333
 47
0.0
 47
0.0
 47
0.0
 47
0.0
 47
1.0
 47
0.0
 47
0.0
 47
0.0
 47
0.0
 47
1.0
171
     0
 49
0.0208333333333333
 49
0.0
 49
0.0
 49
0.0
 49
0.0
 49
0.0208333333333333
 49
0.0
 49
0.0
 49
0.0
 49
0.0
 49
1.0
 49
0.0
 49
0.0
 49
0.0
 49
0.0
 49
1.0
175
     0
142
0.0208333333333333
142
0.0
142
0.0
142
0.0
142
0.0
142
0.0208333333333333
142
0.0
142
0.0
142
0.0
142
0.0
142
1.0
142
0.0
142
0.0
142
0.0
142
0.0
142
1.0
179
     0
144
0.0208333333333333
144
0.0
144
0.0
144
0.0
144
0.0
144
0.0208333333333333
144
0.0
144
0.0
144
0.0
144
0.0
144
1.0
144
0.0
144
0.0
144
0.0
144
0.0
144
1.0
147
0.0208333333333333
147
0.0
147
0.0
147
0.0
147
0.0
147
0.0208333333333333
147
0.0
147
0.0
147
0.0
147
0.0
147
1.0
147
0.0
147
0.0
147
0.0
147
0.0
147
1.0
  0
MATERIAL
  5
395
102
{ACAD_XDICTIONARY
360
396
102
}
102
{ACAD_REACTORS
330
394
102
}
330
394
100
AcDbMaterial
  1
ByLayer
 72
     0
 43
0.0208333333333333
 43
0.0
 43
0.0
 43
0.0
 43
0.0
 43
0.0208333333333333
 43
0.0
 43
0.0
 43
0.0
 43
0.0
 43
1.0
 43
0.0
 43
0.0
 43
0.0
 43
0.0
 43
1.0
 77
     0
 47
0.0208333333333333
 47
0.0
 47
0.0
 47
0.0
 47
0.0
 47
0.0208333333333333
 47
0.0
 47
0.0
 47
0.0
 47
0.0
 47
1.0
 47
0.0
 47
0.0
 47
0.0
 47
0.0
 47
1.0
171
     0
 49
0.0208333333333333
 49
0.0
 49
0.0
 49
0.0
 49
0.0
 49
0.0208333333333333
 49
0.0
 49
0.0
 49
0.0
 49
0.0
 49
1.0
 49
0.0
 49
0.0
 49
0.0
 49
0.0
 49
1.0
175
     0
142
0.0208333333333333
142
0.0
142
0.0
142
0.0
142
0.0
142
0.0208333333333333
142
0.0
142
0.0
142
0.0
142
0.0
142
1.0
142
0.0
142
0.0
142
0.0
142
0.0
142
1.0
179
     0
144
0.0208333333333333
144
0.0
144
0.0
144
0.0
144
0.0
144
0.0208333333333333
144
0.0
144
0.0
144
0.0
144
0.0
144
1.0
144
0.0
144
0.0
144
0.0
144
0.0
144
1.0
147
0.0208333333333333
147
0.0
147
0.0
147
0.0
147
0.0
147
0.0208333333333333
147
0.0
147
0.0
147
0.0
147
0.0
147
1.0
147
0.0
147
0.0
147
0.0
147
0.0
147
1.0
  0
MATERIAL
  5
3A5
102
{ACAD_XDICTIONARY
360
3A6
102
}
102
{ACAD_REACTORS
330
394
102
}
330
394
100
AcDbMaterial
  1
Global
 72
     0
 43
0.0208333333333333
 43
0.0
 43
0.0
 43
0.0
 43
0.0
 43
0.0208333333333333
 43
0.0
 43
0.0
 43
0.0
 43
0.0
 43
1.0
 43
0.0
 43
0.0
 43
0.0
 43
0.0
 43
1.0
 77
     0
 47
0.0208333333333333
 47
0.0
 47
0.0
 47
0.0
 47
0.0
 47
0.0208333333333333
 47
0.0
 47
0.0
 47
0.0
 47
0.0
 47
1.0
 47
0.0
 47
0.0
 47
0.0
 47
0.0
 47
1.0
171
     0
 49
0.0208333333333333
 49
0.0
 49
0.0
 49
0.0
 49
0.0
 49
0.0208333333333333
 49
0.0
 49
0.0
 49
0.0
 49
0.0
 49
1.0
 49
0.0
 49
0.0
 49
0.0
 49
0.0
 49
1.0
175
     0
142
0.0208333333333333
142
0.0
142
0.0
142
0.0
142
0.0
142
0.0208333333333333
142
0.0
142
0.0
142
0.0
142
0.0
142
1.0
142
0.0
142
0.0
142
0.0
142
0.0
142
1.0
179
     0
144
0.0208333333333333
144
0.0
144
0.0
144
0.0
144
0.0
144
0.0208333333333333
144
0.0
144
0.0
144
0.0
144
0.0
144
1.0
144
0.0
144
0.0
144
0.0
144
0.0
144
1.0
147
0.0208333333333333
147
0.0
147
0.0
147
0.0
147
0.0
147
0.0208333333333333
147
0.0
147
0.0
147
0.0
147
0.0
147
1.0
147
0.0
147
0.0
147
0.0
147
0.0
147
1.0
  0
MLEADERSTYLE
  5
3DC
102
{ACAD_REACTORS
330
3DB
102
}
330
3DB
100
AcDbMLeaderStyle
170
     2
171
     1
172
     0
 90
        2
 40
0.0
 41
0.0
173
     1
 91
-1056964608
340
14
 92
       -2
290
     1
 42
0.09
291
     1
 43
0.36
  3
Standard
 44
0.18
300

342
11
174
     1
178
     6
175
     1
176
     0
 93
-1056964608
 45
0.18
292
     0
297
     0
 46
0.18
 94
-1056964608
 47
1.0
 49
1.0
140
1.0
293
     1
141
0.0
294
     1
177
     0
142
1.0
295
     0
296
     0
143
0.125
1001
ACAD_MLEADERVER
1070
     2
  0
MLINESTYLE
  5
18
102
{ACAD_REACTORS
330
17
102
}
330
17
100
AcDbMlineStyle
  2
STANDARD
 70
     0
  3

 62
   256
 51
90.0
 52
90.0
 71
     2
 49
0.5
 62
   256
  6
BYLAYER
 49
-0.5
 62
   256
  6
BYLAYER
  0
ACDBPLACEHOLDER
  5
F
102
{ACAD_REACTORS
330
E
102
}
330
E
  0
SCALE
  5
3CA
102
{ACAD_REACTORS
330
3C9
102
}
330
3C9
100
AcDbScale
 70
     0
300
1:1
140
1.0
141
1.0
290
     1
  0
SCALE
  5
3CB
102
{ACAD_REACTORS
330
3C9
102
}
330
3C9
100
AcDbScale
 70
     0
300
1/128" = 1'-0"
140
0.0078125
141
12.0
290
     0
  0
SCALE
  5
3CC
102
{ACAD_REACTORS
330
3C9
102
}
330
3C9
100
AcDbScale
 70
     0
300
1/64" = 1'-0"
140
0.015625
141
12.0
290
     0
  0
SCALE
  5
3CD
102
{ACAD_REACTORS
330
3C9
102
}
330
3C9
100
AcDbScale
 70
     0
300
1/32" = 1'-0"
140
0.03125
141
12.0
290
     0
  0
SCALE
  5
3CE
102
{ACAD_REACTORS
330
3C9
102
}
330
3C9
100
AcDbScale
 70
     0
300
1/16" = 1'-0"
140
0.0625
141
12.0
290
     0
  0
SCALE
  5
3CF
102
{ACAD_REACTORS
330
3C9
102
}
330
3C9
100
AcDbScale
 70
     0
300
3/32" = 1'-0"
140
0.09375
141
12.0
290
     0
  0
SCALE
  5
3D0
102
{ACAD_REACTORS
330
3C9
102
}
330
3C9
100
AcDbScale
 70
     0
300
1/8" = 1'-0"
140
0.125
141
12.0
290
     0
  0
SCALE
  5
3D1
102
{ACAD_REACTORS
330
3C9
102
}
330
3C9
100
AcDbScale
 70
     0
300
3/16" = 1'-0"
140
0.1875
141
12.0
290
     0
  0
SCALE
  5
3D2
102
{ACAD_REACTORS
330
3C9
102
}
330
3C9
100
AcDbScale
 70
     0
300
1/4" = 1'-0"
140
0.25
141
12.0
290
     0
  0
SCALE
  5
3D3
102
{ACAD_REACTORS
330
3C9
102
}
330
3C9
100
AcDbScale
 70
     0
300
3/8" = 1'-0"
140
0.375
141
12.0
290
     0
  0
SCALE
  5
3D4
102
{ACAD_REACTORS
330
3C9
102
}
330
3C9
100
AcDbScale
 70
     0
300
1/2" = 1'-0"
140
0.5
141
12.0
290
     0
  0
SCALE
  5
3D5
102
{ACAD_REACTORS
330
3C9
102
}
330
3C9
100
AcDbScale
 70
     0
300
3/4" = 1'-0"
140
0.75
141
12.0
290
     0
  0
SCALE
  5
3D6
102
{ACAD_REACTORS
330
3C9
102
}
330
3C9
100
AcDbScale
 70
     0
300
1" = 1'-0"
140
1.0
141
12.0
290
     0
  0
SCALE
  5
3D7
102
{ACAD_REACTORS
330
3C9
102
}
330
3C9
100
AcDbScale
 70
     0
300
1-1/2" = 1'-0"
140
1.5
141
12.0
290
     0
  0
SCALE
  5
3D8
102
{ACAD_REACTORS
330
3C9
102
}
330
3C9
100
AcDbScale
 70
     0
300
3" = 1'-0"
140
3.0
141
12.0
290
     0
  0
SCALE
  5
3D9
102
{ACAD_REACTORS
330
3C9
102
}
330
3C9
100
AcDbScale
 70
     0
300
6" = 1'-0"
140
6.0
141
12.0
290
     0
  0
SCALE
  5
3DA
102
{ACAD_REACTORS
330
3C9
102
}
330
3C9
100
AcDbScale
 70
     0
300
1'-0" = 1'-0"
140
12.0
141
12.0
290
     0
  0
ACDBSECTIONVIEWSTYLE
  5
3DF
102
{ACAD_REACTORS
330
3DD
102
}
330
3DD
100
AcDbModelDocViewStyle
 70
     0
  3
Imperial24
290
     0
100
AcDbSectionViewStyle
 70
     0
 71
     0
 90
       78
 71
     1
340
11
 62
   256
 40
0.24
340
0
340
0
 62
   256
 40
0.24
300
I, O, Q, S, X, Z
 40
0.48
 90
        3
 40
0.18
 90
        1
 71
     2
340
3DE
 90
       25
 62
   256
340
16
 90
       50
 62
   256
 40
0.24
 40
0.0
 40
0.24
 71
     3
340
11
 62
   256
 40
0.24
 90
        1
 40
0.75
 90
        1
300
%<\AcVar ViewType \f "%tc1">% %<\AcVar ViewSectionStartId>%-%<\AcVar ViewSectionEndId>%\PSCALE %<\AcVar ViewScale \f "%sn">%
 71
     4
 62
   256
 62
   257
300
ANSI31
 40
1.0
 90
        0
290
     0
290
     0
 90
        6
 40
0.0
 40
1.570796326794896
 40
0.2617993877991494
 40
1.308996938995747
 40
-0.2617993877991494
 40
1.832595714594046
  0
TABLESTYLE
  5
3C8
102
{ACAD_XDICTIONARY
360
6E7
102
}
102
{ACAD_REACTORS
330
3C7
102
}
330
3C7
100
AcDbTableStyle
  3
Standard
 70
     0
 71
     0
 40
0.06
 41
0.06
280
     0
281
     0
  7
STANDARD
140
0.18
170
     2
 62
     0
 63
     7
283
     0
 90
      512
 91
        0
  1

274
    -2
284
     1
 64
     0
275
    -2
285
     1
 65
     0
276
    -2
286
     1
 66
     0
277
    -2
287
     1
 67
     0
278
    -2
288
     1
 68
     0
279
    -2
289
     1
 69
     0
  7
STANDARD
140
0.25
170
     5
 62
     0
 63
     7
283
     0
 90
      512
 91
        0
  1

274
    -2
284
     1
 64
     0
275
    -2
285
     1
 65
     0
276
    -2
286
     1
 66
     0
277
    -2
287
     1
 67
     0
278
    -2
288
     1
 68
     0
279
    -2
289
     1
 69
     0
  7
STANDARD
140
0.18
170
     5
 62
     0
 63
     7
283
     0
 90
      512
 91
        0
  1

274
    -2
284
     1
 64
     0
275
    -2
285
     1
 65
     0
276
    -2
286
     1
 66
     0
277
    -2
287
     1
 67
     0
278
    -2
288
     1
 68
     0
279
    -2
289
     1
 69
     0
  0
VISUALSTYLE
  5
3B3
102
{ACAD_XDICTIONARY
360
6F4
102
}
102
{ACAD_REACTORS
330
3AD
102
}
330
3AD
100
AcDbVisualStyle
  2
2dWireframe
 70
     4
 71
     0
 72
     2
 73
     0
 90
        0
 40
-0.6
 41
-30.0
 62
     5
 63
     7
421
 16777215
 74
     1
 91
        4
 64
     7
 65
   257
 75
     1
175
     1
 42
1.0
 92
        0
 66
   257
 43
1.0
 76
     1
 77
     6
 78
     2
 67
     7
 79
     5
170
     0
171
     0
290
     0
174
     0
 93
        1
 44
0.0
173
     0
291
     0
 45
0.0
1001
ACAD
1000
AcDbSavedByObjectVersion
1070
     0
  0
VISUALSTYLE
  5
3B2
102
{ACAD_XDICTIONARY
360
6F2
102
}
102
{ACAD_REACTORS
330
3AD
102
}
330
3AD
100
AcDbVisualStyle
  2
Basic
 70
     7
 71
     1
 72
     0
 73
     1
 90
        0
 40
-0.6
 41
-30.0
 62
     5
 63
     7
421
 16777215
 74
     0
 91
        4
 64
     7
 65
   257
 75
     1
175
     1
 42
1.0
 92
        8
 66
     7
 43
1.0
 76
     1
 77
     6
 78
     2
 67
     7
 79
     5
170
     0
171
     0
290
     0
174
     0
 93
        1
 44
0.0
173
     0
291
     1
 45
0.0
1001
ACAD
1000
AcDbSavedByObjectVersion
1070
     0
  0
VISUALSTYLE
  5
3B9
102
{ACAD_XDICTIONARY
360
700
102
}
102
{ACAD_REACTORS
330
3AD
102
}
330
3AD
100
AcDbVisualStyle
  2
Brighten
 70
    12
 71
     2
 72
     2
 73
     0
 90
        0
 40
-0.6
 41
-30.0
 62
     5
 63
     7
421
 16777215
 74
     1
 91
        4
 64
     7
 65
   257
 75
     1
175
     1
 42
1.0
 92
        8
 66
     7
 43
1.0
 76
     1
 77
     6
 78
     2
 67
     7
 79
     5
170
     0
171
     0
290
     0
174
     0
 93
        1
 44
50.0
173
     0
291
     1
 45
0.0
1001
ACAD
1000
AcDbSavedByObjectVersion
1070
     0
  0
VISUALSTYLE
  5
3BD
102
{ACAD_XDICTIONARY
360
708
102
}
102
{ACAD_REACTORS
330
3AD
102
}
330
3AD
100
AcDbVisualStyle
  2
ColorChange
 70
    16
 71
     2
 72
     2
 73
     3
 90
        0
 40
-0.6
 41
-30.0
 62
     5
 63
     8
421
  8421504
 74
     1
 91
        4
 64
     7
 65
   257
 75
     1
175
     1
 42
1.0
 92
        8
 66
     8
424
  8421504
 43
1.0
 76
     1
 77
     6
 78
     2
 67
     7
 79
     5
170
     0
171
     0
290
     0
174
     0
 93
        1
 44
0.0
173
     0
291
     1
 45
0.0
1001
ACAD
1000
AcDbSavedByObjectVersion
1070
     0
  0
VISUALSTYLE
  5
3B6
102
{ACAD_XDICTIONARY
360
6FA
102
}
102
{ACAD_REACTORS
330
3AD
102
}
330
3AD
100
AcDbVisualStyle
  2
Conceptual
 70
     9
 71
     3
 72
     2
 73
     0
 90
        0
 40
-0.6
 41
-30.0
 62
     5
 63
     7
421
 16777215
 74
     2
 91
        2
 64
     7
 65
   257
 75
     1
175
     1
 42
179.0
 92
        8
 66
     7
 43
1.0
 76
     1
 77
     6
 78
     2
 67
     7
 79
     3
170
     0
171
     0
290
     0
174
     0
 93
        1
 44
0.0
173
     0
291
     0
 45
0.0
1001
ACAD
1000
AcDbSavedByObjectVersion
1070
     0
  0
VISUALSTYLE
  5
3B8
102
{ACAD_XDICTIONARY
360
6FE
102
}
102
{ACAD_REACTORS
330
3AD
102
}
330
3AD
100
AcDbVisualStyle
  2
Dim
 70
    11
 71
     2
 72
     2
 73
     0
 90
        0
 40
-0.6
 41
-30.0
 62
     5
 63
     7
421
 16777215
 74
     1
 91
        4
 64
     7
 65
   257
 75
     1
175
     1
 42
1.0
 92
        8
 66
     7
 43
1.0
 76
     1
 77
     6
 78
     2
 67
     7
 79
     5
170
     0
171
     0
290
     0
174
     0
 93
        1
 44
-50.0
173
     0
291
     1
 45
0.0
1001
ACAD
1000
AcDbSavedByObjectVersion
1070
     0
  0
VISUALSTYLE
  5
3C5
102
{ACAD_XDICTIONARY
360
718
102
}
102
{ACAD_REACTORS
330
3AD
102
}
330
3AD
100
AcDbVisualStyle
  2
EdgeColorOff
 70
    22
 71
     2
 72
     2
 73
     0
 90
        0
 40
-0.6
 41
-30.0
 62
     5
 63
     7
421
 16777215
 74
     1
 91
        4
 64
     7
 65
   257
 75
     1
175
     1
 42
1.0
 92
        8
 66
     7
 43
1.0
 76
     1
 77
     6
 78
     2
 67
     7
 79
     5
170
     0
171
     0
290
     0
174
     0
 93
        1
 44
0.0
173
     0
291
     1
 45
0.0
1001
ACAD
1000
AcDbSavedByObjectVersion
1070
     0
  0
VISUALSTYLE
  5
3BC
102
{ACAD_XDICTIONARY
360
706
102
}
102
{ACAD_REACTORS
330
3AD
102
}
330
3AD
100
AcDbVisualStyle
  2
Facepattern
 70
    15
 71
     2
 72
     2
 73
     0
 90
        0
 40
-0.6
 41
-30.0
 62
     5
 63
     7
421
 16777215
 74
     1
 91
        4
 64
     7
 65
   257
 75
     1
175
     1
 42
1.0
 92
        8
 66
     7
 43
1.0
 76
     1
 77
     6
 78
     2
 67
     7
 79
     5
170
     0
171
     0
290
     0
174
     0
 93
        1
 44
0.0
173
     0
291
     1
 45
0.0
1001
ACAD
1000
AcDbSavedByObjectVersion
1070
     0
  0
VISUALSTYLE
  5
3AE
102
{ACAD_XDICTIONARY
360
6EA
102
}
102
{ACAD_REACTORS
330
3AD
102
}
330
3AD
100
AcDbVisualStyle
  2
Flat
 70
     0
 71
     2
 72
     1
 73
     1
 90
        2
 40
-0.6
 41
30.0
 62
     5
 63
     7
421
 16777215
 74
     0
 91
        0
 64
     7
 65
   257
 75
     1
175
     1
 42
1.0
 92
        8
 66
     7
 43
1.0
 76
     1
 77
     6
 78
     2
 67
     7
 79
     5
170
     0
171
     0
290
     0
174
     0
 93
       13
 44
0.0
173
     0
291
     1
 45
0.0
1001
ACAD
1000
AcDbSavedByObjectVersion
1070
     0
  0
VISUALSTYLE
  5
3AF
102
{ACAD_XDICTIONARY
360
6EC
102
}
102
{ACAD_REACTORS
330
3AD
102
}
330
3AD
100
AcDbVisualStyle
  2
FlatWithEdges
 70
     1
 71
     2
 72
     1
 73
     1
 90
        2
 40
-0.6
 41
30.0
 62
     5
 63
     7
421
 16777215
 74
     1
 91
        0
 64
     7
 65
   257
 75
     1
175
     1
 42
1.0
 92
        0
 66
   257
 43
1.0
 76
     1
 77
     6
 78
     2
 67
     7
 79
     5
170
     0
171
     0
290
     0
174
     0
 93
       13
 44
0.0
173
     0
291
     1
 45
0.0
1001
ACAD
1000
AcDbSavedByObjectVersion
1070
     0
  0
VISUALSTYLE
  5
3B0
102
{ACAD_XDICTIONARY
360
6EE
102
}
102
{ACAD_REACTORS
330
3AD
102
}
330
3AD
100
AcDbVisualStyle
  2
Gouraud
 70
     2
 71
     2
 72
     2
 73
     1
 90
        2
 40
-0.6
 41
30.0
 62
     5
 63
     7
421
 16777215
 74
     0
 91
        0
 64
     7
 65
   257
 75
     1
175
     1
 42
1.0
 92
        0
 66
     7
 43
1.0
 76
     1
 77
     6
 78
     2
 67
     7
 79
     5
170
     0
171
     0
290
     0
174
     0
 93
       13
 44
0.0
173
     0
291
     1
 45
0.0
1001
ACAD
1000
AcDbSavedByObjectVersion
1070
     0
  0
VISUALSTYLE
  5
3B1
102
{ACAD_XDICTIONARY
360
6F0
102
}
102
{ACAD_REACTORS
330
3AD
102
}
330
3AD
100
AcDbVisualStyle
  2
GouraudWithEdges
 70
     3
 71
     2
 72
     2
 73
     1
 90
        2
 40
-0.6
 41
30.0
 62
     5
 63
     7
421
 16777215
 74
     1
 91
        0
 64
     7
 65
   257
 75
     1
175
     1
 42
1.0
 92
        0
 66
   257
 43
1.0
 76
     1
 77
     6
 78
     2
 67
     7
 79
     5
170
     0
171
     0
290
     0
174
     0
 93
       13
 44
0.0
173
     0
291
     1
 45
0.0
1001
ACAD
1000
AcDbSavedByObjectVersion
1070
     0
  0
VISUALSTYLE
  5
3B5
102
{ACAD_XDICTIONARY
360
6F8
102
}
102
{ACAD_REACTORS
330
3AD
102
}
330
3AD
100
AcDbVisualStyle
  2
Hidden
 70
     6
 71
     1
 72
     2
 73
     2
 90
        0
 40
-0.6
 41
-30.0
 62
     5
 63
     7
421
 16777215
 74
     2
 91
        2
 64
     7
 65
   257
 75
     2
175
     1
 42
40.0
 92
        0
 66
   257
 43
1.0
 76
     1
 77
     6
 78
     2
 67
     7
 79
     3
170
     0
171
     0
290
     0
174
     0
 93
        1
 44
0.0
173
     0
291
     0
 45
0.0
1001
ACAD
1000
AcDbSavedByObjectVersion
1070
     0
  0
VISUALSTYLE
  5
3C3
102
{ACAD_XDICTIONARY
360
714
102
}
102
{ACAD_REACTORS
330
3AD
102
}
330
3AD
100
AcDbVisualStyle
  2
JitterOff
 70
    20
 71
     2
 72
     2
 73
     0
 90
        0
 40
-0.6
 41
-30.0
 62
     5
 63
     7
421
 16777215
 74
     1
 91
        4
 64
     7
 65
   257
 75
     1
175
     1
 42
1.0
 92
       10
 66
     7
 43
1.0
 76
     1
 77
     6
 78
     2
 67
     7
 79
     5
170
     0
171
     0
290
     0
174
     0
 93
        1
 44
0.0
173
     0
291
     1
 45
0.0
1001
ACAD
1000
AcDbSavedByObjectVersion
1070
     0
  0
VISUALSTYLE
  5
3BB
102
{ACAD_XDICTIONARY
360
704
102
}
102
{ACAD_REACTORS
330
3AD
102
}
330
3AD
100
AcDbVisualStyle
  2
Linepattern
 70
    14
 71
     2
 72
     2
 73
     0
 90
        0
 40
-0.6
 41
-30.0
 62
     5
 63
     7
421
 16777215
 74
     1
 91
        4
 64
     7
 65
   257
 75
     7
175
     7
 42
1.0
 92
        8
 66
     7
 43
1.0
 76
     1
 77
     6
 78
     2
 67
     7
 79
     5
170
     0
171
     0
290
     0
174
     0
 93
        1
 44
0.0
173
     0
291
     1
 45
0.0
1001
ACAD
1000
AcDbSavedByObjectVersion
1070
     0
  0
VISUALSTYLE
  5
3C4
102
{ACAD_XDICTIONARY
360
716
102
}
102
{ACAD_REACTORS
330
3AD
102
}
330
3AD
100
AcDbVisualStyle
  2
OverhangOff
 70
    21
 71
     2
 72
     2
 73
     0
 90
        0
 40
-0.6
 41
-30.0
 62
     5
 63
     7
421
 16777215
 74
     1
 91
        4
 64
     7
 65
   257
 75
     1
175
     1
 42
1.0
 92
        9
 66
     7
 43
1.0
 76
     1
 77
     6
 78
     2
 67
     7
 79
     5
170
     0
171
     0
290
     0
174
     0
 93
        1
 44
0.0
173
     0
291
     1
 45
0.0
1001
ACAD
1000
AcDbSavedByObjectVersion
1070
     0
  0
VISUALSTYLE
  5
3B7
102
{ACAD_XDICTIONARY
360
6FC
102
}
102
{ACAD_REACTORS
330
3AD
102
}
330
3AD
100
AcDbVisualStyle
  2
Realistic
 70
     8
 71
     2
 72
     3
 73
     0
 90
        2
 40
-0.6
 41
30.0
 62
     5
 63
     7
421
 16777215
 74
     0
 91
        0
 64
     7
 65
   257
 75
     1
175
     1
 42
1.0
 92
        8
 66
   257
 43
1.0
 76
     1
 77
     6
 78
     2
 67
     7
 79
     3
170
     0
171
     0
290
     0
174
     0
 93
       13
 44
0.0
173
     0
291
     0
 45
0.0
1001
ACAD
1000
AcDbSavedByObjectVersion
1070
     0
  0
VISUALSTYLE
  5
3C2
102
{ACAD_XDICTIONARY
360
712
102
}
102
{ACAD_REACTORS
330
3AD
102
}
330
3AD
100
AcDbVisualStyle
  2
Shaded
 70
    27
 71
     2
 72
     2
 73
     1
 90
        2
 40
-0.6
 41
30.0
 62
     5
 63
     7
421
 16777215
 74
     0
 91
        4
 64
     7
 65
   257
 75
     1
175
     1
 42
1.0
 92
        8
 66
   257
 43
1.0
 76
     1
 77
     6
 78
     2
 67
     8
425
  7895160
 79
     3
170
     0
171
     0
290
     0
174
     0
 93
        5
 44
0.0
173
     0
291
     0
 45
0.0
1001
ACAD
1000
AcDbSavedByObjectVersion
1070
     0
  0
VISUALSTYLE
  5
3C1
102
{ACAD_XDICTIONARY
360
710
102
}
102
{ACAD_REACTORS
330
3AD
102
}
330
3AD
100
AcDbVisualStyle
  2
Shaded with edges
 70
    26
 71
     2
 72
     2
 73
     1
 90
        2
 40
-0.6
 41
30.0
 62
     5
 63
     7
421
 16777215
 74
     1
 91
       10
 64
     7
 65
   257
 75
     2
175
     1
 42
1.0
 92
        8
 66
   257
 43
1.0
 76
     1
 77
     6
 78
     2
 67
     7
 79
     3
170
     0
171
     0
290
     0
174
     0
 93
        5
 44
0.0
173
     0
291
     0
 45
0.0
1001
ACAD
1000
AcDbSavedByObjectVersion
1070
     0
  0
VISUALSTYLE
  5
3BE
102
{ACAD_XDICTIONARY
360
70A
102
}
102
{ACAD_REACTORS
330
3AD
102
}
330
3AD
100
AcDbVisualStyle
  2
Shades of Gray
 70
    23
 71
     2
 72
     2
 73
     3
 90
        0
 40
-0.6
 41
-30.0
 62
     5
 63
     7
421
 16777215
 74
     2
 91
        2
 64
     7
 65
     7
 75
     1
175
     1
 42
40.0
 92
        8
 66
     7
 43
1.0
 76
     1
 77
     6
 78
     2
 67
     7
 79
     3
170
     0
171
     0
290
     0
174
     0
 93
        1
 44
0.0
173
     0
291
     0
 45
0.0
1001
ACAD
1000
AcDbSavedByObjectVersion
1070
     0
  0
VISUALSTYLE
  5
3BF
102
{ACAD_XDICTIONARY
360
70C
102
}
102
{ACAD_REACTORS
330
3AD
102
}
330
3AD
100
AcDbVisualStyle
  2
Sketchy
 70
    24
 71
     1
 72
     2
 73
     2
 90
        0
 40
-0.6
 41
-30.0
 62
     5
 63
     7
421
 16777215
 74
     2
 91
        2
 64
     7
 65
     7
 75
     1
175
     1
 42
40.0
 92
       11
 66
     7
 43
1.0
 76
     1
 77
     6
 78
     2
 67
     7
 79
     6
170
     0
171
     0
290
     0
174
     0
 93
        1
 44
0.0
173
     0
291
     0
 45
0.0
1001
ACAD
1000
AcDbSavedByObjectVersion
1070
     0
  0
VISUALSTYLE
  5
3BA
102
{ACAD_XDICTIONARY
360
702
102
}
102
{ACAD_REACTORS
330
3AD
102
}
330
3AD
100
AcDbVisualStyle
  2
Thicken
 70
    13
 71
     2
 72
     2
 73
     0
 90
        0
 40
-0.6
 41
-30.0
 62
     5
 63
     7
421
 16777215
 74
     1
 91
        4
 64
     7
 65
   257
 75
     1
175
     1
 42
1.0
 92
       12
 66
     7
 43
1.0
 76
     1
 77
     6
 78
     2
 67
     7
 79
     5
170
     0
171
     0
290
     0
174
     0
 93
        1
 44
0.0
173
     0
291
     1
 45
0.0
1001
ACAD
1000
AcDbSavedByObjectVersion
1070
     0
  0
VISUALSTYLE
  5
3B4
102
{ACAD_XDICTIONARY
360
6F6
102
}
102
{ACAD_REACTORS
330
3AD
102
}
330
3AD
100
AcDbVisualStyle
  2
Wireframe
 70
     5
 71
     0
 72
     2
 73
     0
 90
        0
 40
-0.6
 41
-30.0
 62
     5
 63
     7
421
 16777215
 74
     1
 91
        4
 64
     7
 65
   257
 75
     1
175
     1
 42
1.0
 92
        0
 66
   257
 43
1.0
 76
     1
 77
     6
 78
     2
 67
     7
 79
     3
170
     0
171
     0
290
     0
174
     0
 93
        1
 44
0.0
173
     0
291
     0
 45
0.0
1001
ACAD
1000
AcDbSavedByObjectVersion
1070
     0
  0
VISUALSTYLE
  5
3C0
102
{ACAD_XDICTIONARY
360
70E
102
}
102
{ACAD_REACTORS
330
3AD
102
}
330
3AD
100
AcDbVisualStyle
  2
X-Ray
 70
    25
 71
     2
 72
     2
 73
     1
 90
        1
 40
0.5
 41
-30.0
 62
     5
 63
     7
421
 16777215
 74
     1
 91
        0
 64
     7
 65
   257
 75
     1
175
     1
 42
1.0
 92
        8
 66
     7
 43
1.0
 76
     1
 77
     6
 78
     2
 67
     7
 79
     3
170
     0
171
     0
290
     0
174
     0
 93
       13
 44
0.0
173
     0
291
     0
 45
0.0
1001
ACAD
1000
AcDbSavedByObjectVersion
1070
     0
  0
DICTIONARYVAR
  5
6E5
102
{ACAD_REACTORS
330
6E0
102
}
330
6E0
100
DictionaryVariables
280
     0
  1
1:1
  0
DICTIONARYVAR
  5
6E2
102
{ACAD_REACTORS
330
6E0
102
}
330
6E0
100
DictionaryVariables
280
     0
  1
STANDARD
  0
DICTIONARYVAR
  5
6E1
102
{ACAD_REACTORS
330
6E0
102
}
330
6E0
100
DictionaryVariables
280
     0
  1
STANDARD
  0
DICTIONARYVAR
  5
6E3
102
{ACAD_REACTORS
330
6E0
102
}
330
6E0
100
DictionaryVariables
280
     0
  1
Imperial24
  0
DICTIONARYVAR
  5
6E4
102
{ACAD_REACTORS
330
6E0
102
}
330
6E0
100
DictionaryVariables
280
     0
  1
Imperial24
  0
DICTIONARYVAR
  5
6E6
102
{ACAD_REACTORS
330
6E0
102
}
330
6E0
100
DictionaryVariables
280
     0
  1
2
  0
XRECORD
  5
609
102
{ACAD_REACTORS
330
607
102
}
330
607
100
AcDbXrecord
280
     1
330
6DA
330
6DB
330
6D0
330
6D1
330
6C6
330
6C7
  0
DICTIONARY
  5
39E
330
39D
100
AcDbDictionary
280
     1
281
     1
  3
BUMPTILE
360
3A0
  3
DIFFUSETILE
360
39F
  3
OPACITYTILE
360
3A3
  3
REFLECTIONTILE
360
3A2
  3
REFRACTIONTILE
360
3A4
  3
SPECULARTILE
360
3A1
  0
DICTIONARY
  5
396
330
395
100
AcDbDictionary
280
     1
281
     1
  3
BUMPTILE
360
398
  3
DIFFUSETILE
360
397
  3
OPACITYTILE
360
39B
  3
REFLECTIONTILE
360
39A
  3
REFRACTIONTILE
360
39C
  3
SPECULARTILE
360
399
  0
DICTIONARY
  5
3A6
330
3A5
100
AcDbDictionary
280
     1
281
     1
  3
BUMPTILE
360
3A8
  3
DIFFUSETILE
360
3A7
  3
OPACITYTILE
360
3AB
  3
REFLECTIONTILE
360
3AA
  3
REFRACTIONTILE
360
3AC
  3
SPECULARTILE
360
3A9
  0
DICTIONARY
  5
6E7
330
3C8
100
AcDbDictionary
280
     1
281
     1
  3
ACAD_ROUNDTRIP_2008_TABLESTYLE_CELLSTYLEMAP
360
6E8
  0
DICTIONARY
  5
6F4
330
3B3
100
AcDbDictionary
280
     1
281
     1
  3
ACAD_XREC_ROUNDTRIP
360
6F5
  0
DICTIONARY
  5
6F2
330
3B2
100
AcDbDictionary
280
     1
281
     1
  3
ACAD_XREC_ROUNDTRIP
360
6F3
  0
DICTIONARY
  5
700
330
3B9
100
AcDbDictionary
280
     1
281
     1
  3
ACAD_XREC_ROUNDTRIP
360
701
  0
DICTIONARY
  5
708
330
3BD
100
AcDbDictionary
280
     1
281
     1
  3
ACAD_XREC_ROUNDTRIP
360
709
  0
DICTIONARY
  5
6FA
330
3B6
100
AcDbDictionary
280
     1
281
     1
  3
ACAD_XREC_ROUNDTRIP
360
6FB
  0
DICTIONARY
  5
6FE
330
3B8
100
AcDbDictionary
280
     1
281
     1
  3
ACAD_XREC_ROUNDTRIP
360
6FF
  0
DICTIONARY
  5
718
330
3C5
100
AcDbDictionary
280
     1
281
     1
  3
ACAD_XREC_ROUNDTRIP
360
719
  0
DICTIONARY
  5
706
330
3BC
100
AcDbDictionary
280
     1
281
     1
  3
ACAD_XREC_ROUNDTRIP
360
707
  0
DICTIONARY
  5
6EA
330
3AE
100
AcDbDictionary
280
     1
281
     1
  3
ACAD_XREC_ROUNDTRIP
360
6EB
  0
DICTIONARY
  5
6EC
330
3AF
100
AcDbDictionary
280
     1
281
     1
  3
ACAD_XREC_ROUNDTRIP
360
6ED
  0
DICTIONARY
  5
6EE
330
3B0
100
AcDbDictionary
280
     1
281
     1
  3
ACAD_XREC_ROUNDTRIP
360
6EF
  0
DICTIONARY
  5
6F0
330
3B1
100
AcDbDictionary
280
     1
281
     1
  3
ACAD_XREC_ROUNDTRIP
360
6F1
  0
DICTIONARY
  5
6F8
330
3B5
100
AcDbDictionary
280
     1
281
     1
  3
ACAD_XREC_ROUNDTRIP
360
6F9
  0
DICTIONARY
  5
714
330
3C3
100
AcDbDictionary
280
     1
281
     1
  3
ACAD_XREC_ROUNDTRIP
360
715
  0
DICTIONARY
  5
704
330
3BB
100
AcDbDictionary
280
     1
281
     1
  3
ACAD_XREC_ROUNDTRIP
360
705
  0
DICTIONARY
  5
716
330
3C4
100
AcDbDictionary
280
     1
281
     1
  3
ACAD_XREC_ROUNDTRIP
360
717
  0
DICTIONARY
  5
6FC
330
3B7
100
AcDbDictionary
280
     1
281
     1
  3
ACAD_XREC_ROUNDTRIP
360
6FD
  0
DICTIONARY
  5
712
330
3C2
100
AcDbDictionary
280
     1
281
     1
  3
ACAD_XREC_ROUNDTRIP
360
713
  0
DICTIONARY
  5
710
330
3C1
100
AcDbDictionary
280
     1
281
     1
  3
ACAD_XREC_ROUNDTRIP
360
711
  0
DICTIONARY
  5
70A
330
3BE
100
AcDbDictionary
280
     1
281
     1
  3
ACAD_XREC_ROUNDTRIP
360
70B
  0
DICTIONARY
  5
70C
330
3BF
100
AcDbDictionary
280
     1
281
     1
  3
ACAD_XREC_ROUNDTRIP
360
70D
  0
DICTIONARY
  5
702
330
3BA
100
AcDbDictionary
280
     1
281
     1
  3
ACAD_XREC_ROUNDTRIP
360
703
  0
DICTIONARY
  5
6F6
330
3B4
100
AcDbDictionary
280
     1
281
     1
  3
ACAD_XREC_ROUNDTRIP
360
6F7
  0
DICTIONARY
  5
70E
330
3C0
100
AcDbDictionary
280
     1
281
     1
  3
ACAD_XREC_ROUNDTRIP
360
70F
  0
XRECORD
  5
3A0
102
{ACAD_REACTORS
330
39E
102
}
330
39E
100
AcDbXrecord
280
     1
270
     1
271
     1
  0
XRECORD
  5
39F
102
{ACAD_REACTORS
330
39E
102
}
330
39E
100
AcDbXrecord
280
     1
270
     1
271
     1
  0
XRECORD
  5
3A3
102
{ACAD_REACTORS
330
39E
102
}
330
39E
100
AcDbXrecord
280
     1
270
     1
271
     1
  0
XRECORD
  5
3A2
102
{ACAD_REACTORS
330
39E
102
}
330
39E
100
AcDbXrecord
280
     1
270
     1
271
     1
  0
XRECORD
  5
3A4
102
{ACAD_REACTORS
330
39E
102
}
330
39E
100
AcDbXrecord
280
     1
270
     1
271
     1
  0
XRECORD
  5
3A1
102
{ACAD_REACTORS
330
39E
102
}
330
39E
100
AcDbXrecord
280
     1
270
     1
271
     1
  0
XRECORD
  5
398
102
{ACAD_REACTORS
330
396
102
}
330
396
100
AcDbXrecord
280
     1
270
     1
271
     1
  0
XRECORD
  5
397
102
{ACAD_REACTORS
330
396
102
}
330
396
100
AcDbXrecord
280
     1
270
     1
271
     1
  0
XRECORD
  5
39B
102
{ACAD_REACTORS
330
396
102
}
330
396
100
AcDbXrecord
280
     1
270
     1
271
     1
  0
XRECORD
  5
39A
102
{ACAD_REACTORS
330
396
102
}
330
396
100
AcDbXrecord
280
     1
270
     1
271
     1
  0
XRECORD
  5
39C
102
{ACAD_REACTORS
330
396
102
}
330
396
100
AcDbXrecord
280
     1
270
     1
271
     1
  0
XRECORD
  5
399
102
{ACAD_REACTORS
330
396
102
}
330
396
100
AcDbXrecord
280
     1
270
     1
271
     1
  0
XRECORD
  5
3A8
102
{ACAD_REACTORS
330
3A6
102
}
330
3A6
100
AcDbXrecord
280
     1
270
     1
271
     1
  0
XRECORD
  5
3A7
102
{ACAD_REACTORS
330
3A6
102
}
330
3A6
100
AcDbXrecord
280
     1
270
     1
271
     1
  0
XRECORD
  5
3AB
102
{ACAD_REACTORS
330
3A6
102
}
330
3A6
100
AcDbXrecord
280
     1
270
     1
271
     1
  0
XRECORD
  5
3AA
102
{ACAD_REACTORS
330
3A6
102
}
330
3A6
100
AcDbXrecord
280
     1
270
     1
271
     1
  0
XRECORD
  5
3AC
102
{ACAD_REACTORS
330
3A6
102
}
330
3A6
100
AcDbXrecord
280
     1
270
     1
271
     1
  0
XRECORD
  5
3A9
102
{ACAD_REACTORS
330
3A6
102
}
330
3A6
100
AcDbXrecord
280
     1
270
     1
271
     1
  0
CELLSTYLEMAP
  5
6E8
102
{ACAD_REACTORS
330
6E7
102
}
330
6E7
100
AcDbCellStyleMap
 90
        3
300
CELLSTYLE
  1
TABLEFORMAT_BEGIN
 90
        5
170
     1
 91
        0
 92
    32768
 62
   257
 93
        1
300
CONTENTFORMAT
  1
CONTENTFORMAT_BEGIN
 90
        0
 91
        0
 92
      512
 93
        0
300

 40
0.0
140
1.0
 94
        5
 62
     0
340
11
144
0.25
309
CONTENTFORMAT_END
171
     0
 94
        0
309
TABLEFORMAT_END
  1
CELLSTYLE_BEGIN
 90
        1
 91
        1
300
_TITLE
309
CELLSTYLE_END
300
CELLSTYLE
  1
TABLEFORMAT_BEGIN
 90
        5
170
     1
 91
        0
 92
        0
 62
   257
 93
        1
300
CONTENTFORMAT
  1
CONTENTFORMAT_BEGIN
 90
        0
 91
        0
 92
      512
 93
        0
300

 40
0.0
140
1.0
 94
        5
 62
     0
340
11
144
0.18
309
CONTENTFORMAT_END
171
     0
 94
        0
309
TABLEFORMAT_END
  1
CELLSTYLE_BEGIN
 90
        2
 91
        1
300
_HEADER
309
CELLSTYLE_END
300
CELLSTYLE
  1
TABLEFORMAT_BEGIN
 90
        5
170
     1
 91
        0
 92
        0
 62
   257
 93
        1
300
CONTENTFORMAT
  1
CONTENTFORMAT_BEGIN
 90
        0
 91
        0
 92
      512
 93
        0
300

 40
0.0
140
1.0
 94
        2
 62
     0
340
11
144
0.18
309
CONTENTFORMAT_END
171
     0
 94
        0
309
TABLEFORMAT_END
  1
CELLSTYLE_BEGIN
 90
        3
 91
        2
300
_DATA
309
CELLSTYLE_END
  0
XRECORD
  5
6F5
102
{ACAD_REACTORS
330
6F4
102
}
330
6F4
100
AcDbXrecord
280
     1
102
RTVSPost2010Prop28
280
     1
102
RTVSPost2010PropOp28
 70
     1
102
RTVSPost2010Prop29
280
     1
102
RTVSPost2010PropOp29
 70
     1
102
RTVSPost2010Prop30
280
     0
102
RTVSPost2010PropOp30
 70
     1
102
RTVSPost2010Prop31
280
     0
102
RTVSPost2010PropOp31
 70
     1
102
RTVSPost2010Prop32
280
     0
102
RTVSPost2010PropOp32
 70
     1
102
RTVSPost2010Prop33
280
     0
102
RTVSPost2010PropOp33
 70
     1
102
RTVSPost2010Prop34
280
     0
102
RTVSPost2010PropOp34
 70
     1
102
RTVSPost2010Prop35
280
     0
102
RTVSPost2010PropOp35
 70
     1
102
RTVSPost2010Prop36
280
     0
102
RTVSPost2010PropOp36
 70
     1
102
RTVSPost2010Prop37
 90
       50
102
RTVSPost2010PropOp37
 70
     1
102
RTVSPost2010Prop38
140
0.0
102
RTVSPost2010PropOp38
 70
     1
102
RTVSPost2010Prop39
140
1.0
102
RTVSPost2010PropOp39
 70
     1
102
RTVSPost2010Prop40
 90
        0
102
RTVSPost2010PropOp40
 70
     1
102
RTVSPost2010Prop41ColorIndex
 90
       18
102
RTVSPost2010Prop41ColorRGB
 90
        0
102
RTVSPost2010PropOp41
 70
     1
102
RTVSPost2010Prop42
 90
       50
102
RTVSPost2010PropOp42
 70
     1
102
RTVSPost2010Prop43
 90
        3
102
RTVSPost2010PropOp43
 70
     1
102
RTVSPost2010Prop44ColorIndex
 90
        5
102
RTVSPost2010Prop44ColorRGB
 90
      255
102
RTVSPost2010PropOp44
 70
     1
102
RTVSPost2010Prop45
280
     0
102
RTVSPost2010PropOp45
 70
     1
102
RTVSPost2010Prop46
 90
       50
102
RTVSPost2010PropOp46
 70
     1
102
RTVSPost2010Prop47
 90
       50
102
RTVSPost2010PropOp47
 70
     1
102
RTVSPost2010Prop48
 90
       50
102
RTVSPost2010PropOp48
 70
     1
102
RTVSPost2010Prop49
280
     0
102
RTVSPost2010PropOp49
 70
     1
102
RTVSPost2010Prop50
 90
       50
102
RTVSPost2010PropOp50
 70
     1
102
RTVSPost2010Prop51ColorIndex
 90
      256
102
RTVSPost2010Prop51ColorRGB
 90
-16777216
102
RTVSPost2010PropOp51
 70
     0
102
RTVSPost2010Prop52
140
1.0
102
RTVSPost2010PropOp52
 70
     0
102
RTVSPost2010Prop53
 90
        2
102
RTVSPost2010PropOp53
 70
     1
102
RTVSPost2010Prop54
  1
strokes_ogs.tif
102
RTVSPost2010PropOp54
 70
     1
102
RTVSPost2010Prop55
280
     0
102
RTVSPost2010PropOp55
 70
     1
102
RTVSPost2010Prop56
140
1.0
102
RTVSPost2010PropOp56
 70
     1
102
RTVSPost2010Prop57
140
1.0
102
RTVSPost2010PropOp57
 70
     1
102
RTVSPropertyOp0
 70
     1
102
RTVSPropertyOp1
 70
     1
102
RTVSPropertyOp2
 70
     1
102
RTVSPropertyOp3
 70
     1
102
RTVSPropertyOp4
 70
     1
102
RTVSPropertyOp5
 70
     1
102
RTVSPropertyOp6
 70
     1
102
RTVSPropertyOp7
 70
     1
102
RTVSPropertyOp8
 70
     1
102
RTVSPropertyOp9
 70
     1
102
RTVSPropertyOp10
 70
     1
102
RTVSPropertyOp11
 70
     1
102
RTVSPropertyOp12
 70
     1
102
RTVSPropertyOp13
 70
     1
102
RTVSPropertyOp14
 70
     1
102
RTVSPropertyOp15
 70
     1
102
RTVSPropertyOp16
 70
     1
102
RTVSPropertyOp17
 70
     1
102
RTVSPropertyOp18
 70
     1
102
RTVSPropertyOp19
 70
     1
102
RTVSPropertyOp20
 70
     1
102
RTVSPropertyOp21
 70
     1
102
RTVSPropertyOp22
 70
     1
102
RTVSPropertyOp23
 70
     1
102
RTVSPropertyOp24
 70
     1
102
RTVSPropertyOp25
 70
     1
102
RTVSPropertyOp26
 70
     1
102
RTVSPropertyOp27
 70
     1
102
RTVSPropertyOp28
 70
     1
102
RTVSPropertyOp29
 70
     1
102
RTVSPropertyOp30
 70
     1
102
RTVSPropertyOp31
 70
     1
102
RTVSPropertyOp32
 70
     1
102
RTVSPropertyOp33
 70
     1
102
RTVSPropertyOp34
 70
     1
102
RTVSPropertyOp35
 70
     1
102
RTVSPropertyOp36
 70
     1
102
RTVSPropertyOp37
 70
     1
102
RTVSPropertyOp38
 70
     1
102
RTVSPropertyOp39
 70
     1
102
RTVSPropertyOp40
 70
     1
102
RTVSPropertyOp41
 70
     1
102
RTVSPropertyOp42
 70
     1
102
RTVSPropertyOp43
 70
     1
102
RTVSPropertyOp44
 70
     1
102
RTVSPropertyOp45
 70
     1
102
RTVSPropertyOp46
 70
     1
102
RTVSPropertyOp47
 70
     1
102
RTVSPropertyOp48
 70
     1
102
RTVSPropertyOp49
 70
     1
102
RTVSPropertyOp50
 70
     1
102
RTVSPropertyOp51
 70
     0
102
RTVSPropertyOp52
 70
     0
102
RTVSPropertyOp53
 70
     1
102
RTVSPropertyOp54
 70
     1
102
RTVSPropertyOp55
 70
     1
102
RTVSPropertyOp56
 70
     1
102
RTVSPropertyOp57
 70
     1
102
RTVSPropertyOp58
 70
     1
102
RTVSPropertyOp59
 70
     1
102
RTVSPropertyOp60
 70
     1
102
RTVSPropertyOp61
 70
     1
102
RTVSPropertyOp62
 70
     1
  0
XRECORD
  5
6F3
102
{ACAD_REACTORS
330
6F2
102
}
330
6F2
100
AcDbXrecord
280
     1
102
RTVSPost2010Prop28
280
     0
102
RTVSPost2010PropOp28
 70
     1
102
RTVSPost2010Prop29
280
     1
102
RTVSPost2010PropOp29
 70
     1
102
RTVSPost2010Prop30
280
     1
102
RTVSPost2010PropOp30
 70
     1
102
RTVSPost2010Prop31
280
     0
102
RTVSPost2010PropOp31
 70
     1
102
RTVSPost2010Prop32
280
     0
102
RTVSPost2010PropOp32
 70
     1
102
RTVSPost2010Prop33
280
     0
102
RTVSPost2010PropOp33
 70
     1
102
RTVSPost2010Prop34
280
     0
102
RTVSPost2010PropOp34
 70
     1
102
RTVSPost2010Prop35
280
     0
102
RTVSPost2010PropOp35
 70
     1
102
RTVSPost2010Prop36
280
     0
102
RTVSPost2010PropOp36
 70
     1
102
RTVSPost2010Prop37
 90
       50
102
RTVSPost2010PropOp37
 70
     1
102
RTVSPost2010Prop38
140
0.0
102
RTVSPost2010PropOp38
 70
     1
102
RTVSPost2010Prop39
140
1.0
102
RTVSPost2010PropOp39
 70
     1
102
RTVSPost2010Prop40
 90
        0
102
RTVSPost2010PropOp40
 70
     1
102
RTVSPost2010Prop41ColorIndex
 90
       18
102
RTVSPost2010Prop41ColorRGB
 90
        0
102
RTVSPost2010PropOp41
 70
     1
102
RTVSPost2010Prop42
 90
       50
102
RTVSPost2010PropOp42
 70
     1
102
RTVSPost2010Prop43
 90
        3
102
RTVSPost2010PropOp43
 70
     1
102
RTVSPost2010Prop44ColorIndex
 90
        5
102
RTVSPost2010Prop44ColorRGB
 90
      255
102
RTVSPost2010PropOp44
 70
     1
102
RTVSPost2010Prop45
280
     0
102
RTVSPost2010PropOp45
 70
     1
102
RTVSPost2010Prop46
 90
       50
102
RTVSPost2010PropOp46
 70
     1
102
RTVSPost2010Prop47
 90
       50
102
RTVSPost2010PropOp47
 70
     1
102
RTVSPost2010Prop48
 90
       50
102
RTVSPost2010PropOp48
 70
     1
102
RTVSPost2010Prop49
280
     0
102
RTVSPost2010PropOp49
 70
     1
102
RTVSPost2010Prop50
 90
       50
102
RTVSPost2010PropOp50
 70
     1
102
RTVSPost2010Prop51ColorIndex
 90
      256
102
RTVSPost2010Prop51ColorRGB
 90
-16777216
102
RTVSPost2010PropOp51
 70
     0
102
RTVSPost2010Prop52
140
1.0
102
RTVSPost2010PropOp52
 70
     0
102
RTVSPost2010Prop53
 90
        2
102
RTVSPost2010PropOp53
 70
     1
102
RTVSPost2010Prop54
  1
strokes_ogs.tif
102
RTVSPost2010PropOp54
 70
     1
102
RTVSPost2010Prop55
280
     0
102
RTVSPost2010PropOp55
 70
     1
102
RTVSPost2010Prop56
140
1.0
102
RTVSPost2010PropOp56
 70
     1
102
RTVSPost2010Prop57
140
1.0
102
RTVSPost2010PropOp57
 70
     1
102
RTVSPropertyOp0
 70
     1
102
RTVSPropertyOp1
 70
     1
102
RTVSPropertyOp2
 70
     1
102
RTVSPropertyOp3
 70
     1
102
RTVSPropertyOp4
 70
     1
102
RTVSPropertyOp5
 70
     1
102
RTVSPropertyOp6
 70
     1
102
RTVSPropertyOp7
 70
     1
102
RTVSPropertyOp8
 70
     1
102
RTVSPropertyOp9
 70
     1
102
RTVSPropertyOp10
 70
     1
102
RTVSPropertyOp11
 70
     1
102
RTVSPropertyOp12
 70
     1
102
RTVSPropertyOp13
 70
     1
102
RTVSPropertyOp14
 70
     1
102
RTVSPropertyOp15
 70
     1
102
RTVSPropertyOp16
 70
     1
102
RTVSPropertyOp17
 70
     1
102
RTVSPropertyOp18
 70
     1
102
RTVSPropertyOp19
 70
     1
102
RTVSPropertyOp20
 70
     1
102
RTVSPropertyOp21
 70
     1
102
RTVSPropertyOp22
 70
     1
102
RTVSPropertyOp23
 70
     1
102
RTVSPropertyOp24
 70
     1
102
RTVSPropertyOp25
 70
     1
102
RTVSPropertyOp26
 70
     1
102
RTVSPropertyOp27
 70
     1
102
RTVSPropertyOp28
 70
     1
102
RTVSPropertyOp29
 70
     1
102
RTVSPropertyOp30
 70
     1
102
RTVSPropertyOp31
 70
     1
102
RTVSPropertyOp32
 70
     1
102
RTVSPropertyOp33
 70
     1
102
RTVSPropertyOp34
 70
     1
102
RTVSPropertyOp35
 70
     1
102
RTVSPropertyOp36
 70
     1
102
RTVSPropertyOp37
 70
     1
102
RTVSPropertyOp38
 70
     1
102
RTVSPropertyOp39
 70
     1
102
RTVSPropertyOp40
 70
     1
102
RTVSPropertyOp41
 70
     1
102
RTVSPropertyOp42
 70
     1
102
RTVSPropertyOp43
 70
     1
102
RTVSPropertyOp44
 70
     1
102
RTVSPropertyOp45
 70
     1
102
RTVSPropertyOp46
 70
     1
102
RTVSPropertyOp47
 70
     1
102
RTVSPropertyOp48
 70
     1
102
RTVSPropertyOp49
 70
     1
102
RTVSPropertyOp50
 70
     1
102
RTVSPropertyOp51
 70
     0
102
RTVSPropertyOp52
 70
     0
102
RTVSPropertyOp53
 70
     1
102
RTVSPropertyOp54
 70
     1
102
RTVSPropertyOp55
 70
     1
102
RTVSPropertyOp56
 70
     1
102
RTVSPropertyOp57
 70
     1
102
RTVSPropertyOp58
 70
     1
102
RTVSPropertyOp59
 70
     1
102
RTVSPropertyOp60
 70
     1
102
RTVSPropertyOp61
 70
     1
102
RTVSPropertyOp62
 70
     1
  0
XRECORD
  5
701
102
{ACAD_REACTORS
330
700
102
}
330
700
100
AcDbXrecord
280
     1
102
RTVSPost2010Prop28
280
     0
102
RTVSPost2010PropOp28
 70
     1
102
RTVSPost2010Prop29
280
     1
102
RTVSPost2010PropOp29
 70
     1
102
RTVSPost2010Prop30
280
     1
102
RTVSPost2010PropOp30
 70
     1
102
RTVSPost2010Prop31
280
     0
102
RTVSPost2010PropOp31
 70
     1
102
RTVSPost2010Prop32
280
     0
102
RTVSPost2010PropOp32
 70
     1
102
RTVSPost2010Prop33
280
     0
102
RTVSPost2010PropOp33
 70
     1
102
RTVSPost2010Prop34
280
     0
102
RTVSPost2010PropOp34
 70
     1
102
RTVSPost2010Prop35
280
     0
102
RTVSPost2010PropOp35
 70
     1
102
RTVSPost2010Prop36
280
     0
102
RTVSPost2010PropOp36
 70
     1
102
RTVSPost2010Prop37
 90
       50
102
RTVSPost2010PropOp37
 70
     1
102
RTVSPost2010Prop38
140
0.0
102
RTVSPost2010PropOp38
 70
     1
102
RTVSPost2010Prop39
140
1.0
102
RTVSPost2010PropOp39
 70
     1
102
RTVSPost2010Prop40
 90
        0
102
RTVSPost2010PropOp40
 70
     1
102
RTVSPost2010Prop41ColorIndex
 90
       18
102
RTVSPost2010Prop41ColorRGB
 90
        0
102
RTVSPost2010PropOp41
 70
     1
102
RTVSPost2010Prop42
 90
       50
102
RTVSPost2010PropOp42
 70
     1
102
RTVSPost2010Prop43
 90
        3
102
RTVSPost2010PropOp43
 70
     1
102
RTVSPost2010Prop44ColorIndex
 90
        5
102
RTVSPost2010Prop44ColorRGB
 90
      255
102
RTVSPost2010PropOp44
 70
     1
102
RTVSPost2010Prop45
280
     0
102
RTVSPost2010PropOp45
 70
     1
102
RTVSPost2010Prop46
 90
       50
102
RTVSPost2010PropOp46
 70
     1
102
RTVSPost2010Prop47
 90
       50
102
RTVSPost2010PropOp47
 70
     1
102
RTVSPost2010Prop48
 90
       50
102
RTVSPost2010PropOp48
 70
     1
102
RTVSPost2010Prop49
280
     0
102
RTVSPost2010PropOp49
 70
     1
102
RTVSPost2010Prop50
 90
       50
102
RTVSPost2010PropOp50
 70
     1
102
RTVSPost2010Prop51ColorIndex
 90
      256
102
RTVSPost2010Prop51ColorRGB
 90
-16777216
102
RTVSPost2010PropOp51
 70
     0
102
RTVSPost2010Prop52
140
1.0
102
RTVSPost2010PropOp52
 70
     0
102
RTVSPost2010Prop53
 90
        2
102
RTVSPost2010PropOp53
 70
     1
102
RTVSPost2010Prop54
  1
strokes_ogs.tif
102
RTVSPost2010PropOp54
 70
     1
102
RTVSPost2010Prop55
280
     0
102
RTVSPost2010PropOp55
 70
     1
102
RTVSPost2010Prop56
140
1.0
102
RTVSPost2010PropOp56
 70
     1
102
RTVSPost2010Prop57
140
1.0
102
RTVSPost2010PropOp57
 70
     1
102
RTVSPropertyOp0
 70
     1
102
RTVSPropertyOp1
 70
     1
102
RTVSPropertyOp2
 70
     1
102
RTVSPropertyOp3
 70
     1
102
RTVSPropertyOp4
 70
     1
102
RTVSPropertyOp5
 70
     1
102
RTVSPropertyOp6
 70
     1
102
RTVSPropertyOp7
 70
     1
102
RTVSPropertyOp8
 70
     1
102
RTVSPropertyOp9
 70
     1
102
RTVSPropertyOp10
 70
     1
102
RTVSPropertyOp11
 70
     1
102
RTVSPropertyOp12
 70
     1
102
RTVSPropertyOp13
 70
     1
102
RTVSPropertyOp14
 70
     1
102
RTVSPropertyOp15
 70
     1
102
RTVSPropertyOp16
 70
     1
102
RTVSPropertyOp17
 70
     1
102
RTVSPropertyOp18
 70
     1
102
RTVSPropertyOp19
 70
     1
102
RTVSPropertyOp20
 70
     1
102
RTVSPropertyOp21
 70
     1
102
RTVSPropertyOp22
 70
     1
102
RTVSPropertyOp23
 70
     1
102
RTVSPropertyOp24
 70
     1
102
RTVSPropertyOp25
 70
     1
102
RTVSPropertyOp26
 70
     1
102
RTVSPropertyOp27
 70
     1
102
RTVSPropertyOp28
 70
     1
102
RTVSPropertyOp29
 70
     1
102
RTVSPropertyOp30
 70
     1
102
RTVSPropertyOp31
 70
     1
102
RTVSPropertyOp32
 70
     1
102
RTVSPropertyOp33
 70
     1
102
RTVSPropertyOp34
 70
     1
102
RTVSPropertyOp35
 70
     1
102
RTVSPropertyOp36
 70
     1
102
RTVSPropertyOp37
 70
     1
102
RTVSPropertyOp38
 70
     1
102
RTVSPropertyOp39
 70
     1
102
RTVSPropertyOp40
 70
     1
102
RTVSPropertyOp41
 70
     1
102
RTVSPropertyOp42
 70
     1
102
RTVSPropertyOp43
 70
     1
102
RTVSPropertyOp44
 70
     1
102
RTVSPropertyOp45
 70
     1
102
RTVSPropertyOp46
 70
     1
102
RTVSPropertyOp47
 70
     1
102
RTVSPropertyOp48
 70
     1
102
RTVSPropertyOp49
 70
     1
102
RTVSPropertyOp50
 70
     1
102
RTVSPropertyOp51
 70
     0
102
RTVSPropertyOp52
 70
     0
102
RTVSPropertyOp53
 70
     1
102
RTVSPropertyOp54
 70
     1
102
RTVSPropertyOp55
 70
     1
102
RTVSPropertyOp56
 70
     1
102
RTVSPropertyOp57
 70
     1
102
RTVSPropertyOp58
 70
     1
102
RTVSPropertyOp59
 70
     1
102
RTVSPropertyOp60
 70
     1
102
RTVSPropertyOp61
 70
     1
102
RTVSPropertyOp62
 70
     1
  0
XRECORD
  5
709
102
{ACAD_REACTORS
330
708
102
}
330
708
100
AcDbXrecord
280
     1
102
RTVSPost2010Prop28
280
     0
102
RTVSPost2010PropOp28
 70
     1
102
RTVSPost2010Prop29
280
     1
102
RTVSPost2010PropOp29
 70
     1
102
RTVSPost2010Prop30
280
     1
102
RTVSPost2010PropOp30
 70
     1
102
RTVSPost2010Prop31
280
     0
102
RTVSPost2010PropOp31
 70
     1
102
RTVSPost2010Prop32
280
     0
102
RTVSPost2010PropOp32
 70
     1
102
RTVSPost2010Prop33
280
     0
102
RTVSPost2010PropOp33
 70
     1
102
RTVSPost2010Prop34
280
     0
102
RTVSPost2010PropOp34
 70
     1
102
RTVSPost2010Prop35
280
     0
102
RTVSPost2010PropOp35
 70
     1
102
RTVSPost2010Prop36
280
     0
102
RTVSPost2010PropOp36
 70
     1
102
RTVSPost2010Prop37
 90
       50
102
RTVSPost2010PropOp37
 70
     1
102
RTVSPost2010Prop38
140
0.0
102
RTVSPost2010PropOp38
 70
     1
102
RTVSPost2010Prop39
140
1.0
102
RTVSPost2010PropOp39
 70
     1
102
RTVSPost2010Prop40
 90
        0
102
RTVSPost2010PropOp40
 70
     1
102
RTVSPost2010Prop41ColorIndex
 90
       18
102
RTVSPost2010Prop41ColorRGB
 90
        0
102
RTVSPost2010PropOp41
 70
     1
102
RTVSPost2010Prop42
 90
       50
102
RTVSPost2010PropOp42
 70
     1
102
RTVSPost2010Prop43
 90
        3
102
RTVSPost2010PropOp43
 70
     1
102
RTVSPost2010Prop44ColorIndex
 90
        5
102
RTVSPost2010Prop44ColorRGB
 90
      255
102
RTVSPost2010PropOp44
 70
     1
102
RTVSPost2010Prop45
280
     0
102
RTVSPost2010PropOp45
 70
     1
102
RTVSPost2010Prop46
 90
       50
102
RTVSPost2010PropOp46
 70
     1
102
RTVSPost2010Prop47
 90
       50
102
RTVSPost2010PropOp47
 70
     1
102
RTVSPost2010Prop48
 90
       50
102
RTVSPost2010PropOp48
 70
     1
102
RTVSPost2010Prop49
280
     0
102
RTVSPost2010PropOp49
 70
     1
102
RTVSPost2010Prop50
 90
       50
102
RTVSPost2010PropOp50
 70
     1
102
RTVSPost2010Prop51ColorIndex
 90
      256
102
RTVSPost2010Prop51ColorRGB
 90
-16777216
102
RTVSPost2010PropOp51
 70
     0
102
RTVSPost2010Prop52
140
1.0
102
RTVSPost2010PropOp52
 70
     0
102
RTVSPost2010Prop53
 90
        2
102
RTVSPost2010PropOp53
 70
     1
102
RTVSPost2010Prop54
  1
strokes_ogs.tif
102
RTVSPost2010PropOp54
 70
     1
102
RTVSPost2010Prop55
280
     0
102
RTVSPost2010PropOp55
 70
     1
102
RTVSPost2010Prop56
140
1.0
102
RTVSPost2010PropOp56
 70
     1
102
RTVSPost2010Prop57
140
1.0
102
RTVSPost2010PropOp57
 70
     1
102
RTVSPropertyOp0
 70
     1
102
RTVSPropertyOp1
 70
     1
102
RTVSPropertyOp2
 70
     1
102
RTVSPropertyOp3
 70
     1
102
RTVSPropertyOp4
 70
     1
102
RTVSPropertyOp5
 70
     1
102
RTVSPropertyOp6
 70
     1
102
RTVSPropertyOp7
 70
     1
102
RTVSPropertyOp8
 70
     1
102
RTVSPropertyOp9
 70
     1
102
RTVSPropertyOp10
 70
     1
102
RTVSPropertyOp11
 70
     1
102
RTVSPropertyOp12
 70
     1
102
RTVSPropertyOp13
 70
     1
102
RTVSPropertyOp14
 70
     1
102
RTVSPropertyOp15
 70
     1
102
RTVSPropertyOp16
 70
     1
102
RTVSPropertyOp17
 70
     1
102
RTVSPropertyOp18
 70
     1
102
RTVSPropertyOp19
 70
     1
102
RTVSPropertyOp20
 70
     1
102
RTVSPropertyOp21
 70
     1
102
RTVSPropertyOp22
 70
     1
102
RTVSPropertyOp23
 70
     1
102
RTVSPropertyOp24
 70
     1
102
RTVSPropertyOp25
 70
     1
102
RTVSPropertyOp26
 70
     1
102
RTVSPropertyOp27
 70
     1
102
RTVSPropertyOp28
 70
     1
102
RTVSPropertyOp29
 70
     1
102
RTVSPropertyOp30
 70
     1
102
RTVSPropertyOp31
 70
     1
102
RTVSPropertyOp32
 70
     1
102
RTVSPropertyOp33
 70
     1
102
RTVSPropertyOp34
 70
     1
102
RTVSPropertyOp35
 70
     1
102
RTVSPropertyOp36
 70
     1
102
RTVSPropertyOp37
 70
     1
102
RTVSPropertyOp38
 70
     1
102
RTVSPropertyOp39
 70
     1
102
RTVSPropertyOp40
 70
     1
102
RTVSPropertyOp41
 70
     1
102
RTVSPropertyOp42
 70
     1
102
RTVSPropertyOp43
 70
     1
102
RTVSPropertyOp44
 70
     1
102
RTVSPropertyOp45
 70
     1
102
RTVSPropertyOp46
 70
     1
102
RTVSPropertyOp47
 70
     1
102
RTVSPropertyOp48
 70
     1
102
RTVSPropertyOp49
 70
     1
102
RTVSPropertyOp50
 70
     1
102
RTVSPropertyOp51
 70
     0
102
RTVSPropertyOp52
 70
     0
102
RTVSPropertyOp53
 70
     1
102
RTVSPropertyOp54
 70
     1
102
RTVSPropertyOp55
 70
     1
102
RTVSPropertyOp56
 70
     1
102
RTVSPropertyOp57
 70
     1
102
RTVSPropertyOp58
 70
     1
102
RTVSPropertyOp59
 70
     1
102
RTVSPropertyOp60
 70
     1
102
RTVSPropertyOp61
 70
     1
102
RTVSPropertyOp62
 70
     1
  0
XRECORD
  5
6FB
102
{ACAD_REACTORS
330
6FA
102
}
330
6FA
100
AcDbXrecord
280
     1
102
RTVSPost2010Prop28
280
     0
102
RTVSPost2010PropOp28
 70
     1
102
RTVSPost2010Prop29
280
     1
102
RTVSPost2010PropOp29
 70
     1
102
RTVSPost2010Prop30
280
     1
102
RTVSPost2010PropOp30
 70
     1
102
RTVSPost2010Prop31
280
     0
102
RTVSPost2010PropOp31
 70
     1
102
RTVSPost2010Prop32
280
     0
102
RTVSPost2010PropOp32
 70
     1
102
RTVSPost2010Prop33
280
     0
102
RTVSPost2010PropOp33
 70
     1
102
RTVSPost2010Prop34
280
     0
102
RTVSPost2010PropOp34
 70
     1
102
RTVSPost2010Prop35
280
     0
102
RTVSPost2010PropOp35
 70
     1
102
RTVSPost2010Prop36
280
     0
102
RTVSPost2010PropOp36
 70
     1
102
RTVSPost2010Prop37
 90
       50
102
RTVSPost2010PropOp37
 70
     1
102
RTVSPost2010Prop38
140
0.0
102
RTVSPost2010PropOp38
 70
     1
102
RTVSPost2010Prop39
140
1.0
102
RTVSPost2010PropOp39
 70
     1
102
RTVSPost2010Prop40
 90
        0
102
RTVSPost2010PropOp40
 70
     1
102
RTVSPost2010Prop41ColorIndex
 90
       18
102
RTVSPost2010Prop41ColorRGB
 90
        0
102
RTVSPost2010PropOp41
 70
     1
102
RTVSPost2010Prop42
 90
       50
102
RTVSPost2010PropOp42
 70
     1
102
RTVSPost2010Prop43
 90
        3
102
RTVSPost2010PropOp43
 70
     1
102
RTVSPost2010Prop44ColorIndex
 90
        5
102
RTVSPost2010Prop44ColorRGB
 90
      255
102
RTVSPost2010PropOp44
 70
     1
102
RTVSPost2010Prop45
280
     0
102
RTVSPost2010PropOp45
 70
     1
102
RTVSPost2010Prop46
 90
       50
102
RTVSPost2010PropOp46
 70
     1
102
RTVSPost2010Prop47
 90
       50
102
RTVSPost2010PropOp47
 70
     1
102
RTVSPost2010Prop48
 90
       50
102
RTVSPost2010PropOp48
 70
     1
102
RTVSPost2010Prop49
280
     0
102
RTVSPost2010PropOp49
 70
     1
102
RTVSPost2010Prop50
 90
       50
102
RTVSPost2010PropOp50
 70
     1
102
RTVSPost2010Prop51ColorIndex
 90
      256
102
RTVSPost2010Prop51ColorRGB
 90
-16777216
102
RTVSPost2010PropOp51
 70
     0
102
RTVSPost2010Prop52
140
1.0
102
RTVSPost2010PropOp52
 70
     0
102
RTVSPost2010Prop53
 90
        2
102
RTVSPost2010PropOp53
 70
     1
102
RTVSPost2010Prop54
  1
strokes_ogs.tif
102
RTVSPost2010PropOp54
 70
     1
102
RTVSPost2010Prop55
280
     0
102
RTVSPost2010PropOp55
 70
     1
102
RTVSPost2010Prop56
140
1.0
102
RTVSPost2010PropOp56
 70
     1
102
RTVSPost2010Prop57
140
1.0
102
RTVSPost2010PropOp57
 70
     1
102
RTVSPropertyOp0
 70
     1
102
RTVSPropertyOp1
 70
     1
102
RTVSPropertyOp2
 70
     1
102
RTVSPropertyOp3
 70
     1
102
RTVSPropertyOp4
 70
     1
102
RTVSPropertyOp5
 70
     1
102
RTVSPropertyOp6
 70
     1
102
RTVSPropertyOp7
 70
     1
102
RTVSPropertyOp8
 70
     1
102
RTVSPropertyOp9
 70
     1
102
RTVSPropertyOp10
 70
     1
102
RTVSPropertyOp11
 70
     1
102
RTVSPropertyOp12
 70
     1
102
RTVSPropertyOp13
 70
     1
102
RTVSPropertyOp14
 70
     1
102
RTVSPropertyOp15
 70
     1
102
RTVSPropertyOp16
 70
     1
102
RTVSPropertyOp17
 70
     1
102
RTVSPropertyOp18
 70
     1
102
RTVSPropertyOp19
 70
     1
102
RTVSPropertyOp20
 70
     1
102
RTVSPropertyOp21
 70
     1
102
RTVSPropertyOp22
 70
     1
102
RTVSPropertyOp23
 70
     1
102
RTVSPropertyOp24
 70
     1
102
RTVSPropertyOp25
 70
     1
102
RTVSPropertyOp26
 70
     1
102
RTVSPropertyOp27
 70
     1
102
RTVSPropertyOp28
 70
     1
102
RTVSPropertyOp29
 70
     1
102
RTVSPropertyOp30
 70
     1
102
RTVSPropertyOp31
 70
     1
102
RTVSPropertyOp32
 70
     1
102
RTVSPropertyOp33
 70
     1
102
RTVSPropertyOp34
 70
     1
102
RTVSPropertyOp35
 70
     1
102
RTVSPropertyOp36
 70
     1
102
RTVSPropertyOp37
 70
     1
102
RTVSPropertyOp38
 70
     1
102
RTVSPropertyOp39
 70
     1
102
RTVSPropertyOp40
 70
     1
102
RTVSPropertyOp41
 70
     1
102
RTVSPropertyOp42
 70
     1
102
RTVSPropertyOp43
 70
     1
102
RTVSPropertyOp44
 70
     1
102
RTVSPropertyOp45
 70
     1
102
RTVSPropertyOp46
 70
     1
102
RTVSPropertyOp47
 70
     1
102
RTVSPropertyOp48
 70
     1
102
RTVSPropertyOp49
 70
     1
102
RTVSPropertyOp50
 70
     1
102
RTVSPropertyOp51
 70
     0
102
RTVSPropertyOp52
 70
     0
102
RTVSPropertyOp53
 70
     1
102
RTVSPropertyOp54
 70
     1
102
RTVSPropertyOp55
 70
     1
102
RTVSPropertyOp56
 70
     1
102
RTVSPropertyOp57
 70
     1
102
RTVSPropertyOp58
 70
     1
102
RTVSPropertyOp59
 70
     1
102
RTVSPropertyOp60
 70
     1
102
RTVSPropertyOp61
 70
     1
102
RTVSPropertyOp62
 70
     1
  0
XRECORD
  5
6FF
102
{ACAD_REACTORS
330
6FE
102
}
330
6FE
100
AcDbXrecord
280
     1
102
RTVSPost2010Prop28
280
     0
102
RTVSPost2010PropOp28
 70
     1
102
RTVSPost2010Prop29
280
     1
102
RTVSPost2010PropOp29
 70
     1
102
RTVSPost2010Prop30
280
     1
102
RTVSPost2010PropOp30
 70
     1
102
RTVSPost2010Prop31
280
     0
102
RTVSPost2010PropOp31
 70
     1
102
RTVSPost2010Prop32
280
     0
102
RTVSPost2010PropOp32
 70
     1
102
RTVSPost2010Prop33
280
     0
102
RTVSPost2010PropOp33
 70
     1
102
RTVSPost2010Prop34
280
     0
102
RTVSPost2010PropOp34
 70
     1
102
RTVSPost2010Prop35
280
     0
102
RTVSPost2010PropOp35
 70
     1
102
RTVSPost2010Prop36
280
     0
102
RTVSPost2010PropOp36
 70
     1
102
RTVSPost2010Prop37
 90
       50
102
RTVSPost2010PropOp37
 70
     1
102
RTVSPost2010Prop38
140
0.0
102
RTVSPost2010PropOp38
 70
     1
102
RTVSPost2010Prop39
140
1.0
102
RTVSPost2010PropOp39
 70
     1
102
RTVSPost2010Prop40
 90
        0
102
RTVSPost2010PropOp40
 70
     1
102
RTVSPost2010Prop41ColorIndex
 90
       18
102
RTVSPost2010Prop41ColorRGB
 90
        0
102
RTVSPost2010PropOp41
 70
     1
102
RTVSPost2010Prop42
 90
       50
102
RTVSPost2010PropOp42
 70
     1
102
RTVSPost2010Prop43
 90
        3
102
RTVSPost2010PropOp43
 70
     1
102
RTVSPost2010Prop44ColorIndex
 90
        5
102
RTVSPost2010Prop44ColorRGB
 90
      255
102
RTVSPost2010PropOp44
 70
     1
102
RTVSPost2010Prop45
280
     0
102
RTVSPost2010PropOp45
 70
     1
102
RTVSPost2010Prop46
 90
       50
102
RTVSPost2010PropOp46
 70
     1
102
RTVSPost2010Prop47
 90
       50
102
RTVSPost2010PropOp47
 70
     1
102
RTVSPost2010Prop48
 90
       50
102
RTVSPost2010PropOp48
 70
     1
102
RTVSPost2010Prop49
280
     0
102
RTVSPost2010PropOp49
 70
     1
102
RTVSPost2010Prop50
 90
       50
102
RTVSPost2010PropOp50
 70
     1
102
RTVSPost2010Prop51ColorIndex
 90
      256
102
RTVSPost2010Prop51ColorRGB
 90
-16777216
102
RTVSPost2010PropOp51
 70
     0
102
RTVSPost2010Prop52
140
1.0
102
RTVSPost2010PropOp52
 70
     0
102
RTVSPost2010Prop53
 90
        2
102
RTVSPost2010PropOp53
 70
     1
102
RTVSPost2010Prop54
  1
strokes_ogs.tif
102
RTVSPost2010PropOp54
 70
     1
102
RTVSPost2010Prop55
280
     0
102
RTVSPost2010PropOp55
 70
     1
102
RTVSPost2010Prop56
140
1.0
102
RTVSPost2010PropOp56
 70
     1
102
RTVSPost2010Prop57
140
1.0
102
RTVSPost2010PropOp57
 70
     1
102
RTVSPropertyOp0
 70
     1
102
RTVSPropertyOp1
 70
     1
102
RTVSPropertyOp2
 70
     1
102
RTVSPropertyOp3
 70
     1
102
RTVSPropertyOp4
 70
     1
102
RTVSPropertyOp5
 70
     1
102
RTVSPropertyOp6
 70
     1
102
RTVSPropertyOp7
 70
     1
102
RTVSPropertyOp8
 70
     1
102
RTVSPropertyOp9
 70
     1
102
RTVSPropertyOp10
 70
     1
102
RTVSPropertyOp11
 70
     1
102
RTVSPropertyOp12
 70
     1
102
RTVSPropertyOp13
 70
     1
102
RTVSPropertyOp14
 70
     1
102
RTVSPropertyOp15
 70
     1
102
RTVSPropertyOp16
 70
     1
102
RTVSPropertyOp17
 70
     1
102
RTVSPropertyOp18
 70
     1
102
RTVSPropertyOp19
 70
     1
102
RTVSPropertyOp20
 70
     1
102
RTVSPropertyOp21
 70
     1
102
RTVSPropertyOp22
 70
     1
102
RTVSPropertyOp23
 70
     1
102
RTVSPropertyOp24
 70
     1
102
RTVSPropertyOp25
 70
     1
102
RTVSPropertyOp26
 70
     1
102
RTVSPropertyOp27
 70
     1
102
RTVSPropertyOp28
 70
     1
102
RTVSPropertyOp29
 70
     1
102
RTVSPropertyOp30
 70
     1
102
RTVSPropertyOp31
 70
     1
102
RTVSPropertyOp32
 70
     1
102
RTVSPropertyOp33
 70
     1
102
RTVSPropertyOp34
 70
     1
102
RTVSPropertyOp35
 70
     1
102
RTVSPropertyOp36
 70
     1
102
RTVSPropertyOp37
 70
     1
102
RTVSPropertyOp38
 70
     1
102
RTVSPropertyOp39
 70
     1
102
RTVSPropertyOp40
 70
     1
102
RTVSPropertyOp41
 70
     1
102
RTVSPropertyOp42
 70
     1
102
RTVSPropertyOp43
 70
     1
102
RTVSPropertyOp44
 70
     1
102
RTVSPropertyOp45
 70
     1
102
RTVSPropertyOp46
 70
     1
102
RTVSPropertyOp47
 70
     1
102
RTVSPropertyOp48
 70
     1
102
RTVSPropertyOp49
 70
     1
102
RTVSPropertyOp50
 70
     1
102
RTVSPropertyOp51
 70
     0
102
RTVSPropertyOp52
 70
     0
102
RTVSPropertyOp53
 70
     1
102
RTVSPropertyOp54
 70
     1
102
RTVSPropertyOp55
 70
     1
102
RTVSPropertyOp56
 70
     1
102
RTVSPropertyOp57
 70
     1
102
RTVSPropertyOp58
 70
     1
102
RTVSPropertyOp59
 70
     1
102
RTVSPropertyOp60
 70
     1
102
RTVSPropertyOp61
 70
     1
102
RTVSPropertyOp62
 70
     1
  0
XRECORD
  5
719
102
{ACAD_REACTORS
330
718
102
}
330
718
100
AcDbXrecord
280
     1
102
RTVSPost2010Prop28
280
     0
102
RTVSPost2010PropOp28
 70
     1
102
RTVSPost2010Prop29
280
     1
102
RTVSPost2010PropOp29
 70
     1
102
RTVSPost2010Prop30
280
     1
102
RTVSPost2010PropOp30
 70
     1
102
RTVSPost2010Prop31
280
     0
102
RTVSPost2010PropOp31
 70
     1
102
RTVSPost2010Prop32
280
     0
102
RTVSPost2010PropOp32
 70
     1
102
RTVSPost2010Prop33
280
     0
102
RTVSPost2010PropOp33
 70
     1
102
RTVSPost2010Prop34
280
     0
102
RTVSPost2010PropOp34
 70
     1
102
RTVSPost2010Prop35
280
     0
102
RTVSPost2010PropOp35
 70
     1
102
RTVSPost2010Prop36
280
     0
102
RTVSPost2010PropOp36
 70
     1
102
RTVSPost2010Prop37
 90
       50
102
RTVSPost2010PropOp37
 70
     0
102
RTVSPost2010Prop38
140
0.0
102
RTVSPost2010PropOp38
 70
     0
102
RTVSPost2010Prop39
140
1.0
102
RTVSPost2010PropOp39
 70
     0
102
RTVSPost2010Prop40
 90
        0
102
RTVSPost2010PropOp40
 70
     0
102
RTVSPost2010Prop41ColorIndex
 90
       18
102
RTVSPost2010Prop41ColorRGB
 90
        0
102
RTVSPost2010PropOp41
 70
     0
102
RTVSPost2010Prop42
 90
       50
102
RTVSPost2010PropOp42
 70
     0
102
RTVSPost2010Prop43
 90
        3
102
RTVSPost2010PropOp43
 70
     0
102
RTVSPost2010Prop44ColorIndex
 90
        5
102
RTVSPost2010Prop44ColorRGB
 90
      255
102
RTVSPost2010PropOp44
 70
     0
102
RTVSPost2010Prop45
280
     0
102
RTVSPost2010PropOp45
 70
     1
102
RTVSPost2010Prop46
 90
       50
102
RTVSPost2010PropOp46
 70
     0
102
RTVSPost2010Prop47
 90
       50
102
RTVSPost2010PropOp47
 70
     0
102
RTVSPost2010Prop48
 90
       50
102
RTVSPost2010PropOp48
 70
     0
102
RTVSPost2010Prop49
280
     0
102
RTVSPost2010PropOp49
 70
     1
102
RTVSPost2010Prop50
 90
       50
102
RTVSPost2010PropOp50
 70
     0
102
RTVSPost2010Prop51ColorIndex
 90
      256
102
RTVSPost2010Prop51ColorRGB
 90
-16777216
102
RTVSPost2010PropOp51
 70
     0
102
RTVSPost2010Prop52
140
1.0
102
RTVSPost2010PropOp52
 70
     0
102
RTVSPost2010Prop53
 90
        2
102
RTVSPost2010PropOp53
 70
     0
102
RTVSPost2010Prop54
  1
strokes_ogs.tif
102
RTVSPost2010PropOp54
 70
     0
102
RTVSPost2010Prop55
280
     0
102
RTVSPost2010PropOp55
 70
     1
102
RTVSPost2010Prop56
140
1.0
102
RTVSPost2010PropOp56
 70
     0
102
RTVSPost2010Prop57
140
1.0
102
RTVSPost2010PropOp57
 70
     0
102
RTVSPropertyOp0
 70
     0
102
RTVSPropertyOp1
 70
     0
102
RTVSPropertyOp2
 70
     0
102
RTVSPropertyOp3
 70
     0
102
RTVSPropertyOp4
 70
     0
102
RTVSPropertyOp5
 70
     0
102
RTVSPropertyOp6
 70
     0
102
RTVSPropertyOp7
 70
     0
102
RTVSPropertyOp8
 70
     0
102
RTVSPropertyOp9
 70
     0
102
RTVSPropertyOp10
 70
     0
102
RTVSPropertyOp11
 70
     0
102
RTVSPropertyOp12
 70
     0
102
RTVSPropertyOp13
 70
     0
102
RTVSPropertyOp14
 70
     2
102
RTVSPropertyOp15
 70
     0
102
RTVSPropertyOp16
 70
     0
102
RTVSPropertyOp17
 70
     0
102
RTVSPropertyOp18
 70
     0
102
RTVSPropertyOp19
 70
     0
102
RTVSPropertyOp20
 70
     0
102
RTVSPropertyOp21
 70
     0
102
RTVSPropertyOp22
 70
     0
102
RTVSPropertyOp23
 70
     0
102
RTVSPropertyOp24
 70
     0
102
RTVSPropertyOp25
 70
     0
102
RTVSPropertyOp26
 70
     0
102
RTVSPropertyOp27
 70
     0
102
RTVSPropertyOp28
 70
     1
102
RTVSPropertyOp29
 70
     1
102
RTVSPropertyOp30
 70
     1
102
RTVSPropertyOp31
 70
     1
102
RTVSPropertyOp32
 70
     1
102
RTVSPropertyOp33
 70
     1
102
RTVSPropertyOp34
 70
     1
102
RTVSPropertyOp35
 70
     1
102
RTVSPropertyOp36
 70
     1
102
RTVSPropertyOp37
 70
     0
102
RTVSPropertyOp38
 70
     0
102
RTVSPropertyOp39
 70
     0
102
RTVSPropertyOp40
 70
     0
102
RTVSPropertyOp41
 70
     0
102
RTVSPropertyOp42
 70
     0
102
RTVSPropertyOp43
 70
     0
102
RTVSPropertyOp44
 70
     0
102
RTVSPropertyOp45
 70
     1
102
RTVSPropertyOp46
 70
     0
102
RTVSPropertyOp47
 70
     0
102
RTVSPropertyOp48
 70
     0
102
RTVSPropertyOp49
 70
     1
102
RTVSPropertyOp50
 70
     0
102
RTVSPropertyOp51
 70
     0
102
RTVSPropertyOp52
 70
     0
102
RTVSPropertyOp53
 70
     0
102
RTVSPropertyOp54
 70
     0
102
RTVSPropertyOp55
 70
     1
102
RTVSPropertyOp56
 70
     0
102
RTVSPropertyOp57
 70
     0
102
RTVSPropertyOp58
 70
     0
102
RTVSPropertyOp59
 70
     0
102
RTVSPropertyOp60
 70
     0
102
RTVSPropertyOp61
 70
     0
102
RTVSPropertyOp62
 70
     0
  0
XRECORD
  5
707
102
{ACAD_REACTORS
330
706
102
}
330
706
100
AcDbXrecord
280
     1
102
RTVSPost2010Prop28
280
     0
102
RTVSPost2010PropOp28
 70
     1
102
RTVSPost2010Prop29
280
     1
102
RTVSPost2010PropOp29
 70
     1
102
RTVSPost2010Prop30
280
     1
102
RTVSPost2010PropOp30
 70
     1
102
RTVSPost2010Prop31
280
     0
102
RTVSPost2010PropOp31
 70
     1
102
RTVSPost2010Prop32
280
     0
102
RTVSPost2010PropOp32
 70
     1
102
RTVSPost2010Prop33
280
     0
102
RTVSPost2010PropOp33
 70
     1
102
RTVSPost2010Prop34
280
     0
102
RTVSPost2010PropOp34
 70
     1
102
RTVSPost2010Prop35
280
     0
102
RTVSPost2010PropOp35
 70
     1
102
RTVSPost2010Prop36
280
     0
102
RTVSPost2010PropOp36
 70
     1
102
RTVSPost2010Prop37
 90
       50
102
RTVSPost2010PropOp37
 70
     1
102
RTVSPost2010Prop38
140
0.0
102
RTVSPost2010PropOp38
 70
     1
102
RTVSPost2010Prop39
140
1.0
102
RTVSPost2010PropOp39
 70
     1
102
RTVSPost2010Prop40
 90
        0
102
RTVSPost2010PropOp40
 70
     1
102
RTVSPost2010Prop41ColorIndex
 90
       18
102
RTVSPost2010Prop41ColorRGB
 90
        0
102
RTVSPost2010PropOp41
 70
     1
102
RTVSPost2010Prop42
 90
       50
102
RTVSPost2010PropOp42
 70
     1
102
RTVSPost2010Prop43
 90
        3
102
RTVSPost2010PropOp43
 70
     1
102
RTVSPost2010Prop44ColorIndex
 90
        5
102
RTVSPost2010Prop44ColorRGB
 90
      255
102
RTVSPost2010PropOp44
 70
     1
102
RTVSPost2010Prop45
280
     0
102
RTVSPost2010PropOp45
 70
     1
102
RTVSPost2010Prop46
 90
       50
102
RTVSPost2010PropOp46
 70
     1
102
RTVSPost2010Prop47
 90
       50
102
RTVSPost2010PropOp47
 70
     1
102
RTVSPost2010Prop48
 90
       50
102
RTVSPost2010PropOp48
 70
     1
102
RTVSPost2010Prop49
280
     0
102
RTVSPost2010PropOp49
 70
     1
102
RTVSPost2010Prop50
 90
       50
102
RTVSPost2010PropOp50
 70
     1
102
RTVSPost2010Prop51ColorIndex
 90
      256
102
RTVSPost2010Prop51ColorRGB
 90
-16777216
102
RTVSPost2010PropOp51
 70
     0
102
RTVSPost2010Prop52
140
1.0
102
RTVSPost2010PropOp52
 70
     0
102
RTVSPost2010Prop53
 90
        2
102
RTVSPost2010PropOp53
 70
     1
102
RTVSPost2010Prop54
  1
strokes_ogs.tif
102
RTVSPost2010PropOp54
 70
     1
102
RTVSPost2010Prop55
280
     0
102
RTVSPost2010PropOp55
 70
     1
102
RTVSPost2010Prop56
140
1.0
102
RTVSPost2010PropOp56
 70
     1
102
RTVSPost2010Prop57
140
1.0
102
RTVSPost2010PropOp57
 70
     1
102
RTVSPropertyOp0
 70
     1
102
RTVSPropertyOp1
 70
     1
102
RTVSPropertyOp2
 70
     1
102
RTVSPropertyOp3
 70
     1
102
RTVSPropertyOp4
 70
     1
102
RTVSPropertyOp5
 70
     1
102
RTVSPropertyOp6
 70
     1
102
RTVSPropertyOp7
 70
     1
102
RTVSPropertyOp8
 70
     1
102
RTVSPropertyOp9
 70
     1
102
RTVSPropertyOp10
 70
     1
102
RTVSPropertyOp11
 70
     1
102
RTVSPropertyOp12
 70
     1
102
RTVSPropertyOp13
 70
     1
102
RTVSPropertyOp14
 70
     1
102
RTVSPropertyOp15
 70
     1
102
RTVSPropertyOp16
 70
     1
102
RTVSPropertyOp17
 70
     1
102
RTVSPropertyOp18
 70
     1
102
RTVSPropertyOp19
 70
     1
102
RTVSPropertyOp20
 70
     1
102
RTVSPropertyOp21
 70
     1
102
RTVSPropertyOp22
 70
     1
102
RTVSPropertyOp23
 70
     1
102
RTVSPropertyOp24
 70
     1
102
RTVSPropertyOp25
 70
     1
102
RTVSPropertyOp26
 70
     1
102
RTVSPropertyOp27
 70
     1
102
RTVSPropertyOp28
 70
     1
102
RTVSPropertyOp29
 70
     1
102
RTVSPropertyOp30
 70
     1
102
RTVSPropertyOp31
 70
     1
102
RTVSPropertyOp32
 70
     1
102
RTVSPropertyOp33
 70
     1
102
RTVSPropertyOp34
 70
     1
102
RTVSPropertyOp35
 70
     1
102
RTVSPropertyOp36
 70
     1
102
RTVSPropertyOp37
 70
     1
102
RTVSPropertyOp38
 70
     1
102
RTVSPropertyOp39
 70
     1
102
RTVSPropertyOp40
 70
     1
102
RTVSPropertyOp41
 70
     1
102
RTVSPropertyOp42
 70
     1
102
RTVSPropertyOp43
 70
     1
102
RTVSPropertyOp44
 70
     1
102
RTVSPropertyOp45
 70
     1
102
RTVSPropertyOp46
 70
     1
102
RTVSPropertyOp47
 70
     1
102
RTVSPropertyOp48
 70
     1
102
RTVSPropertyOp49
 70
     1
102
RTVSPropertyOp50
 70
     1
102
RTVSPropertyOp51
 70
     0
102
RTVSPropertyOp52
 70
     0
102
RTVSPropertyOp53
 70
     1
102
RTVSPropertyOp54
 70
     1
102
RTVSPropertyOp55
 70
     1
102
RTVSPropertyOp56
 70
     1
102
RTVSPropertyOp57
 70
     1
102
RTVSPropertyOp58
 70
     1
102
RTVSPropertyOp59
 70
     1
102
RTVSPropertyOp60
 70
     1
102
RTVSPropertyOp61
 70
     1
102
RTVSPropertyOp62
 70
     1
  0
XRECORD
  5
6EB
102
{ACAD_REACTORS
330
6EA
102
}
330
6EA
100
AcDbXrecord
280
     1
102
RTVSPost2010Prop28
280
     0
102
RTVSPost2010PropOp28
 70
     1
102
RTVSPost2010Prop29
280
     1
102
RTVSPost2010PropOp29
 70
     1
102
RTVSPost2010Prop30
280
     1
102
RTVSPost2010PropOp30
 70
     1
102
RTVSPost2010Prop31
280
     0
102
RTVSPost2010PropOp31
 70
     1
102
RTVSPost2010Prop32
280
     0
102
RTVSPost2010PropOp32
 70
     1
102
RTVSPost2010Prop33
280
     0
102
RTVSPost2010PropOp33
 70
     1
102
RTVSPost2010Prop34
280
     0
102
RTVSPost2010PropOp34
 70
     1
102
RTVSPost2010Prop35
280
     0
102
RTVSPost2010PropOp35
 70
     1
102
RTVSPost2010Prop36
280
     0
102
RTVSPost2010PropOp36
 70
     1
102
RTVSPost2010Prop37
 90
       50
102
RTVSPost2010PropOp37
 70
     1
102
RTVSPost2010Prop38
140
0.0
102
RTVSPost2010PropOp38
 70
     1
102
RTVSPost2010Prop39
140
1.0
102
RTVSPost2010PropOp39
 70
     1
102
RTVSPost2010Prop40
 90
        0
102
RTVSPost2010PropOp40
 70
     1
102
RTVSPost2010Prop41ColorIndex
 90
       18
102
RTVSPost2010Prop41ColorRGB
 90
        0
102
RTVSPost2010PropOp41
 70
     1
102
RTVSPost2010Prop42
 90
       50
102
RTVSPost2010PropOp42
 70
     1
102
RTVSPost2010Prop43
 90
        3
102
RTVSPost2010PropOp43
 70
     1
102
RTVSPost2010Prop44ColorIndex
 90
        5
102
RTVSPost2010Prop44ColorRGB
 90
      255
102
RTVSPost2010PropOp44
 70
     1
102
RTVSPost2010Prop45
280
     0
102
RTVSPost2010PropOp45
 70
     1
102
RTVSPost2010Prop46
 90
       50
102
RTVSPost2010PropOp46
 70
     1
102
RTVSPost2010Prop47
 90
       50
102
RTVSPost2010PropOp47
 70
     1
102
RTVSPost2010Prop48
 90
       50
102
RTVSPost2010PropOp48
 70
     1
102
RTVSPost2010Prop49
280
     0
102
RTVSPost2010PropOp49
 70
     1
102
RTVSPost2010Prop50
 90
       50
102
RTVSPost2010PropOp50
 70
     1
102
RTVSPost2010Prop51ColorIndex
 90
      256
102
RTVSPost2010Prop51ColorRGB
 90
-16777216
102
RTVSPost2010PropOp51
 70
     0
102
RTVSPost2010Prop52
140
1.0
102
RTVSPost2010PropOp52
 70
     0
102
RTVSPost2010Prop53
 90
        2
102
RTVSPost2010PropOp53
 70
     1
102
RTVSPost2010Prop54
  1
strokes_ogs.tif
102
RTVSPost2010PropOp54
 70
     1
102
RTVSPost2010Prop55
280
     0
102
RTVSPost2010PropOp55
 70
     1
102
RTVSPost2010Prop56
140
1.0
102
RTVSPost2010PropOp56
 70
     1
102
RTVSPost2010Prop57
140
1.0
102
RTVSPost2010PropOp57
 70
     1
102
RTVSPropertyOp0
 70
     1
102
RTVSPropertyOp1
 70
     1
102
RTVSPropertyOp2
 70
     1
102
RTVSPropertyOp3
 70
     1
102
RTVSPropertyOp4
 70
     1
102
RTVSPropertyOp5
 70
     1
102
RTVSPropertyOp6
 70
     1
102
RTVSPropertyOp7
 70
     1
102
RTVSPropertyOp8
 70
     1
102
RTVSPropertyOp9
 70
     1
102
RTVSPropertyOp10
 70
     1
102
RTVSPropertyOp11
 70
     1
102
RTVSPropertyOp12
 70
     1
102
RTVSPropertyOp13
 70
     1
102
RTVSPropertyOp14
 70
     1
102
RTVSPropertyOp15
 70
     1
102
RTVSPropertyOp16
 70
     1
102
RTVSPropertyOp17
 70
     1
102
RTVSPropertyOp18
 70
     1
102
RTVSPropertyOp19
 70
     1
102
RTVSPropertyOp20
 70
     1
102
RTVSPropertyOp21
 70
     1
102
RTVSPropertyOp22
 70
     1
102
RTVSPropertyOp23
 70
     1
102
RTVSPropertyOp24
 70
     1
102
RTVSPropertyOp25
 70
     1
102
RTVSPropertyOp26
 70
     1
102
RTVSPropertyOp27
 70
     1
102
RTVSPropertyOp28
 70
     1
102
RTVSPropertyOp29
 70
     1
102
RTVSPropertyOp30
 70
     1
102
RTVSPropertyOp31
 70
     1
102
RTVSPropertyOp32
 70
     1
102
RTVSPropertyOp33
 70
     1
102
RTVSPropertyOp34
 70
     1
102
RTVSPropertyOp35
 70
     1
102
RTVSPropertyOp36
 70
     1
102
RTVSPropertyOp37
 70
     1
102
RTVSPropertyOp38
 70
     1
102
RTVSPropertyOp39
 70
     1
102
RTVSPropertyOp40
 70
     1
102
RTVSPropertyOp41
 70
     1
102
RTVSPropertyOp42
 70
     1
102
RTVSPropertyOp43
 70
     1
102
RTVSPropertyOp44
 70
     1
102
RTVSPropertyOp45
 70
     1
102
RTVSPropertyOp46
 70
     1
102
RTVSPropertyOp47
 70
     1
102
RTVSPropertyOp48
 70
     1
102
RTVSPropertyOp49
 70
     1
102
RTVSPropertyOp50
 70
     1
102
RTVSPropertyOp51
 70
     0
102
RTVSPropertyOp52
 70
     0
102
RTVSPropertyOp53
 70
     1
102
RTVSPropertyOp54
 70
     1
102
RTVSPropertyOp55
 70
     1
102
RTVSPropertyOp56
 70
     1
102
RTVSPropertyOp57
 70
     1
102
RTVSPropertyOp58
 70
     1
102
RTVSPropertyOp59
 70
     1
102
RTVSPropertyOp60
 70
     1
102
RTVSPropertyOp61
 70
     1
102
RTVSPropertyOp62
 70
     1
  0
XRECORD
  5
6ED
102
{ACAD_REACTORS
330
6EC
102
}
330
6EC
100
AcDbXrecord
280
     1
102
RTVSPost2010Prop28
280
     0
102
RTVSPost2010PropOp28
 70
     1
102
RTVSPost2010Prop29
280
     1
102
RTVSPost2010PropOp29
 70
     1
102
RTVSPost2010Prop30
280
     1
102
RTVSPost2010PropOp30
 70
     1
102
RTVSPost2010Prop31
280
     0
102
RTVSPost2010PropOp31
 70
     1
102
RTVSPost2010Prop32
280
     0
102
RTVSPost2010PropOp32
 70
     1
102
RTVSPost2010Prop33
280
     0
102
RTVSPost2010PropOp33
 70
     1
102
RTVSPost2010Prop34
280
     0
102
RTVSPost2010PropOp34
 70
     1
102
RTVSPost2010Prop35
280
     0
102
RTVSPost2010PropOp35
 70
     1
102
RTVSPost2010Prop36
280
     0
102
RTVSPost2010PropOp36
 70
     1
102
RTVSPost2010Prop37
 90
       50
102
RTVSPost2010PropOp37
 70
     1
102
RTVSPost2010Prop38
140
0.0
102
RTVSPost2010PropOp38
 70
     1
102
RTVSPost2010Prop39
140
1.0
102
RTVSPost2010PropOp39
 70
     1
102
RTVSPost2010Prop40
 90
        0
102
RTVSPost2010PropOp40
 70
     1
102
RTVSPost2010Prop41ColorIndex
 90
       18
102
RTVSPost2010Prop41ColorRGB
 90
        0
102
RTVSPost2010PropOp41
 70
     1
102
RTVSPost2010Prop42
 90
       50
102
RTVSPost2010PropOp42
 70
     1
102
RTVSPost2010Prop43
 90
        3
102
RTVSPost2010PropOp43
 70
     1
102
RTVSPost2010Prop44ColorIndex
 90
        5
102
RTVSPost2010Prop44ColorRGB
 90
      255
102
RTVSPost2010PropOp44
 70
     1
102
RTVSPost2010Prop45
280
     0
102
RTVSPost2010PropOp45
 70
     1
102
RTVSPost2010Prop46
 90
       50
102
RTVSPost2010PropOp46
 70
     1
102
RTVSPost2010Prop47
 90
       50
102
RTVSPost2010PropOp47
 70
     1
102
RTVSPost2010Prop48
 90
       50
102
RTVSPost2010PropOp48
 70
     1
102
RTVSPost2010Prop49
280
     0
102
RTVSPost2010PropOp49
 70
     1
102
RTVSPost2010Prop50
 90
       50
102
RTVSPost2010PropOp50
 70
     1
102
RTVSPost2010Prop51ColorIndex
 90
      256
102
RTVSPost2010Prop51ColorRGB
 90
-16777216
102
RTVSPost2010PropOp51
 70
     0
102
RTVSPost2010Prop52
140
1.0
102
RTVSPost2010PropOp52
 70
     0
102
RTVSPost2010Prop53
 90
        2
102
RTVSPost2010PropOp53
 70
     1
102
RTVSPost2010Prop54
  1
strokes_ogs.tif
102
RTVSPost2010PropOp54
 70
     1
102
RTVSPost2010Prop55
280
     0
102
RTVSPost2010PropOp55
 70
     1
102
RTVSPost2010Prop56
140
1.0
102
RTVSPost2010PropOp56
 70
     1
102
RTVSPost2010Prop57
140
1.0
102
RTVSPost2010PropOp57
 70
     1
102
RTVSPropertyOp0
 70
     1
102
RTVSPropertyOp1
 70
     1
102
RTVSPropertyOp2
 70
     1
102
RTVSPropertyOp3
 70
     1
102
RTVSPropertyOp4
 70
     1
102
RTVSPropertyOp5
 70
     1
102
RTVSPropertyOp6
 70
     1
102
RTVSPropertyOp7
 70
     1
102
RTVSPropertyOp8
 70
     1
102
RTVSPropertyOp9
 70
     1
102
RTVSPropertyOp10
 70
     1
102
RTVSPropertyOp11
 70
     1
102
RTVSPropertyOp12
 70
     1
102
RTVSPropertyOp13
 70
     1
102
RTVSPropertyOp14
 70
     1
102
RTVSPropertyOp15
 70
     1
102
RTVSPropertyOp16
 70
     1
102
RTVSPropertyOp17
 70
     1
102
RTVSPropertyOp18
 70
     1
102
RTVSPropertyOp19
 70
     1
102
RTVSPropertyOp20
 70
     1
102
RTVSPropertyOp21
 70
     1
102
RTVSPropertyOp22
 70
     1
102
RTVSPropertyOp23
 70
     1
102
RTVSPropertyOp24
 70
     1
102
RTVSPropertyOp25
 70
     1
102
RTVSPropertyOp26
 70
     1
102
RTVSPropertyOp27
 70
     1
102
RTVSPropertyOp28
 70
     1
102
RTVSPropertyOp29
 70
     1
102
RTVSPropertyOp30
 70
     1
102
RTVSPropertyOp31
 70
     1
102
RTVSPropertyOp32
 70
     1
102
RTVSPropertyOp33
 70
     1
102
RTVSPropertyOp34
 70
     1
102
RTVSPropertyOp35
 70
     1
102
RTVSPropertyOp36
 70
     1
102
RTVSPropertyOp37
 70
     1
102
RTVSPropertyOp38
 70
     1
102
RTVSPropertyOp39
 70
     1
102
RTVSPropertyOp40
 70
     1
102
RTVSPropertyOp41
 70
     1
102
RTVSPropertyOp42
 70
     1
102
RTVSPropertyOp43
 70
     1
102
RTVSPropertyOp44
 70
     1
102
RTVSPropertyOp45
 70
     1
102
RTVSPropertyOp46
 70
     1
102
RTVSPropertyOp47
 70
     1
102
RTVSPropertyOp48
 70
     1
102
RTVSPropertyOp49
 70
     1
102
RTVSPropertyOp50
 70
     1
102
RTVSPropertyOp51
 70
     0
102
RTVSPropertyOp52
 70
     0
102
RTVSPropertyOp53
 70
     1
102
RTVSPropertyOp54
 70
     1
102
RTVSPropertyOp55
 70
     1
102
RTVSPropertyOp56
 70
     1
102
RTVSPropertyOp57
 70
     1
102
RTVSPropertyOp58
 70
     1
102
RTVSPropertyOp59
 70
     1
102
RTVSPropertyOp60
 70
     1
102
RTVSPropertyOp61
 70
     1
102
RTVSPropertyOp62
 70
     1
  0
XRECORD
  5
6EF
102
{ACAD_REACTORS
330
6EE
102
}
330
6EE
100
AcDbXrecord
280
     1
102
RTVSPost2010Prop28
280
     0
102
RTVSPost2010PropOp28
 70
     1
102
RTVSPost2010Prop29
280
     1
102
RTVSPost2010PropOp29
 70
     1
102
RTVSPost2010Prop30
280
     1
102
RTVSPost2010PropOp30
 70
     1
102
RTVSPost2010Prop31
280
     0
102
RTVSPost2010PropOp31
 70
     1
102
RTVSPost2010Prop32
280
     0
102
RTVSPost2010PropOp32
 70
     1
102
RTVSPost2010Prop33
280
     0
102
RTVSPost2010PropOp33
 70
     1
102
RTVSPost2010Prop34
280
     0
102
RTVSPost2010PropOp34
 70
     1
102
RTVSPost2010Prop35
280
     0
102
RTVSPost2010PropOp35
 70
     1
102
RTVSPost2010Prop36
280
     0
102
RTVSPost2010PropOp36
 70
     1
102
RTVSPost2010Prop37
 90
       50
102
RTVSPost2010PropOp37
 70
     1
102
RTVSPost2010Prop38
140
0.0
102
RTVSPost2010PropOp38
 70
     1
102
RTVSPost2010Prop39
140
1.0
102
RTVSPost2010PropOp39
 70
     1
102
RTVSPost2010Prop40
 90
        0
102
RTVSPost2010PropOp40
 70
     1
102
RTVSPost2010Prop41ColorIndex
 90
       18
102
RTVSPost2010Prop41ColorRGB
 90
        0
102
RTVSPost2010PropOp41
 70
     1
102
RTVSPost2010Prop42
 90
       50
102
RTVSPost2010PropOp42
 70
     1
102
RTVSPost2010Prop43
 90
        3
102
RTVSPost2010PropOp43
 70
     1
102
RTVSPost2010Prop44ColorIndex
 90
        5
102
RTVSPost2010Prop44ColorRGB
 90
      255
102
RTVSPost2010PropOp44
 70
     1
102
RTVSPost2010Prop45
280
     0
102
RTVSPost2010PropOp45
 70
     1
102
RTVSPost2010Prop46
 90
       50
102
RTVSPost2010PropOp46
 70
     1
102
RTVSPost2010Prop47
 90
       50
102
RTVSPost2010PropOp47
 70
     1
102
RTVSPost2010Prop48
 90
       50
102
RTVSPost2010PropOp48
 70
     1
102
RTVSPost2010Prop49
280
     0
102
RTVSPost2010PropOp49
 70
     1
102
RTVSPost2010Prop50
 90
       50
102
RTVSPost2010PropOp50
 70
     1
102
RTVSPost2010Prop51ColorIndex
 90
      256
102
RTVSPost2010Prop51ColorRGB
 90
-16777216
102
RTVSPost2010PropOp51
 70
     0
102
RTVSPost2010Prop52
140
1.0
102
RTVSPost2010PropOp52
 70
     0
102
RTVSPost2010Prop53
 90
        2
102
RTVSPost2010PropOp53
 70
     1
102
RTVSPost2010Prop54
  1
strokes_ogs.tif
102
RTVSPost2010PropOp54
 70
     1
102
RTVSPost2010Prop55
280
     0
102
RTVSPost2010PropOp55
 70
     1
102
RTVSPost2010Prop56
140
1.0
102
RTVSPost2010PropOp56
 70
     1
102
RTVSPost2010Prop57
140
1.0
102
RTVSPost2010PropOp57
 70
     1
102
RTVSPropertyOp0
 70
     1
102
RTVSPropertyOp1
 70
     1
102
RTVSPropertyOp2
 70
     1
102
RTVSPropertyOp3
 70
     1
102
RTVSPropertyOp4
 70
     1
102
RTVSPropertyOp5
 70
     1
102
RTVSPropertyOp6
 70
     1
102
RTVSPropertyOp7
 70
     1
102
RTVSPropertyOp8
 70
     1
102
RTVSPropertyOp9
 70
     1
102
RTVSPropertyOp10
 70
     1
102
RTVSPropertyOp11
 70
     1
102
RTVSPropertyOp12
 70
     1
102
RTVSPropertyOp13
 70
     1
102
RTVSPropertyOp14
 70
     1
102
RTVSPropertyOp15
 70
     1
102
RTVSPropertyOp16
 70
     1
102
RTVSPropertyOp17
 70
     1
102
RTVSPropertyOp18
 70
     1
102
RTVSPropertyOp19
 70
     1
102
RTVSPropertyOp20
 70
     1
102
RTVSPropertyOp21
 70
     1
102
RTVSPropertyOp22
 70
     1
102
RTVSPropertyOp23
 70
     1
102
RTVSPropertyOp24
 70
     1
102
RTVSPropertyOp25
 70
     1
102
RTVSPropertyOp26
 70
     1
102
RTVSPropertyOp27
 70
     1
102
RTVSPropertyOp28
 70
     1
102
RTVSPropertyOp29
 70
     1
102
RTVSPropertyOp30
 70
     1
102
RTVSPropertyOp31
 70
     1
102
RTVSPropertyOp32
 70
     1
102
RTVSPropertyOp33
 70
     1
102
RTVSPropertyOp34
 70
     1
102
RTVSPropertyOp35
 70
     1
102
RTVSPropertyOp36
 70
     1
102
RTVSPropertyOp37
 70
     1
102
RTVSPropertyOp38
 70
     1
102
RTVSPropertyOp39
 70
     1
102
RTVSPropertyOp40
 70
     1
102
RTVSPropertyOp41
 70
     1
102
RTVSPropertyOp42
 70
     1
102
RTVSPropertyOp43
 70
     1
102
RTVSPropertyOp44
 70
     1
102
RTVSPropertyOp45
 70
     1
102
RTVSPropertyOp46
 70
     1
102
RTVSPropertyOp47
 70
     1
102
RTVSPropertyOp48
 70
     1
102
RTVSPropertyOp49
 70
     1
102
RTVSPropertyOp50
 70
     1
102
RTVSPropertyOp51
 70
     0
102
RTVSPropertyOp52
 70
     0
102
RTVSPropertyOp53
 70
     1
102
RTVSPropertyOp54
 70
     1
102
RTVSPropertyOp55
 70
     1
102
RTVSPropertyOp56
 70
     1
102
RTVSPropertyOp57
 70
     1
102
RTVSPropertyOp58
 70
     1
102
RTVSPropertyOp59
 70
     1
102
RTVSPropertyOp60
 70
     1
102
RTVSPropertyOp61
 70
     1
102
RTVSPropertyOp62
 70
     1
  0
XRECORD
  5
6F1
102
{ACAD_REACTORS
330
6F0
102
}
330
6F0
100
AcDbXrecord
280
     1
102
RTVSPost2010Prop28
280
     0
102
RTVSPost2010PropOp28
 70
     1
102
RTVSPost2010Prop29
280
     1
102
RTVSPost2010PropOp29
 70
     1
102
RTVSPost2010Prop30
280
     1
102
RTVSPost2010PropOp30
 70
     1
102
RTVSPost2010Prop31
280
     0
102
RTVSPost2010PropOp31
 70
     1
102
RTVSPost2010Prop32
280
     0
102
RTVSPost2010PropOp32
 70
     1
102
RTVSPost2010Prop33
280
     0
102
RTVSPost2010PropOp33
 70
     1
102
RTVSPost2010Prop34
280
     0
102
RTVSPost2010PropOp34
 70
     1
102
RTVSPost2010Prop35
280
     0
102
RTVSPost2010PropOp35
 70
     1
102
RTVSPost2010Prop36
280
     0
102
RTVSPost2010PropOp36
 70
     1
102
RTVSPost2010Prop37
 90
       50
102
RTVSPost2010PropOp37
 70
     1
102
RTVSPost2010Prop38
140
0.0
102
RTVSPost2010PropOp38
 70
     1
102
RTVSPost2010Prop39
140
1.0
102
RTVSPost2010PropOp39
 70
     1
102
RTVSPost2010Prop40
 90
        0
102
RTVSPost2010PropOp40
 70
     1
102
RTVSPost2010Prop41ColorIndex
 90
       18
102
RTVSPost2010Prop41ColorRGB
 90
        0
102
RTVSPost2010PropOp41
 70
     1
102
RTVSPost2010Prop42
 90
       50
102
RTVSPost2010PropOp42
 70
     1
102
RTVSPost2010Prop43
 90
        3
102
RTVSPost2010PropOp43
 70
     1
102
RTVSPost2010Prop44ColorIndex
 90
        5
102
RTVSPost2010Prop44ColorRGB
 90
      255
102
RTVSPost2010PropOp44
 70
     1
102
RTVSPost2010Prop45
280
     0
102
RTVSPost2010PropOp45
 70
     1
102
RTVSPost2010Prop46
 90
       50
102
RTVSPost2010PropOp46
 70
     1
102
RTVSPost2010Prop47
 90
       50
102
RTVSPost2010PropOp47
 70
     1
102
RTVSPost2010Prop48
 90
       50
102
RTVSPost2010PropOp48
 70
     1
102
RTVSPost2010Prop49
280
     0
102
RTVSPost2010PropOp49
 70
     1
102
RTVSPost2010Prop50
 90
       50
102
RTVSPost2010PropOp50
 70
     1
102
RTVSPost2010Prop51ColorIndex
 90
      256
102
RTVSPost2010Prop51ColorRGB
 90
-16777216
102
RTVSPost2010PropOp51
 70
     0
102
RTVSPost2010Prop52
140
1.0
102
RTVSPost2010PropOp52
 70
     0
102
RTVSPost2010Prop53
 90
        2
102
RTVSPost2010PropOp53
 70
     1
102
RTVSPost2010Prop54
  1
strokes_ogs.tif
102
RTVSPost2010PropOp54
 70
     1
102
RTVSPost2010Prop55
280
     0
102
RTVSPost2010PropOp55
 70
     1
102
RTVSPost2010Prop56
140
1.0
102
RTVSPost2010PropOp56
 70
     1
102
RTVSPost2010Prop57
140
1.0
102
RTVSPost2010PropOp57
 70
     1
102
RTVSPropertyOp0
 70
     1
102
RTVSPropertyOp1
 70
     1
102
RTVSPropertyOp2
 70
     1
102
RTVSPropertyOp3
 70
     1
102
RTVSPropertyOp4
 70
     1
102
RTVSPropertyOp5
 70
     1
102
RTVSPropertyOp6
 70
     1
102
RTVSPropertyOp7
 70
     1
102
RTVSPropertyOp8
 70
     1
102
RTVSPropertyOp9
 70
     1
102
RTVSPropertyOp10
 70
     1
102
RTVSPropertyOp11
 70
     1
102
RTVSPropertyOp12
 70
     1
102
RTVSPropertyOp13
 70
     1
102
RTVSPropertyOp14
 70
     1
102
RTVSPropertyOp15
 70
     1
102
RTVSPropertyOp16
 70
     1
102
RTVSPropertyOp17
 70
     1
102
RTVSPropertyOp18
 70
     1
102
RTVSPropertyOp19
 70
     1
102
RTVSPropertyOp20
 70
     1
102
RTVSPropertyOp21
 70
     1
102
RTVSPropertyOp22
 70
     1
102
RTVSPropertyOp23
 70
     1
102
RTVSPropertyOp24
 70
     1
102
RTVSPropertyOp25
 70
     1
102
RTVSPropertyOp26
 70
     1
102
RTVSPropertyOp27
 70
     1
102
RTVSPropertyOp28
 70
     1
102
RTVSPropertyOp29
 70
     1
102
RTVSPropertyOp30
 70
     1
102
RTVSPropertyOp31
 70
     1
102
RTVSPropertyOp32
 70
     1
102
RTVSPropertyOp33
 70
     1
102
RTVSPropertyOp34
 70
     1
102
RTVSPropertyOp35
 70
     1
102
RTVSPropertyOp36
 70
     1
102
RTVSPropertyOp37
 70
     1
102
RTVSPropertyOp38
 70
     1
102
RTVSPropertyOp39
 70
     1
102
RTVSPropertyOp40
 70
     1
102
RTVSPropertyOp41
 70
     1
102
RTVSPropertyOp42
 70
     1
102
RTVSPropertyOp43
 70
     1
102
RTVSPropertyOp44
 70
     1
102
RTVSPropertyOp45
 70
     1
102
RTVSPropertyOp46
 70
     1
102
RTVSPropertyOp47
 70
     1
102
RTVSPropertyOp48
 70
     1
102
RTVSPropertyOp49
 70
     1
102
RTVSPropertyOp50
 70
     1
102
RTVSPropertyOp51
 70
     0
102
RTVSPropertyOp52
 70
     0
102
RTVSPropertyOp53
 70
     1
102
RTVSPropertyOp54
 70
     1
102
RTVSPropertyOp55
 70
     1
102
RTVSPropertyOp56
 70
     1
102
RTVSPropertyOp57
 70
     1
102
RTVSPropertyOp58
 70
     1
102
RTVSPropertyOp59
 70
     1
102
RTVSPropertyOp60
 70
     1
102
RTVSPropertyOp61
 70
     1
102
RTVSPropertyOp62
 70
     1
  0
XRECORD
  5
6F9
102
{ACAD_REACTORS
330
6F8
102
}
330
6F8
100
AcDbXrecord
280
     1
102
RTVSPost2010Prop28
280
     0
102
RTVSPost2010PropOp28
 70
     1
102
RTVSPost2010Prop29
280
     1
102
RTVSPost2010PropOp29
 70
     1
102
RTVSPost2010Prop30
280
     1
102
RTVSPost2010PropOp30
 70
     1
102
RTVSPost2010Prop31
280
     0
102
RTVSPost2010PropOp31
 70
     1
102
RTVSPost2010Prop32
280
     0
102
RTVSPost2010PropOp32
 70
     1
102
RTVSPost2010Prop33
280
     0
102
RTVSPost2010PropOp33
 70
     1
102
RTVSPost2010Prop34
280
     0
102
RTVSPost2010PropOp34
 70
     1
102
RTVSPost2010Prop35
280
     0
102
RTVSPost2010PropOp35
 70
     1
102
RTVSPost2010Prop36
280
     0
102
RTVSPost2010PropOp36
 70
     1
102
RTVSPost2010Prop37
 90
       50
102
RTVSPost2010PropOp37
 70
     1
102
RTVSPost2010Prop38
140
0.0
102
RTVSPost2010PropOp38
 70
     1
102
RTVSPost2010Prop39
140
1.0
102
RTVSPost2010PropOp39
 70
     1
102
RTVSPost2010Prop40
 90
        0
102
RTVSPost2010PropOp40
 70
     1
102
RTVSPost2010Prop41ColorIndex
 90
       18
102
RTVSPost2010Prop41ColorRGB
 90
        0
102
RTVSPost2010PropOp41
 70
     1
102
RTVSPost2010Prop42
 90
       50
102
RTVSPost2010PropOp42
 70
     1
102
RTVSPost2010Prop43
 90
        3
102
RTVSPost2010PropOp43
 70
     1
102
RTVSPost2010Prop44ColorIndex
 90
        5
102
RTVSPost2010Prop44ColorRGB
 90
      255
102
RTVSPost2010PropOp44
 70
     1
102
RTVSPost2010Prop45
280
     0
102
RTVSPost2010PropOp45
 70
     1
102
RTVSPost2010Prop46
 90
       50
102
RTVSPost2010PropOp46
 70
     1
102
RTVSPost2010Prop47
 90
       50
102
RTVSPost2010PropOp47
 70
     1
102
RTVSPost2010Prop48
 90
       50
102
RTVSPost2010PropOp48
 70
     1
102
RTVSPost2010Prop49
280
     0
102
RTVSPost2010PropOp49
 70
     1
102
RTVSPost2010Prop50
 90
       50
102
RTVSPost2010PropOp50
 70
     1
102
RTVSPost2010Prop51ColorIndex
 90
      256
102
RTVSPost2010Prop51ColorRGB
 90
-16777216
102
RTVSPost2010PropOp51
 70
     0
102
RTVSPost2010Prop52
140
1.0
102
RTVSPost2010PropOp52
 70
     0
102
RTVSPost2010Prop53
 90
        2
102
RTVSPost2010PropOp53
 70
     1
102
RTVSPost2010Prop54
  1
strokes_ogs.tif
102
RTVSPost2010PropOp54
 70
     1
102
RTVSPost2010Prop55
280
     0
102
RTVSPost2010PropOp55
 70
     1
102
RTVSPost2010Prop56
140
1.0
102
RTVSPost2010PropOp56
 70
     1
102
RTVSPost2010Prop57
140
1.0
102
RTVSPost2010PropOp57
 70
     1
102
RTVSPropertyOp0
 70
     1
102
RTVSPropertyOp1
 70
     1
102
RTVSPropertyOp2
 70
     1
102
RTVSPropertyOp3
 70
     1
102
RTVSPropertyOp4
 70
     1
102
RTVSPropertyOp5
 70
     1
102
RTVSPropertyOp6
 70
     1
102
RTVSPropertyOp7
 70
     1
102
RTVSPropertyOp8
 70
     1
102
RTVSPropertyOp9
 70
     1
102
RTVSPropertyOp10
 70
     1
102
RTVSPropertyOp11
 70
     1
102
RTVSPropertyOp12
 70
     1
102
RTVSPropertyOp13
 70
     1
102
RTVSPropertyOp14
 70
     1
102
RTVSPropertyOp15
 70
     1
102
RTVSPropertyOp16
 70
     1
102
RTVSPropertyOp17
 70
     1
102
RTVSPropertyOp18
 70
     1
102
RTVSPropertyOp19
 70
     1
102
RTVSPropertyOp20
 70
     1
102
RTVSPropertyOp21
 70
     1
102
RTVSPropertyOp22
 70
     1
102
RTVSPropertyOp23
 70
     1
102
RTVSPropertyOp24
 70
     1
102
RTVSPropertyOp25
 70
     1
102
RTVSPropertyOp26
 70
     1
102
RTVSPropertyOp27
 70
     1
102
RTVSPropertyOp28
 70
     1
102
RTVSPropertyOp29
 70
     1
102
RTVSPropertyOp30
 70
     1
102
RTVSPropertyOp31
 70
     1
102
RTVSPropertyOp32
 70
     1
102
RTVSPropertyOp33
 70
     1
102
RTVSPropertyOp34
 70
     1
102
RTVSPropertyOp35
 70
     1
102
RTVSPropertyOp36
 70
     1
102
RTVSPropertyOp37
 70
     1
102
RTVSPropertyOp38
 70
     1
102
RTVSPropertyOp39
 70
     1
102
RTVSPropertyOp40
 70
     1
102
RTVSPropertyOp41
 70
     1
102
RTVSPropertyOp42
 70
     1
102
RTVSPropertyOp43
 70
     1
102
RTVSPropertyOp44
 70
     1
102
RTVSPropertyOp45
 70
     1
102
RTVSPropertyOp46
 70
     1
102
RTVSPropertyOp47
 70
     1
102
RTVSPropertyOp48
 70
     1
102
RTVSPropertyOp49
 70
     1
102
RTVSPropertyOp50
 70
     1
102
RTVSPropertyOp51
 70
     0
102
RTVSPropertyOp52
 70
     0
102
RTVSPropertyOp53
 70
     1
102
RTVSPropertyOp54
 70
     1
102
RTVSPropertyOp55
 70
     1
102
RTVSPropertyOp56
 70
     1
102
RTVSPropertyOp57
 70
     1
102
RTVSPropertyOp58
 70
     1
102
RTVSPropertyOp59
 70
     1
102
RTVSPropertyOp60
 70
     1
102
RTVSPropertyOp61
 70
     1
102
RTVSPropertyOp62
 70
     1
  0
XRECORD
  5
715
102
{ACAD_REACTORS
330
714
102
}
330
714
100
AcDbXrecord
280
     1
102
RTVSPost2010Prop28
280
     0
102
RTVSPost2010PropOp28
 70
     1
102
RTVSPost2010Prop29
280
     1
102
RTVSPost2010PropOp29
 70
     1
102
RTVSPost2010Prop30
280
     1
102
RTVSPost2010PropOp30
 70
     1
102
RTVSPost2010Prop31
280
     0
102
RTVSPost2010PropOp31
 70
     1
102
RTVSPost2010Prop32
280
     0
102
RTVSPost2010PropOp32
 70
     1
102
RTVSPost2010Prop33
280
     0
102
RTVSPost2010PropOp33
 70
     1
102
RTVSPost2010Prop34
280
     0
102
RTVSPost2010PropOp34
 70
     1
102
RTVSPost2010Prop35
280
     0
102
RTVSPost2010PropOp35
 70
     1
102
RTVSPost2010Prop36
280
     0
102
RTVSPost2010PropOp36
 70
     1
102
RTVSPost2010Prop37
 90
       50
102
RTVSPost2010PropOp37
 70
     0
102
RTVSPost2010Prop38
140
0.0
102
RTVSPost2010PropOp38
 70
     0
102
RTVSPost2010Prop39
140
1.0
102
RTVSPost2010PropOp39
 70
     0
102
RTVSPost2010Prop40
 90
        0
102
RTVSPost2010PropOp40
 70
     0
102
RTVSPost2010Prop41ColorIndex
 90
       18
102
RTVSPost2010Prop41ColorRGB
 90
        0
102
RTVSPost2010PropOp41
 70
     0
102
RTVSPost2010Prop42
 90
       50
102
RTVSPost2010PropOp42
 70
     0
102
RTVSPost2010Prop43
 90
        3
102
RTVSPost2010PropOp43
 70
     0
102
RTVSPost2010Prop44ColorIndex
 90
        5
102
RTVSPost2010Prop44ColorRGB
 90
      255
102
RTVSPost2010PropOp44
 70
     0
102
RTVSPost2010Prop45
280
     0
102
RTVSPost2010PropOp45
 70
     1
102
RTVSPost2010Prop46
 90
       50
102
RTVSPost2010PropOp46
 70
     0
102
RTVSPost2010Prop47
 90
       50
102
RTVSPost2010PropOp47
 70
     0
102
RTVSPost2010Prop48
 90
       50
102
RTVSPost2010PropOp48
 70
     0
102
RTVSPost2010Prop49
280
     0
102
RTVSPost2010PropOp49
 70
     1
102
RTVSPost2010Prop50
 90
       50
102
RTVSPost2010PropOp50
 70
     0
102
RTVSPost2010Prop51ColorIndex
 90
      256
102
RTVSPost2010Prop51ColorRGB
 90
-16777216
102
RTVSPost2010PropOp51
 70
     0
102
RTVSPost2010Prop52
140
1.0
102
RTVSPost2010PropOp52
 70
     0
102
RTVSPost2010Prop53
 90
        2
102
RTVSPost2010PropOp53
 70
     0
102
RTVSPost2010Prop54
  1
strokes_ogs.tif
102
RTVSPost2010PropOp54
 70
     0
102
RTVSPost2010Prop55
280
     0
102
RTVSPost2010PropOp55
 70
     1
102
RTVSPost2010Prop56
140
1.0
102
RTVSPost2010PropOp56
 70
     0
102
RTVSPost2010Prop57
140
1.0
102
RTVSPost2010PropOp57
 70
     0
102
RTVSPropertyOp0
 70
     0
102
RTVSPropertyOp1
 70
     0
102
RTVSPropertyOp2
 70
     0
102
RTVSPropertyOp3
 70
     0
102
RTVSPropertyOp4
 70
     0
102
RTVSPropertyOp5
 70
     0
102
RTVSPropertyOp6
 70
     0
102
RTVSPropertyOp7
 70
     0
102
RTVSPropertyOp8
 70
     0
102
RTVSPropertyOp9
 70
     0
102
RTVSPropertyOp10
 70
     0
102
RTVSPropertyOp11
 70
     0
102
RTVSPropertyOp12
 70
     0
102
RTVSPropertyOp13
 70
     0
102
RTVSPropertyOp14
 70
     2
102
RTVSPropertyOp15
 70
     0
102
RTVSPropertyOp16
 70
     0
102
RTVSPropertyOp17
 70
     0
102
RTVSPropertyOp18
 70
     0
102
RTVSPropertyOp19
 70
     0
102
RTVSPropertyOp20
 70
     0
102
RTVSPropertyOp21
 70
     0
102
RTVSPropertyOp22
 70
     0
102
RTVSPropertyOp23
 70
     0
102
RTVSPropertyOp24
 70
     0
102
RTVSPropertyOp25
 70
     0
102
RTVSPropertyOp26
 70
     0
102
RTVSPropertyOp27
 70
     0
102
RTVSPropertyOp28
 70
     1
102
RTVSPropertyOp29
 70
     1
102
RTVSPropertyOp30
 70
     1
102
RTVSPropertyOp31
 70
     1
102
RTVSPropertyOp32
 70
     1
102
RTVSPropertyOp33
 70
     1
102
RTVSPropertyOp34
 70
     1
102
RTVSPropertyOp35
 70
     1
102
RTVSPropertyOp36
 70
     1
102
RTVSPropertyOp37
 70
     0
102
RTVSPropertyOp38
 70
     0
102
RTVSPropertyOp39
 70
     0
102
RTVSPropertyOp40
 70
     0
102
RTVSPropertyOp41
 70
     0
102
RTVSPropertyOp42
 70
     0
102
RTVSPropertyOp43
 70
     0
102
RTVSPropertyOp44
 70
     0
102
RTVSPropertyOp45
 70
     1
102
RTVSPropertyOp46
 70
     0
102
RTVSPropertyOp47
 70
     0
102
RTVSPropertyOp48
 70
     0
102
RTVSPropertyOp49
 70
     1
102
RTVSPropertyOp50
 70
     0
102
RTVSPropertyOp51
 70
     0
102
RTVSPropertyOp52
 70
     0
102
RTVSPropertyOp53
 70
     0
102
RTVSPropertyOp54
 70
     0
102
RTVSPropertyOp55
 70
     1
102
RTVSPropertyOp56
 70
     0
102
RTVSPropertyOp57
 70
     0
102
RTVSPropertyOp58
 70
     0
102
RTVSPropertyOp59
 70
     0
102
RTVSPropertyOp60
 70
     0
102
RTVSPropertyOp61
 70
     0
102
RTVSPropertyOp62
 70
     0
  0
XRECORD
  5
705
102
{ACAD_REACTORS
330
704
102
}
330
704
100
AcDbXrecord
280
     1
102
RTVSPost2010Prop28
280
     0
102
RTVSPost2010PropOp28
 70
     1
102
RTVSPost2010Prop29
280
     1
102
RTVSPost2010PropOp29
 70
     1
102
RTVSPost2010Prop30
280
     1
102
RTVSPost2010PropOp30
 70
     1
102
RTVSPost2010Prop31
280
     0
102
RTVSPost2010PropOp31
 70
     1
102
RTVSPost2010Prop32
280
     0
102
RTVSPost2010PropOp32
 70
     1
102
RTVSPost2010Prop33
280
     0
102
RTVSPost2010PropOp33
 70
     1
102
RTVSPost2010Prop34
280
     0
102
RTVSPost2010PropOp34
 70
     1
102
RTVSPost2010Prop35
280
     0
102
RTVSPost2010PropOp35
 70
     1
102
RTVSPost2010Prop36
280
     0
102
RTVSPost2010PropOp36
 70
     1
102
RTVSPost2010Prop37
 90
       50
102
RTVSPost2010PropOp37
 70
     1
102
RTVSPost2010Prop38
140
0.0
102
RTVSPost2010PropOp38
 70
     1
102
RTVSPost2010Prop39
140
1.0
102
RTVSPost2010PropOp39
 70
     1
102
RTVSPost2010Prop40
 90
        0
102
RTVSPost2010PropOp40
 70
     1
102
RTVSPost2010Prop41ColorIndex
 90
       18
102
RTVSPost2010Prop41ColorRGB
 90
        0
102
RTVSPost2010PropOp41
 70
     1
102
RTVSPost2010Prop42
 90
       50
102
RTVSPost2010PropOp42
 70
     1
102
RTVSPost2010Prop43
 90
        3
102
RTVSPost2010PropOp43
 70
     1
102
RTVSPost2010Prop44ColorIndex
 90
        5
102
RTVSPost2010Prop44ColorRGB
 90
      255
102
RTVSPost2010PropOp44
 70
     1
102
RTVSPost2010Prop45
280
     0
102
RTVSPost2010PropOp45
 70
     1
102
RTVSPost2010Prop46
 90
       50
102
RTVSPost2010PropOp46
 70
     1
102
RTVSPost2010Prop47
 90
       50
102
RTVSPost2010PropOp47
 70
     1
102
RTVSPost2010Prop48
 90
       50
102
RTVSPost2010PropOp48
 70
     1
102
RTVSPost2010Prop49
280
     0
102
RTVSPost2010PropOp49
 70
     1
102
RTVSPost2010Prop50
 90
       50
102
RTVSPost2010PropOp50
 70
     1
102
RTVSPost2010Prop51ColorIndex
 90
      256
102
RTVSPost2010Prop51ColorRGB
 90
-16777216
102
RTVSPost2010PropOp51
 70
     0
102
RTVSPost2010Prop52
140
1.0
102
RTVSPost2010PropOp52
 70
     0
102
RTVSPost2010Prop53
 90
        2
102
RTVSPost2010PropOp53
 70
     1
102
RTVSPost2010Prop54
  1
strokes_ogs.tif
102
RTVSPost2010PropOp54
 70
     1
102
RTVSPost2010Prop55
280
     0
102
RTVSPost2010PropOp55
 70
     1
102
RTVSPost2010Prop56
140
1.0
102
RTVSPost2010PropOp56
 70
     1
102
RTVSPost2010Prop57
140
1.0
102
RTVSPost2010PropOp57
 70
     1
102
RTVSPropertyOp0
 70
     1
102
RTVSPropertyOp1
 70
     1
102
RTVSPropertyOp2
 70
     1
102
RTVSPropertyOp3
 70
     1
102
RTVSPropertyOp4
 70
     1
102
RTVSPropertyOp5
 70
     1
102
RTVSPropertyOp6
 70
     1
102
RTVSPropertyOp7
 70
     1
102
RTVSPropertyOp8
 70
     1
102
RTVSPropertyOp9
 70
     1
102
RTVSPropertyOp10
 70
     1
102
RTVSPropertyOp11
 70
     1
102
RTVSPropertyOp12
 70
     1
102
RTVSPropertyOp13
 70
     1
102
RTVSPropertyOp14
 70
     1
102
RTVSPropertyOp15
 70
     1
102
RTVSPropertyOp16
 70
     1
102
RTVSPropertyOp17
 70
     1
102
RTVSPropertyOp18
 70
     1
102
RTVSPropertyOp19
 70
     1
102
RTVSPropertyOp20
 70
     1
102
RTVSPropertyOp21
 70
     1
102
RTVSPropertyOp22
 70
     1
102
RTVSPropertyOp23
 70
     1
102
RTVSPropertyOp24
 70
     1
102
RTVSPropertyOp25
 70
     1
102
RTVSPropertyOp26
 70
     1
102
RTVSPropertyOp27
 70
     1
102
RTVSPropertyOp28
 70
     1
102
RTVSPropertyOp29
 70
     1
102
RTVSPropertyOp30
 70
     1
102
RTVSPropertyOp31
 70
     1
102
RTVSPropertyOp32
 70
     1
102
RTVSPropertyOp33
 70
     1
102
RTVSPropertyOp34
 70
     1
102
RTVSPropertyOp35
 70
     1
102
RTVSPropertyOp36
 70
     1
102
RTVSPropertyOp37
 70
     1
102
RTVSPropertyOp38
 70
     1
102
RTVSPropertyOp39
 70
     1
102
RTVSPropertyOp40
 70
     1
102
RTVSPropertyOp41
 70
     1
102
RTVSPropertyOp42
 70
     1
102
RTVSPropertyOp43
 70
     1
102
RTVSPropertyOp44
 70
     1
102
RTVSPropertyOp45
 70
     1
102
RTVSPropertyOp46
 70
     1
102
RTVSPropertyOp47
 70
     1
102
RTVSPropertyOp48
 70
     1
102
RTVSPropertyOp49
 70
     1
102
RTVSPropertyOp50
 70
     1
102
RTVSPropertyOp51
 70
     0
102
RTVSPropertyOp52
 70
     0
102
RTVSPropertyOp53
 70
     1
102
RTVSPropertyOp54
 70
     1
102
RTVSPropertyOp55
 70
     1
102
RTVSPropertyOp56
 70
     1
102
RTVSPropertyOp57
 70
     1
102
RTVSPropertyOp58
 70
     1
102
RTVSPropertyOp59
 70
     1
102
RTVSPropertyOp60
 70
     1
102
RTVSPropertyOp61
 70
     1
102
RTVSPropertyOp62
 70
     1
  0
XRECORD
  5
717
102
{ACAD_REACTORS
330
716
102
}
330
716
100
AcDbXrecord
280
     1
102
RTVSPost2010Prop28
280
     0
102
RTVSPost2010PropOp28
 70
     1
102
RTVSPost2010Prop29
280
     1
102
RTVSPost2010PropOp29
 70
     1
102
RTVSPost2010Prop30
280
     1
102
RTVSPost2010PropOp30
 70
     1
102
RTVSPost2010Prop31
280
     0
102
RTVSPost2010PropOp31
 70
     1
102
RTVSPost2010Prop32
280
     0
102
RTVSPost2010PropOp32
 70
     1
102
RTVSPost2010Prop33
280
     0
102
RTVSPost2010PropOp33
 70
     1
102
RTVSPost2010Prop34
280
     0
102
RTVSPost2010PropOp34
 70
     1
102
RTVSPost2010Prop35
280
     0
102
RTVSPost2010PropOp35
 70
     1
102
RTVSPost2010Prop36
280
     0
102
RTVSPost2010PropOp36
 70
     1
102
RTVSPost2010Prop37
 90
       50
102
RTVSPost2010PropOp37
 70
     0
102
RTVSPost2010Prop38
140
0.0
102
RTVSPost2010PropOp38
 70
     0
102
RTVSPost2010Prop39
140
1.0
102
RTVSPost2010PropOp39
 70
     0
102
RTVSPost2010Prop40
 90
        0
102
RTVSPost2010PropOp40
 70
     0
102
RTVSPost2010Prop41ColorIndex
 90
       18
102
RTVSPost2010Prop41ColorRGB
 90
        0
102
RTVSPost2010PropOp41
 70
     0
102
RTVSPost2010Prop42
 90
       50
102
RTVSPost2010PropOp42
 70
     0
102
RTVSPost2010Prop43
 90
        3
102
RTVSPost2010PropOp43
 70
     0
102
RTVSPost2010Prop44ColorIndex
 90
        5
102
RTVSPost2010Prop44ColorRGB
 90
      255
102
RTVSPost2010PropOp44
 70
     0
102
RTVSPost2010Prop45
280
     0
102
RTVSPost2010PropOp45
 70
     1
102
RTVSPost2010Prop46
 90
       50
102
RTVSPost2010PropOp46
 70
     0
102
RTVSPost2010Prop47
 90
       50
102
RTVSPost2010PropOp47
 70
     0
102
RTVSPost2010Prop48
 90
       50
102
RTVSPost2010PropOp48
 70
     0
102
RTVSPost2010Prop49
280
     0
102
RTVSPost2010PropOp49
 70
     1
102
RTVSPost2010Prop50
 90
       50
102
RTVSPost2010PropOp50
 70
     0
102
RTVSPost2010Prop51ColorIndex
 90
      256
102
RTVSPost2010Prop51ColorRGB
 90
-16777216
102
RTVSPost2010PropOp51
 70
     0
102
RTVSPost2010Prop52
140
1.0
102
RTVSPost2010PropOp52
 70
     0
102
RTVSPost2010Prop53
 90
        2
102
RTVSPost2010PropOp53
 70
     0
102
RTVSPost2010Prop54
  1
strokes_ogs.tif
102
RTVSPost2010PropOp54
 70
     0
102
RTVSPost2010Prop55
280
     0
102
RTVSPost2010PropOp55
 70
     1
102
RTVSPost2010Prop56
140
1.0
102
RTVSPost2010PropOp56
 70
     0
102
RTVSPost2010Prop57
140
1.0
102
RTVSPost2010PropOp57
 70
     0
102
RTVSPropertyOp0
 70
     0
102
RTVSPropertyOp1
 70
     0
102
RTVSPropertyOp2
 70
     0
102
RTVSPropertyOp3
 70
     0
102
RTVSPropertyOp4
 70
     0
102
RTVSPropertyOp5
 70
     0
102
RTVSPropertyOp6
 70
     0
102
RTVSPropertyOp7
 70
     0
102
RTVSPropertyOp8
 70
     0
102
RTVSPropertyOp9
 70
     0
102
RTVSPropertyOp10
 70
     0
102
RTVSPropertyOp11
 70
     0
102
RTVSPropertyOp12
 70
     0
102
RTVSPropertyOp13
 70
     0
102
RTVSPropertyOp14
 70
     2
102
RTVSPropertyOp15
 70
     0
102
RTVSPropertyOp16
 70
     0
102
RTVSPropertyOp17
 70
     0
102
RTVSPropertyOp18
 70
     0
102
RTVSPropertyOp19
 70
     0
102
RTVSPropertyOp20
 70
     0
102
RTVSPropertyOp21
 70
     0
102
RTVSPropertyOp22
 70
     0
102
RTVSPropertyOp23
 70
     0
102
RTVSPropertyOp24
 70
     0
102
RTVSPropertyOp25
 70
     0
102
RTVSPropertyOp26
 70
     0
102
RTVSPropertyOp27
 70
     0
102
RTVSPropertyOp28
 70
     1
102
RTVSPropertyOp29
 70
     1
102
RTVSPropertyOp30
 70
     1
102
RTVSPropertyOp31
 70
     1
102
RTVSPropertyOp32
 70
     1
102
RTVSPropertyOp33
 70
     1
102
RTVSPropertyOp34
 70
     1
102
RTVSPropertyOp35
 70
     1
102
RTVSPropertyOp36
 70
     1
102
RTVSPropertyOp37
 70
     0
102
RTVSPropertyOp38
 70
     0
102
RTVSPropertyOp39
 70
     0
102
RTVSPropertyOp40
 70
     0
102
RTVSPropertyOp41
 70
     0
102
RTVSPropertyOp42
 70
     0
102
RTVSPropertyOp43
 70
     0
102
RTVSPropertyOp44
 70
     0
102
RTVSPropertyOp45
 70
     1
102
RTVSPropertyOp46
 70
     0
102
RTVSPropertyOp47
 70
     0
102
RTVSPropertyOp48
 70
     0
102
RTVSPropertyOp49
 70
     1
102
RTVSPropertyOp50
 70
     0
102
RTVSPropertyOp51
 70
     0
102
RTVSPropertyOp52
 70
     0
102
RTVSPropertyOp53
 70
     0
102
RTVSPropertyOp54
 70
     0
102
RTVSPropertyOp55
 70
     1
102
RTVSPropertyOp56
 70
     0
102
RTVSPropertyOp57
 70
     0
102
RTVSPropertyOp58
 70
     0
102
RTVSPropertyOp59
 70
     0
102
RTVSPropertyOp60
 70
     0
102
RTVSPropertyOp61
 70
     0
102
RTVSPropertyOp62
 70
     0
  0
XRECORD
  5
6FD
102
{ACAD_REACTORS
330
6FC
102
}
330
6FC
100
AcDbXrecord
280
     1
102
RTVSPost2010Prop28
280
     0
102
RTVSPost2010PropOp28
 70
     1
102
RTVSPost2010Prop29
280
     1
102
RTVSPost2010PropOp29
 70
     1
102
RTVSPost2010Prop30
280
     1
102
RTVSPost2010PropOp30
 70
     1
102
RTVSPost2010Prop31
280
     0
102
RTVSPost2010PropOp31
 70
     1
102
RTVSPost2010Prop32
280
     0
102
RTVSPost2010PropOp32
 70
     1
102
RTVSPost2010Prop33
280
     0
102
RTVSPost2010PropOp33
 70
     1
102
RTVSPost2010Prop34
280
     0
102
RTVSPost2010PropOp34
 70
     1
102
RTVSPost2010Prop35
280
     0
102
RTVSPost2010PropOp35
 70
     1
102
RTVSPost2010Prop36
280
     0
102
RTVSPost2010PropOp36
 70
     1
102
RTVSPost2010Prop37
 90
       50
102
RTVSPost2010PropOp37
 70
     1
102
RTVSPost2010Prop38
140
0.0
102
RTVSPost2010PropOp38
 70
     1
102
RTVSPost2010Prop39
140
1.0
102
RTVSPost2010PropOp39
 70
     1
102
RTVSPost2010Prop40
 90
        0
102
RTVSPost2010PropOp40
 70
     1
102
RTVSPost2010Prop41ColorIndex
 90
       18
102
RTVSPost2010Prop41ColorRGB
 90
        0
102
RTVSPost2010PropOp41
 70
     1
102
RTVSPost2010Prop42
 90
       50
102
RTVSPost2010PropOp42
 70
     1
102
RTVSPost2010Prop43
 90
        3
102
RTVSPost2010PropOp43
 70
     1
102
RTVSPost2010Prop44ColorIndex
 90
        5
102
RTVSPost2010Prop44ColorRGB
 90
      255
102
RTVSPost2010PropOp44
 70
     1
102
RTVSPost2010Prop45
280
     0
102
RTVSPost2010PropOp45
 70
     1
102
RTVSPost2010Prop46
 90
       50
102
RTVSPost2010PropOp46
 70
     1
102
RTVSPost2010Prop47
 90
       50
102
RTVSPost2010PropOp47
 70
     1
102
RTVSPost2010Prop48
 90
       50
102
RTVSPost2010PropOp48
 70
     1
102
RTVSPost2010Prop49
280
     0
102
RTVSPost2010PropOp49
 70
     1
102
RTVSPost2010Prop50
 90
       50
102
RTVSPost2010PropOp50
 70
     1
102
RTVSPost2010Prop51ColorIndex
 90
      256
102
RTVSPost2010Prop51ColorRGB
 90
-16777216
102
RTVSPost2010PropOp51
 70
     0
102
RTVSPost2010Prop52
140
1.0
102
RTVSPost2010PropOp52
 70
     0
102
RTVSPost2010Prop53
 90
        2
102
RTVSPost2010PropOp53
 70
     1
102
RTVSPost2010Prop54
  1
strokes_ogs.tif
102
RTVSPost2010PropOp54
 70
     1
102
RTVSPost2010Prop55
280
     0
102
RTVSPost2010PropOp55
 70
     1
102
RTVSPost2010Prop56
140
1.0
102
RTVSPost2010PropOp56
 70
     1
102
RTVSPost2010Prop57
140
1.0
102
RTVSPost2010PropOp57
 70
     1
102
RTVSPropertyOp0
 70
     1
102
RTVSPropertyOp1
 70
     1
102
RTVSPropertyOp2
 70
     1
102
RTVSPropertyOp3
 70
     1
102
RTVSPropertyOp4
 70
     1
102
RTVSPropertyOp5
 70
     1
102
RTVSPropertyOp6
 70
     1
102
RTVSPropertyOp7
 70
     1
102
RTVSPropertyOp8
 70
     1
102
RTVSPropertyOp9
 70
     1
102
RTVSPropertyOp10
 70
     1
102
RTVSPropertyOp11
 70
     1
102
RTVSPropertyOp12
 70
     1
102
RTVSPropertyOp13
 70
     1
102
RTVSPropertyOp14
 70
     1
102
RTVSPropertyOp15
 70
     1
102
RTVSPropertyOp16
 70
     1
102
RTVSPropertyOp17
 70
     1
102
RTVSPropertyOp18
 70
     1
102
RTVSPropertyOp19
 70
     1
102
RTVSPropertyOp20
 70
     1
102
RTVSPropertyOp21
 70
     1
102
RTVSPropertyOp22
 70
     1
102
RTVSPropertyOp23
 70
     1
102
RTVSPropertyOp24
 70
     1
102
RTVSPropertyOp25
 70
     1
102
RTVSPropertyOp26
 70
     1
102
RTVSPropertyOp27
 70
     1
102
RTVSPropertyOp28
 70
     1
102
RTVSPropertyOp29
 70
     1
102
RTVSPropertyOp30
 70
     1
102
RTVSPropertyOp31
 70
     1
102
RTVSPropertyOp32
 70
     1
102
RTVSPropertyOp33
 70
     1
102
RTVSPropertyOp34
 70
     1
102
RTVSPropertyOp35
 70
     1
102
RTVSPropertyOp36
 70
     1
102
RTVSPropertyOp37
 70
     1
102
RTVSPropertyOp38
 70
     1
102
RTVSPropertyOp39
 70
     1
102
RTVSPropertyOp40
 70
     1
102
RTVSPropertyOp41
 70
     1
102
RTVSPropertyOp42
 70
     1
102
RTVSPropertyOp43
 70
     1
102
RTVSPropertyOp44
 70
     1
102
RTVSPropertyOp45
 70
     1
102
RTVSPropertyOp46
 70
     1
102
RTVSPropertyOp47
 70
     1
102
RTVSPropertyOp48
 70
     1
102
RTVSPropertyOp49
 70
     1
102
RTVSPropertyOp50
 70
     1
102
RTVSPropertyOp51
 70
     0
102
RTVSPropertyOp52
 70
     0
102
RTVSPropertyOp53
 70
     1
102
RTVSPropertyOp54
 70
     1
102
RTVSPropertyOp55
 70
     1
102
RTVSPropertyOp56
 70
     1
102
RTVSPropertyOp57
 70
     1
102
RTVSPropertyOp58
 70
     1
102
RTVSPropertyOp59
 70
     1
102
RTVSPropertyOp60
 70
     1
102
RTVSPropertyOp61
 70
     1
102
RTVSPropertyOp62
 70
     1
  0
XRECORD
  5
713
102
{ACAD_REACTORS
330
712
102
}
330
712
100
AcDbXrecord
280
     1
102
RTVSPost2010Prop28
280
     0
102
RTVSPost2010PropOp28
 70
     1
102
RTVSPost2010Prop29
280
     1
102
RTVSPost2010PropOp29
 70
     1
102
RTVSPost2010Prop30
280
     1
102
RTVSPost2010PropOp30
 70
     1
102
RTVSPost2010Prop31
280
     0
102
RTVSPost2010PropOp31
 70
     1
102
RTVSPost2010Prop32
280
     0
102
RTVSPost2010PropOp32
 70
     1
102
RTVSPost2010Prop33
280
     0
102
RTVSPost2010PropOp33
 70
     1
102
RTVSPost2010Prop34
280
     0
102
RTVSPost2010PropOp34
 70
     1
102
RTVSPost2010Prop35
280
     0
102
RTVSPost2010PropOp35
 70
     1
102
RTVSPost2010Prop36
280
     0
102
RTVSPost2010PropOp36
 70
     1
102
RTVSPost2010Prop37
 90
       50
102
RTVSPost2010PropOp37
 70
     1
102
RTVSPost2010Prop38
140
0.0
102
RTVSPost2010PropOp38
 70
     1
102
RTVSPost2010Prop39
140
1.0
102
RTVSPost2010PropOp39
 70
     1
102
RTVSPost2010Prop40
 90
        0
102
RTVSPost2010PropOp40
 70
     1
102
RTVSPost2010Prop41ColorIndex
 90
       18
102
RTVSPost2010Prop41ColorRGB
 90
        0
102
RTVSPost2010PropOp41
 70
     1
102
RTVSPost2010Prop42
 90
       50
102
RTVSPost2010PropOp42
 70
     1
102
RTVSPost2010Prop43
 90
        3
102
RTVSPost2010PropOp43
 70
     1
102
RTVSPost2010Prop44ColorIndex
 90
        5
102
RTVSPost2010Prop44ColorRGB
 90
      255
102
RTVSPost2010PropOp44
 70
     1
102
RTVSPost2010Prop45
280
     0
102
RTVSPost2010PropOp45
 70
     1
102
RTVSPost2010Prop46
 90
       50
102
RTVSPost2010PropOp46
 70
     1
102
RTVSPost2010Prop47
 90
       50
102
RTVSPost2010PropOp47
 70
     1
102
RTVSPost2010Prop48
 90
       50
102
RTVSPost2010PropOp48
 70
     1
102
RTVSPost2010Prop49
280
     0
102
RTVSPost2010PropOp49
 70
     1
102
RTVSPost2010Prop50
 90
       50
102
RTVSPost2010PropOp50
 70
     1
102
RTVSPost2010Prop51ColorIndex
 90
      256
102
RTVSPost2010Prop51ColorRGB
 90
-16777216
102
RTVSPost2010PropOp51
 70
     0
102
RTVSPost2010Prop52
140
1.0
102
RTVSPost2010PropOp52
 70
     0
102
RTVSPost2010Prop53
 90
        2
102
RTVSPost2010PropOp53
 70
     1
102
RTVSPost2010Prop54
  1
strokes_ogs.tif
102
RTVSPost2010PropOp54
 70
     1
102
RTVSPost2010Prop55
280
     0
102
RTVSPost2010PropOp55
 70
     1
102
RTVSPost2010Prop56
140
1.0
102
RTVSPost2010PropOp56
 70
     1
102
RTVSPost2010Prop57
140
1.0
102
RTVSPost2010PropOp57
 70
     1
102
RTVSPropertyOp0
 70
     1
102
RTVSPropertyOp1
 70
     1
102
RTVSPropertyOp2
 70
     1
102
RTVSPropertyOp3
 70
     1
102
RTVSPropertyOp4
 70
     1
102
RTVSPropertyOp5
 70
     1
102
RTVSPropertyOp6
 70
     1
102
RTVSPropertyOp7
 70
     1
102
RTVSPropertyOp8
 70
     1
102
RTVSPropertyOp9
 70
     1
102
RTVSPropertyOp10
 70
     1
102
RTVSPropertyOp11
 70
     1
102
RTVSPropertyOp12
 70
     1
102
RTVSPropertyOp13
 70
     1
102
RTVSPropertyOp14
 70
     1
102
RTVSPropertyOp15
 70
     1
102
RTVSPropertyOp16
 70
     1
102
RTVSPropertyOp17
 70
     1
102
RTVSPropertyOp18
 70
     1
102
RTVSPropertyOp19
 70
     1
102
RTVSPropertyOp20
 70
     1
102
RTVSPropertyOp21
 70
     1
102
RTVSPropertyOp22
 70
     1
102
RTVSPropertyOp23
 70
     1
102
RTVSPropertyOp24
 70
     1
102
RTVSPropertyOp25
 70
     1
102
RTVSPropertyOp26
 70
     1
102
RTVSPropertyOp27
 70
     1
102
RTVSPropertyOp28
 70
     1
102
RTVSPropertyOp29
 70
     1
102
RTVSPropertyOp30
 70
     1
102
RTVSPropertyOp31
 70
     1
102
RTVSPropertyOp32
 70
     1
102
RTVSPropertyOp33
 70
     1
102
RTVSPropertyOp34
 70
     1
102
RTVSPropertyOp35
 70
     1
102
RTVSPropertyOp36
 70
     1
102
RTVSPropertyOp37
 70
     1
102
RTVSPropertyOp38
 70
     1
102
RTVSPropertyOp39
 70
     1
102
RTVSPropertyOp40
 70
     1
102
RTVSPropertyOp41
 70
     1
102
RTVSPropertyOp42
 70
     1
102
RTVSPropertyOp43
 70
     1
102
RTVSPropertyOp44
 70
     1
102
RTVSPropertyOp45
 70
     1
102
RTVSPropertyOp46
 70
     1
102
RTVSPropertyOp47
 70
     1
102
RTVSPropertyOp48
 70
     1
102
RTVSPropertyOp49
 70
     1
102
RTVSPropertyOp50
 70
     1
102
RTVSPropertyOp51
 70
     0
102
RTVSPropertyOp52
 70
     0
102
RTVSPropertyOp53
 70
     1
102
RTVSPropertyOp54
 70
     1
102
RTVSPropertyOp55
 70
     1
102
RTVSPropertyOp56
 70
     1
102
RTVSPropertyOp57
 70
     1
102
RTVSPropertyOp58
 70
     1
102
RTVSPropertyOp59
 70
     1
102
RTVSPropertyOp60
 70
     1
102
RTVSPropertyOp61
 70
     1
102
RTVSPropertyOp62
 70
     1
  0
XRECORD
  5
711
102
{ACAD_REACTORS
330
710
102
}
330
710
100
AcDbXrecord
280
     1
102
RTVSPost2010Prop28
280
     0
102
RTVSPost2010PropOp28
 70
     1
102
RTVSPost2010Prop29
280
     1
102
RTVSPost2010PropOp29
 70
     1
102
RTVSPost2010Prop30
280
     1
102
RTVSPost2010PropOp30
 70
     1
102
RTVSPost2010Prop31
280
     0
102
RTVSPost2010PropOp31
 70
     1
102
RTVSPost2010Prop32
280
     0
102
RTVSPost2010PropOp32
 70
     1
102
RTVSPost2010Prop33
280
     0
102
RTVSPost2010PropOp33
 70
     1
102
RTVSPost2010Prop34
280
     0
102
RTVSPost2010PropOp34
 70
     1
102
RTVSPost2010Prop35
280
     0
102
RTVSPost2010PropOp35
 70
     1
102
RTVSPost2010Prop36
280
     0
102
RTVSPost2010PropOp36
 70
     1
102
RTVSPost2010Prop37
 90
       50
102
RTVSPost2010PropOp37
 70
     1
102
RTVSPost2010Prop38
140
0.0
102
RTVSPost2010PropOp38
 70
     1
102
RTVSPost2010Prop39
140
1.0
102
RTVSPost2010PropOp39
 70
     1
102
RTVSPost2010Prop40
 90
        0
102
RTVSPost2010PropOp40
 70
     1
102
RTVSPost2010Prop41ColorIndex
 90
       18
102
RTVSPost2010Prop41ColorRGB
 90
        0
102
RTVSPost2010PropOp41
 70
     1
102
RTVSPost2010Prop42
 90
       50
102
RTVSPost2010PropOp42
 70
     1
102
RTVSPost2010Prop43
 90
        3
102
RTVSPost2010PropOp43
 70
     1
102
RTVSPost2010Prop44ColorIndex
 90
        5
102
RTVSPost2010Prop44ColorRGB
 90
      255
102
RTVSPost2010PropOp44
 70
     1
102
RTVSPost2010Prop45
280
     0
102
RTVSPost2010PropOp45
 70
     1
102
RTVSPost2010Prop46
 90
       50
102
RTVSPost2010PropOp46
 70
     1
102
RTVSPost2010Prop47
 90
       50
102
RTVSPost2010PropOp47
 70
     1
102
RTVSPost2010Prop48
 90
       50
102
RTVSPost2010PropOp48
 70
     1
102
RTVSPost2010Prop49
280
     0
102
RTVSPost2010PropOp49
 70
     1
102
RTVSPost2010Prop50
 90
       50
102
RTVSPost2010PropOp50
 70
     1
102
RTVSPost2010Prop51ColorIndex
 90
      256
102
RTVSPost2010Prop51ColorRGB
 90
-16777216
102
RTVSPost2010PropOp51
 70
     0
102
RTVSPost2010Prop52
140
1.0
102
RTVSPost2010PropOp52
 70
     0
102
RTVSPost2010Prop53
 90
        2
102
RTVSPost2010PropOp53
 70
     1
102
RTVSPost2010Prop54
  1
strokes_ogs.tif
102
RTVSPost2010PropOp54
 70
     1
102
RTVSPost2010Prop55
280
     0
102
RTVSPost2010PropOp55
 70
     1
102
RTVSPost2010Prop56
140
1.0
102
RTVSPost2010PropOp56
 70
     1
102
RTVSPost2010Prop57
140
1.0
102
RTVSPost2010PropOp57
 70
     1
102
RTVSPropertyOp0
 70
     1
102
RTVSPropertyOp1
 70
     1
102
RTVSPropertyOp2
 70
     1
102
RTVSPropertyOp3
 70
     1
102
RTVSPropertyOp4
 70
     1
102
RTVSPropertyOp5
 70
     1
102
RTVSPropertyOp6
 70
     1
102
RTVSPropertyOp7
 70
     1
102
RTVSPropertyOp8
 70
     1
102
RTVSPropertyOp9
 70
     1
102
RTVSPropertyOp10
 70
     1
102
RTVSPropertyOp11
 70
     1
102
RTVSPropertyOp12
 70
     1
102
RTVSPropertyOp13
 70
     1
102
RTVSPropertyOp14
 70
     1
102
RTVSPropertyOp15
 70
     1
102
RTVSPropertyOp16
 70
     1
102
RTVSPropertyOp17
 70
     1
102
RTVSPropertyOp18
 70
     1
102
RTVSPropertyOp19
 70
     1
102
RTVSPropertyOp20
 70
     1
102
RTVSPropertyOp21
 70
     1
102
RTVSPropertyOp22
 70
     1
102
RTVSPropertyOp23
 70
     1
102
RTVSPropertyOp24
 70
     1
102
RTVSPropertyOp25
 70
     1
102
RTVSPropertyOp26
 70
     1
102
RTVSPropertyOp27
 70
     1
102
RTVSPropertyOp28
 70
     1
102
RTVSPropertyOp29
 70
     1
102
RTVSPropertyOp30
 70
     1
102
RTVSPropertyOp31
 70
     1
102
RTVSPropertyOp32
 70
     1
102
RTVSPropertyOp33
 70
     1
102
RTVSPropertyOp34
 70
     1
102
RTVSPropertyOp35
 70
     1
102
RTVSPropertyOp36
 70
     1
102
RTVSPropertyOp37
 70
     1
102
RTVSPropertyOp38
 70
     1
102
RTVSPropertyOp39
 70
     1
102
RTVSPropertyOp40
 70
     1
102
RTVSPropertyOp41
 70
     1
102
RTVSPropertyOp42
 70
     1
102
RTVSPropertyOp43
 70
     1
102
RTVSPropertyOp44
 70
     1
102
RTVSPropertyOp45
 70
     1
102
RTVSPropertyOp46
 70
     1
102
RTVSPropertyOp47
 70
     1
102
RTVSPropertyOp48
 70
     1
102
RTVSPropertyOp49
 70
     1
102
RTVSPropertyOp50
 70
     1
102
RTVSPropertyOp51
 70
     0
102
RTVSPropertyOp52
 70
     0
102
RTVSPropertyOp53
 70
     1
102
RTVSPropertyOp54
 70
     1
102
RTVSPropertyOp55
 70
     1
102
RTVSPropertyOp56
 70
     1
102
RTVSPropertyOp57
 70
     1
102
RTVSPropertyOp58
 70
     1
102
RTVSPropertyOp59
 70
     1
102
RTVSPropertyOp60
 70
     1
102
RTVSPropertyOp61
 70
     1
102
RTVSPropertyOp62
 70
     1
  0
XRECORD
  5
70B
102
{ACAD_REACTORS
330
70A
102
}
330
70A
100
AcDbXrecord
280
     1
102
RTVSPost2010Prop28
280
     0
102
RTVSPost2010PropOp28
 70
     1
102
RTVSPost2010Prop29
280
     1
102
RTVSPost2010PropOp29
 70
     1
102
RTVSPost2010Prop30
280
     1
102
RTVSPost2010PropOp30
 70
     1
102
RTVSPost2010Prop31
280
     0
102
RTVSPost2010PropOp31
 70
     1
102
RTVSPost2010Prop32
280
     0
102
RTVSPost2010PropOp32
 70
     1
102
RTVSPost2010Prop33
280
     0
102
RTVSPost2010PropOp33
 70
     1
102
RTVSPost2010Prop34
280
     0
102
RTVSPost2010PropOp34
 70
     1
102
RTVSPost2010Prop35
280
     0
102
RTVSPost2010PropOp35
 70
     1
102
RTVSPost2010Prop36
280
     0
102
RTVSPost2010PropOp36
 70
     1
102
RTVSPost2010Prop37
 90
       50
102
RTVSPost2010PropOp37
 70
     1
102
RTVSPost2010Prop38
140
0.0
102
RTVSPost2010PropOp38
 70
     1
102
RTVSPost2010Prop39
140
1.0
102
RTVSPost2010PropOp39
 70
     1
102
RTVSPost2010Prop40
 90
        0
102
RTVSPost2010PropOp40
 70
     1
102
RTVSPost2010Prop41ColorIndex
 90
       18
102
RTVSPost2010Prop41ColorRGB
 90
        0
102
RTVSPost2010PropOp41
 70
     1
102
RTVSPost2010Prop42
 90
       50
102
RTVSPost2010PropOp42
 70
     1
102
RTVSPost2010Prop43
 90
        3
102
RTVSPost2010PropOp43
 70
     1
102
RTVSPost2010Prop44ColorIndex
 90
        5
102
RTVSPost2010Prop44ColorRGB
 90
      255
102
RTVSPost2010PropOp44
 70
     1
102
RTVSPost2010Prop45
280
     0
102
RTVSPost2010PropOp45
 70
     1
102
RTVSPost2010Prop46
 90
       50
102
RTVSPost2010PropOp46
 70
     1
102
RTVSPost2010Prop47
 90
       50
102
RTVSPost2010PropOp47
 70
     1
102
RTVSPost2010Prop48
 90
       50
102
RTVSPost2010PropOp48
 70
     1
102
RTVSPost2010Prop49
280
     0
102
RTVSPost2010PropOp49
 70
     1
102
RTVSPost2010Prop50
 90
       50
102
RTVSPost2010PropOp50
 70
     1
102
RTVSPost2010Prop51ColorIndex
 90
      256
102
RTVSPost2010Prop51ColorRGB
 90
-16777216
102
RTVSPost2010PropOp51
 70
     0
102
RTVSPost2010Prop52
140
1.0
102
RTVSPost2010PropOp52
 70
     0
102
RTVSPost2010Prop53
 90
        2
102
RTVSPost2010PropOp53
 70
     1
102
RTVSPost2010Prop54
  1
strokes_ogs.tif
102
RTVSPost2010PropOp54
 70
     1
102
RTVSPost2010Prop55
280
     0
102
RTVSPost2010PropOp55
 70
     1
102
RTVSPost2010Prop56
140
1.0
102
RTVSPost2010PropOp56
 70
     1
102
RTVSPost2010Prop57
140
1.0
102
RTVSPost2010PropOp57
 70
     1
102
RTVSPropertyOp0
 70
     1
102
RTVSPropertyOp1
 70
     1
102
RTVSPropertyOp2
 70
     1
102
RTVSPropertyOp3
 70
     1
102
RTVSPropertyOp4
 70
     1
102
RTVSPropertyOp5
 70
     1
102
RTVSPropertyOp6
 70
     1
102
RTVSPropertyOp7
 70
     1
102
RTVSPropertyOp8
 70
     1
102
RTVSPropertyOp9
 70
     1
102
RTVSPropertyOp10
 70
     1
102
RTVSPropertyOp11
 70
     1
102
RTVSPropertyOp12
 70
     1
102
RTVSPropertyOp13
 70
     1
102
RTVSPropertyOp14
 70
     1
102
RTVSPropertyOp15
 70
     1
102
RTVSPropertyOp16
 70
     1
102
RTVSPropertyOp17
 70
     1
102
RTVSPropertyOp18
 70
     1
102
RTVSPropertyOp19
 70
     1
102
RTVSPropertyOp20
 70
     1
102
RTVSPropertyOp21
 70
     1
102
RTVSPropertyOp22
 70
     1
102
RTVSPropertyOp23
 70
     1
102
RTVSPropertyOp24
 70
     1
102
RTVSPropertyOp25
 70
     1
102
RTVSPropertyOp26
 70
     1
102
RTVSPropertyOp27
 70
     1
102
RTVSPropertyOp28
 70
     1
102
RTVSPropertyOp29
 70
     1
102
RTVSPropertyOp30
 70
     1
102
RTVSPropertyOp31
 70
     1
102
RTVSPropertyOp32
 70
     1
102
RTVSPropertyOp33
 70
     1
102
RTVSPropertyOp34
 70
     1
102
RTVSPropertyOp35
 70
     1
102
RTVSPropertyOp36
 70
     1
102
RTVSPropertyOp37
 70
     1
102
RTVSPropertyOp38
 70
     1
102
RTVSPropertyOp39
 70
     1
102
RTVSPropertyOp40
 70
     1
102
RTVSPropertyOp41
 70
     1
102
RTVSPropertyOp42
 70
     1
102
RTVSPropertyOp43
 70
     1
102
RTVSPropertyOp44
 70
     1
102
RTVSPropertyOp45
 70
     1
102
RTVSPropertyOp46
 70
     1
102
RTVSPropertyOp47
 70
     1
102
RTVSPropertyOp48
 70
     1
102
RTVSPropertyOp49
 70
     1
102
RTVSPropertyOp50
 70
     1
102
RTVSPropertyOp51
 70
     0
102
RTVSPropertyOp52
 70
     0
102
RTVSPropertyOp53
 70
     1
102
RTVSPropertyOp54
 70
     1
102
RTVSPropertyOp55
 70
     1
102
RTVSPropertyOp56
 70
     1
102
RTVSPropertyOp57
 70
     1
102
RTVSPropertyOp58
 70
     1
102
RTVSPropertyOp59
 70
     1
102
RTVSPropertyOp60
 70
     1
102
RTVSPropertyOp61
 70
     1
102
RTVSPropertyOp62
 70
     1
  0
XRECORD
  5
70D
102
{ACAD_REACTORS
330
70C
102
}
330
70C
100
AcDbXrecord
280
     1
102
RTVSPost2010Prop28
280
     0
102
RTVSPost2010PropOp28
 70
     1
102
RTVSPost2010Prop29
280
     1
102
RTVSPost2010PropOp29
 70
     1
102
RTVSPost2010Prop30
280
     1
102
RTVSPost2010PropOp30
 70
     1
102
RTVSPost2010Prop31
280
     0
102
RTVSPost2010PropOp31
 70
     1
102
RTVSPost2010Prop32
280
     0
102
RTVSPost2010PropOp32
 70
     1
102
RTVSPost2010Prop33
280
     0
102
RTVSPost2010PropOp33
 70
     1
102
RTVSPost2010Prop34
280
     0
102
RTVSPost2010PropOp34
 70
     1
102
RTVSPost2010Prop35
280
     0
102
RTVSPost2010PropOp35
 70
     1
102
RTVSPost2010Prop36
280
     0
102
RTVSPost2010PropOp36
 70
     1
102
RTVSPost2010Prop37
 90
       50
102
RTVSPost2010PropOp37
 70
     1
102
RTVSPost2010Prop38
140
0.0
102
RTVSPost2010PropOp38
 70
     1
102
RTVSPost2010Prop39
140
1.0
102
RTVSPost2010PropOp39
 70
     1
102
RTVSPost2010Prop40
 90
        0
102
RTVSPost2010PropOp40
 70
     1
102
RTVSPost2010Prop41ColorIndex
 90
       18
102
RTVSPost2010Prop41ColorRGB
 90
        0
102
RTVSPost2010PropOp41
 70
     1
102
RTVSPost2010Prop42
 90
       50
102
RTVSPost2010PropOp42
 70
     1
102
RTVSPost2010Prop43
 90
        3
102
RTVSPost2010PropOp43
 70
     1
102
RTVSPost2010Prop44ColorIndex
 90
        5
102
RTVSPost2010Prop44ColorRGB
 90
      255
102
RTVSPost2010PropOp44
 70
     1
102
RTVSPost2010Prop45
280
     0
102
RTVSPost2010PropOp45
 70
     1
102
RTVSPost2010Prop46
 90
       50
102
RTVSPost2010PropOp46
 70
     1
102
RTVSPost2010Prop47
 90
       50
102
RTVSPost2010PropOp47
 70
     1
102
RTVSPost2010Prop48
 90
       50
102
RTVSPost2010PropOp48
 70
     1
102
RTVSPost2010Prop49
280
     0
102
RTVSPost2010PropOp49
 70
     1
102
RTVSPost2010Prop50
 90
       50
102
RTVSPost2010PropOp50
 70
     1
102
RTVSPost2010Prop51ColorIndex
 90
      256
102
RTVSPost2010Prop51ColorRGB
 90
-16777216
102
RTVSPost2010PropOp51
 70
     0
102
RTVSPost2010Prop52
140
1.0
102
RTVSPost2010PropOp52
 70
     0
102
RTVSPost2010Prop53
 90
        2
102
RTVSPost2010PropOp53
 70
     1
102
RTVSPost2010Prop54
  1
strokes_ogs.tif
102
RTVSPost2010PropOp54
 70
     1
102
RTVSPost2010Prop55
280
     0
102
RTVSPost2010PropOp55
 70
     1
102
RTVSPost2010Prop56
140
1.0
102
RTVSPost2010PropOp56
 70
     1
102
RTVSPost2010Prop57
140
1.0
102
RTVSPost2010PropOp57
 70
     1
102
RTVSPropertyOp0
 70
     1
102
RTVSPropertyOp1
 70
     1
102
RTVSPropertyOp2
 70
     1
102
RTVSPropertyOp3
 70
     1
102
RTVSPropertyOp4
 70
     1
102
RTVSPropertyOp5
 70
     1
102
RTVSPropertyOp6
 70
     1
102
RTVSPropertyOp7
 70
     1
102
RTVSPropertyOp8
 70
     1
102
RTVSPropertyOp9
 70
     1
102
RTVSPropertyOp10
 70
     1
102
RTVSPropertyOp11
 70
     1
102
RTVSPropertyOp12
 70
     1
102
RTVSPropertyOp13
 70
     1
102
RTVSPropertyOp14
 70
     1
102
RTVSPropertyOp15
 70
     1
102
RTVSPropertyOp16
 70
     1
102
RTVSPropertyOp17
 70
     1
102
RTVSPropertyOp18
 70
     1
102
RTVSPropertyOp19
 70
     1
102
RTVSPropertyOp20
 70
     1
102
RTVSPropertyOp21
 70
     1
102
RTVSPropertyOp22
 70
     1
102
RTVSPropertyOp23
 70
     1
102
RTVSPropertyOp24
 70
     1
102
RTVSPropertyOp25
 70
     1
102
RTVSPropertyOp26
 70
     1
102
RTVSPropertyOp27
 70
     1
102
RTVSPropertyOp28
 70
     1
102
RTVSPropertyOp29
 70
     1
102
RTVSPropertyOp30
 70
     1
102
RTVSPropertyOp31
 70
     1
102
RTVSPropertyOp32
 70
     1
102
RTVSPropertyOp33
 70
     1
102
RTVSPropertyOp34
 70
     1
102
RTVSPropertyOp35
 70
     1
102
RTVSPropertyOp36
 70
     1
102
RTVSPropertyOp37
 70
     1
102
RTVSPropertyOp38
 70
     1
102
RTVSPropertyOp39
 70
     1
102
RTVSPropertyOp40
 70
     1
102
RTVSPropertyOp41
 70
     1
102
RTVSPropertyOp42
 70
     1
102
RTVSPropertyOp43
 70
     1
102
RTVSPropertyOp44
 70
     1
102
RTVSPropertyOp45
 70
     1
102
RTVSPropertyOp46
 70
     1
102
RTVSPropertyOp47
 70
     1
102
RTVSPropertyOp48
 70
     1
102
RTVSPropertyOp49
 70
     1
102
RTVSPropertyOp50
 70
     1
102
RTVSPropertyOp51
 70
     0
102
RTVSPropertyOp52
 70
     0
102
RTVSPropertyOp53
 70
     1
102
RTVSPropertyOp54
 70
     1
102
RTVSPropertyOp55
 70
     1
102
RTVSPropertyOp56
 70
     1
102
RTVSPropertyOp57
 70
     1
102
RTVSPropertyOp58
 70
     1
102
RTVSPropertyOp59
 70
     1
102
RTVSPropertyOp60
 70
     1
102
RTVSPropertyOp61
 70
     1
102
RTVSPropertyOp62
 70
     1
  0
XRECORD
  5
703
102
{ACAD_REACTORS
330
702
102
}
330
702
100
AcDbXrecord
280
     1
102
RTVSPost2010Prop28
280
     0
102
RTVSPost2010PropOp28
 70
     1
102
RTVSPost2010Prop29
280
     1
102
RTVSPost2010PropOp29
 70
     1
102
RTVSPost2010Prop30
280
     1
102
RTVSPost2010PropOp30
 70
     1
102
RTVSPost2010Prop31
280
     0
102
RTVSPost2010PropOp31
 70
     1
102
RTVSPost2010Prop32
280
     0
102
RTVSPost2010PropOp32
 70
     1
102
RTVSPost2010Prop33
280
     0
102
RTVSPost2010PropOp33
 70
     1
102
RTVSPost2010Prop34
280
     0
102
RTVSPost2010PropOp34
 70
     1
102
RTVSPost2010Prop35
280
     0
102
RTVSPost2010PropOp35
 70
     1
102
RTVSPost2010Prop36
280
     0
102
RTVSPost2010PropOp36
 70
     1
102
RTVSPost2010Prop37
 90
       50
102
RTVSPost2010PropOp37
 70
     1
102
RTVSPost2010Prop38
140
0.0
102
RTVSPost2010PropOp38
 70
     1
102
RTVSPost2010Prop39
140
1.0
102
RTVSPost2010PropOp39
 70
     1
102
RTVSPost2010Prop40
 90
        0
102
RTVSPost2010PropOp40
 70
     1
102
RTVSPost2010Prop41ColorIndex
 90
       18
102
RTVSPost2010Prop41ColorRGB
 90
        0
102
RTVSPost2010PropOp41
 70
     1
102
RTVSPost2010Prop42
 90
       50
102
RTVSPost2010PropOp42
 70
     1
102
RTVSPost2010Prop43
 90
        3
102
RTVSPost2010PropOp43
 70
     1
102
RTVSPost2010Prop44ColorIndex
 90
        5
102
RTVSPost2010Prop44ColorRGB
 90
      255
102
RTVSPost2010PropOp44
 70
     1
102
RTVSPost2010Prop45
280
     0
102
RTVSPost2010PropOp45
 70
     1
102
RTVSPost2010Prop46
 90
       50
102
RTVSPost2010PropOp46
 70
     1
102
RTVSPost2010Prop47
 90
       50
102
RTVSPost2010PropOp47
 70
     1
102
RTVSPost2010Prop48
 90
       50
102
RTVSPost2010PropOp48
 70
     1
102
RTVSPost2010Prop49
280
     0
102
RTVSPost2010PropOp49
 70
     1
102
RTVSPost2010Prop50
 90
       50
102
RTVSPost2010PropOp50
 70
     1
102
RTVSPost2010Prop51ColorIndex
 90
      256
102
RTVSPost2010Prop51ColorRGB
 90
-16777216
102
RTVSPost2010PropOp51
 70
     0
102
RTVSPost2010Prop52
140
1.0
102
RTVSPost2010PropOp52
 70
     0
102
RTVSPost2010Prop53
 90
        2
102
RTVSPost2010PropOp53
 70
     1
102
RTVSPost2010Prop54
  1
strokes_ogs.tif
102
RTVSPost2010PropOp54
 70
     1
102
RTVSPost2010Prop55
280
     0
102
RTVSPost2010PropOp55
 70
     1
102
RTVSPost2010Prop56
140
1.0
102
RTVSPost2010PropOp56
 70
     1
102
RTVSPost2010Prop57
140
1.0
102
RTVSPost2010PropOp57
 70
     1
102
RTVSPropertyOp0
 70
     1
102
RTVSPropertyOp1
 70
     1
102
RTVSPropertyOp2
 70
     1
102
RTVSPropertyOp3
 70
     1
102
RTVSPropertyOp4
 70
     1
102
RTVSPropertyOp5
 70
     1
102
RTVSPropertyOp6
 70
     1
102
RTVSPropertyOp7
 70
     1
102
RTVSPropertyOp8
 70
     1
102
RTVSPropertyOp9
 70
     1
102
RTVSPropertyOp10
 70
     1
102
RTVSPropertyOp11
 70
     1
102
RTVSPropertyOp12
 70
     1
102
RTVSPropertyOp13
 70
     1
102
RTVSPropertyOp14
 70
     1
102
RTVSPropertyOp15
 70
     1
102
RTVSPropertyOp16
 70
     1
102
RTVSPropertyOp17
 70
     1
102
RTVSPropertyOp18
 70
     1
102
RTVSPropertyOp19
 70
     1
102
RTVSPropertyOp20
 70
     1
102
RTVSPropertyOp21
 70
     1
102
RTVSPropertyOp22
 70
     1
102
RTVSPropertyOp23
 70
     1
102
RTVSPropertyOp24
 70
     1
102
RTVSPropertyOp25
 70
     1
102
RTVSPropertyOp26
 70
     1
102
RTVSPropertyOp27
 70
     1
102
RTVSPropertyOp28
 70
     1
102
RTVSPropertyOp29
 70
     1
102
RTVSPropertyOp30
 70
     1
102
RTVSPropertyOp31
 70
     1
102
RTVSPropertyOp32
 70
     1
102
RTVSPropertyOp33
 70
     1
102
RTVSPropertyOp34
 70
     1
102
RTVSPropertyOp35
 70
     1
102
RTVSPropertyOp36
 70
     1
102
RTVSPropertyOp37
 70
     1
102
RTVSPropertyOp38
 70
     1
102
RTVSPropertyOp39
 70
     1
102
RTVSPropertyOp40
 70
     1
102
RTVSPropertyOp41
 70
     1
102
RTVSPropertyOp42
 70
     1
102
RTVSPropertyOp43
 70
     1
102
RTVSPropertyOp44
 70
     1
102
RTVSPropertyOp45
 70
     1
102
RTVSPropertyOp46
 70
     1
102
RTVSPropertyOp47
 70
     1
102
RTVSPropertyOp48
 70
     1
102
RTVSPropertyOp49
 70
     1
102
RTVSPropertyOp50
 70
     1
102
RTVSPropertyOp51
 70
     0
102
RTVSPropertyOp52
 70
     0
102
RTVSPropertyOp53
 70
     1
102
RTVSPropertyOp54
 70
     1
102
RTVSPropertyOp55
 70
     1
102
RTVSPropertyOp56
 70
     1
102
RTVSPropertyOp57
 70
     1
102
RTVSPropertyOp58
 70
     1
102
RTVSPropertyOp59
 70
     1
102
RTVSPropertyOp60
 70
     1
102
RTVSPropertyOp61
 70
     1
102
RTVSPropertyOp62
 70
     1
  0
XRECORD
  5
6F7
102
{ACAD_REACTORS
330
6F6
102
}
330
6F6
100
AcDbXrecord
280
     1
102
RTVSPost2010Prop28
280
     0
102
RTVSPost2010PropOp28
 70
     1
102
RTVSPost2010Prop29
280
     1
102
RTVSPost2010PropOp29
 70
     1
102
RTVSPost2010Prop30
280
     1
102
RTVSPost2010PropOp30
 70
     1
102
RTVSPost2010Prop31
280
     0
102
RTVSPost2010PropOp31
 70
     1
102
RTVSPost2010Prop32
280
     0
102
RTVSPost2010PropOp32
 70
     1
102
RTVSPost2010Prop33
280
     0
102
RTVSPost2010PropOp33
 70
     1
102
RTVSPost2010Prop34
280
     0
102
RTVSPost2010PropOp34
 70
     1
102
RTVSPost2010Prop35
280
     0
102
RTVSPost2010PropOp35
 70
     1
102
RTVSPost2010Prop36
280
     0
102
RTVSPost2010PropOp36
 70
     1
102
RTVSPost2010Prop37
 90
       50
102
RTVSPost2010PropOp37
 70
     1
102
RTVSPost2010Prop38
140
0.0
102
RTVSPost2010PropOp38
 70
     1
102
RTVSPost2010Prop39
140
1.0
102
RTVSPost2010PropOp39
 70
     1
102
RTVSPost2010Prop40
 90
        0
102
RTVSPost2010PropOp40
 70
     1
102
RTVSPost2010Prop41ColorIndex
 90
       18
102
RTVSPost2010Prop41ColorRGB
 90
        0
102
RTVSPost2010PropOp41
 70
     1
102
RTVSPost2010Prop42
 90
       50
102
RTVSPost2010PropOp42
 70
     1
102
RTVSPost2010Prop43
 90
        3
102
RTVSPost2010PropOp43
 70
     1
102
RTVSPost2010Prop44ColorIndex
 90
        5
102
RTVSPost2010Prop44ColorRGB
 90
      255
102
RTVSPost2010PropOp44
 70
     1
102
RTVSPost2010Prop45
280
     0
102
RTVSPost2010PropOp45
 70
     1
102
RTVSPost2010Prop46
 90
       50
102
RTVSPost2010PropOp46
 70
     1
102
RTVSPost2010Prop47
 90
       50
102
RTVSPost2010PropOp47
 70
     1
102
RTVSPost2010Prop48
 90
       50
102
RTVSPost2010PropOp48
 70
     1
102
RTVSPost2010Prop49
280
     0
102
RTVSPost2010PropOp49
 70
     1
102
RTVSPost2010Prop50
 90
       50
102
RTVSPost2010PropOp50
 70
     1
102
RTVSPost2010Prop51ColorIndex
 90
      256
102
RTVSPost2010Prop51ColorRGB
 90
-16777216
102
RTVSPost2010PropOp51
 70
     0
102
RTVSPost2010Prop52
140
1.0
102
RTVSPost2010PropOp52
 70
     0
102
RTVSPost2010Prop53
 90
        2
102
RTVSPost2010PropOp53
 70
     1
102
RTVSPost2010Prop54
  1
strokes_ogs.tif
102
RTVSPost2010PropOp54
 70
     1
102
RTVSPost2010Prop55
280
     0
102
RTVSPost2010PropOp55
 70
     1
102
RTVSPost2010Prop56
140
1.0
102
RTVSPost2010PropOp56
 70
     1
102
RTVSPost2010Prop57
140
1.0
102
RTVSPost2010PropOp57
 70
     1
102
RTVSPropertyOp0
 70
     1
102
RTVSPropertyOp1
 70
     1
102
RTVSPropertyOp2
 70
     1
102
RTVSPropertyOp3
 70
     1
102
RTVSPropertyOp4
 70
     1
102
RTVSPropertyOp5
 70
     1
102
RTVSPropertyOp6
 70
     1
102
RTVSPropertyOp7
 70
     1
102
RTVSPropertyOp8
 70
     1
102
RTVSPropertyOp9
 70
     1
102
RTVSPropertyOp10
 70
     1
102
RTVSPropertyOp11
 70
     1
102
RTVSPropertyOp12
 70
     1
102
RTVSPropertyOp13
 70
     1
102
RTVSPropertyOp14
 70
     1
102
RTVSPropertyOp15
 70
     1
102
RTVSPropertyOp16
 70
     1
102
RTVSPropertyOp17
 70
     1
102
RTVSPropertyOp18
 70
     1
102
RTVSPropertyOp19
 70
     1
102
RTVSPropertyOp20
 70
     1
102
RTVSPropertyOp21
 70
     1
102
RTVSPropertyOp22
 70
     1
102
RTVSPropertyOp23
 70
     1
102
RTVSPropertyOp24
 70
     1
102
RTVSPropertyOp25
 70
     1
102
RTVSPropertyOp26
 70
     1
102
RTVSPropertyOp27
 70
     1
102
RTVSPropertyOp28
 70
     1
102
RTVSPropertyOp29
 70
     1
102
RTVSPropertyOp30
 70
     1
102
RTVSPropertyOp31
 70
     1
102
RTVSPropertyOp32
 70
     1
102
RTVSPropertyOp33
 70
     1
102
RTVSPropertyOp34
 70
     1
102
RTVSPropertyOp35
 70
     1
102
RTVSPropertyOp36
 70
     1
102
RTVSPropertyOp37
 70
     1
102
RTVSPropertyOp38
 70
     1
102
RTVSPropertyOp39
 70
     1
102
RTVSPropertyOp40
 70
     1
102
RTVSPropertyOp41
 70
     1
102
RTVSPropertyOp42
 70
     1
102
RTVSPropertyOp43
 70
     1
102
RTVSPropertyOp44
 70
     1
102
RTVSPropertyOp45
 70
     1
102
RTVSPropertyOp46
 70
     1
102
RTVSPropertyOp47
 70
     1
102
RTVSPropertyOp48
 70
     1
102
RTVSPropertyOp49
 70
     1
102
RTVSPropertyOp50
 70
     1
102
RTVSPropertyOp51
 70
     0
102
RTVSPropertyOp52
 70
     0
102
RTVSPropertyOp53
 70
     1
102
RTVSPropertyOp54
 70
     1
102
RTVSPropertyOp55
 70
     1
102
RTVSPropertyOp56
 70
     1
102
RTVSPropertyOp57
 70
     1
102
RTVSPropertyOp58
 70
     1
102
RTVSPropertyOp59
 70
     1
102
RTVSPropertyOp60
 70
     1
102
RTVSPropertyOp61
 70
     1
102
RTVSPropertyOp62
 70
     1
  0
XRECORD
  5
70F
102
{ACAD_REACTORS
330
70E
102
}
330
70E
100
AcDbXrecord
280
     1
102
RTVSPost2010Prop28
280
     0
102
RTVSPost2010PropOp28
 70
     1
102
RTVSPost2010Prop29
280
     1
102
RTVSPost2010PropOp29
 70
     1
102
RTVSPost2010Prop30
280
     1
102
RTVSPost2010PropOp30
 70
     1
102
RTVSPost2010Prop31
280
     0
102
RTVSPost2010PropOp31
 70
     1
102
RTVSPost2010Prop32
280
     0
102
RTVSPost2010PropOp32
 70
     1
102
RTVSPost2010Prop33
280
     0
102
RTVSPost2010PropOp33
 70
     1
102
RTVSPost2010Prop34
280
     0
102
RTVSPost2010PropOp34
 70
     1
102
RTVSPost2010Prop35
280
     0
102
RTVSPost2010PropOp35
 70
     1
102
RTVSPost2010Prop36
280
     0
102
RTVSPost2010PropOp36
 70
     1
102
RTVSPost2010Prop37
 90
       50
102
RTVSPost2010PropOp37
 70
     1
102
RTVSPost2010Prop38
140
0.0
102
RTVSPost2010PropOp38
 70
     1
102
RTVSPost2010Prop39
140
1.0
102
RTVSPost2010PropOp39
 70
     1
102
RTVSPost2010Prop40
 90
        0
102
RTVSPost2010PropOp40
 70
     1
102
RTVSPost2010Prop41ColorIndex
 90
       18
102
RTVSPost2010Prop41ColorRGB
 90
        0
102
RTVSPost2010PropOp41
 70
     1
102
RTVSPost2010Prop42
 90
       50
102
RTVSPost2010PropOp42
 70
     1
102
RTVSPost2010Prop43
 90
        3
102
RTVSPost2010PropOp43
 70
     1
102
RTVSPost2010Prop44ColorIndex
 90
        5
102
RTVSPost2010Prop44ColorRGB
 90
      255
102
RTVSPost2010PropOp44
 70
     1
102
RTVSPost2010Prop45
280
     0
102
RTVSPost2010PropOp45
 70
     1
102
RTVSPost2010Prop46
 90
       50
102
RTVSPost2010PropOp46
 70
     1
102
RTVSPost2010Prop47
 90
       50
102
RTVSPost2010PropOp47
 70
     1
102
RTVSPost2010Prop48
 90
       50
102
RTVSPost2010PropOp48
 70
     1
102
RTVSPost2010Prop49
280
     0
102
RTVSPost2010PropOp49
 70
     1
102
RTVSPost2010Prop50
 90
       50
102
RTVSPost2010PropOp50
 70
     1
102
RTVSPost2010Prop51ColorIndex
 90
      256
102
RTVSPost2010Prop51ColorRGB
 90
-16777216
102
RTVSPost2010PropOp51
 70
     0
102
RTVSPost2010Prop52
140
1.0
102
RTVSPost2010PropOp52
 70
     0
102
RTVSPost2010Prop53
 90
        2
102
RTVSPost2010PropOp53
 70
     1
102
RTVSPost2010Prop54
  1
strokes_ogs.tif
102
RTVSPost2010PropOp54
 70
     1
102
RTVSPost2010Prop55
280
     0
102
RTVSPost2010PropOp55
 70
     1
102
RTVSPost2010Prop56
140
1.0
102
RTVSPost2010PropOp56
 70
     1
102
RTVSPost2010Prop57
140
1.0
102
RTVSPost2010PropOp57
 70
     1
102
RTVSPropertyOp0
 70
     1
102
RTVSPropertyOp1
 70
     1
102
RTVSPropertyOp2
 70
     1
102
RTVSPropertyOp3
 70
     1
102
RTVSPropertyOp4
 70
     1
102
RTVSPropertyOp5
 70
     1
102
RTVSPropertyOp6
 70
     1
102
RTVSPropertyOp7
 70
     1
102
RTVSPropertyOp8
 70
     1
102
RTVSPropertyOp9
 70
     1
102
RTVSPropertyOp10
 70
     1
102
RTVSPropertyOp11
 70
     1
102
RTVSPropertyOp12
 70
     1
102
RTVSPropertyOp13
 70
     1
102
RTVSPropertyOp14
 70
     1
102
RTVSPropertyOp15
 70
     1
102
RTVSPropertyOp16
 70
     1
102
RTVSPropertyOp17
 70
     1
102
RTVSPropertyOp18
 70
     1
102
RTVSPropertyOp19
 70
     1
102
RTVSPropertyOp20
 70
     1
102
RTVSPropertyOp21
 70
     1
102
RTVSPropertyOp22
 70
     1
102
RTVSPropertyOp23
 70
     1
102
RTVSPropertyOp24
 70
     1
102
RTVSPropertyOp25
 70
     1
102
RTVSPropertyOp26
 70
     1
102
RTVSPropertyOp27
 70
     1
102
RTVSPropertyOp28
 70
     1
102
RTVSPropertyOp29
 70
     1
102
RTVSPropertyOp30
 70
     1
102
RTVSPropertyOp31
 70
     1
102
RTVSPropertyOp32
 70
     1
102
RTVSPropertyOp33
 70
     1
102
RTVSPropertyOp34
 70
     1
102
RTVSPropertyOp35
 70
     1
102
RTVSPropertyOp36
 70
     1
102
RTVSPropertyOp37
 70
     1
102
RTVSPropertyOp38
 70
     1
102
RTVSPropertyOp39
 70
     1
102
RTVSPropertyOp40
 70
     1
102
RTVSPropertyOp41
 70
     1
102
RTVSPropertyOp42
 70
     1
102
RTVSPropertyOp43
 70
     1
102
RTVSPropertyOp44
 70
     1
102
RTVSPropertyOp45
 70
     1
102
RTVSPropertyOp46
 70
     1
102
RTVSPropertyOp47
 70
     1
102
RTVSPropertyOp48
 70
     1
102
RTVSPropertyOp49
 70
     1
102
RTVSPropertyOp50
 70
     1
102
RTVSPropertyOp51
 70
     0
102
RTVSPropertyOp52
 70
     0
102
RTVSPropertyOp53
 70
     1
102
RTVSPropertyOp54
 70
     1
102
RTVSPropertyOp55
 70
     1
102
RTVSPropertyOp56
 70
     1
102
RTVSPropertyOp57
 70
     1
102
RTVSPropertyOp58
 70
     1
102
RTVSPropertyOp59
 70
     1
102
RTVSPropertyOp60
 70
     1
102
RTVSPropertyOp61
 70
     1
102
RTVSPropertyOp62
 70
     1
  0
ENDSEC
  0
EOF
