  0
SECTION
  2
HEADER
  9
$ACADVER
  1
AC1018
  9
$ACADMAINTVER
 70
    76
  9
$DWGCODEPAGE
  3
ANSI_1252
  9
$INSBASE
 10
0.0
 20
0.0
 30
0.0
  9
$EXTMIN
 10
-0.0003356677483914
 20
-0.0002593796237598
 30
-0.0015258207003583
  9
$EXTMAX
 10
11.00033571897113
 20
8.500259419204969
 30
0.0000000349246037
  9
$LIMMIN
 10
0.0
 20
0.0
  9
$LIMMAX
 10
11.0
 20
8.5
  9
$ORTHOMODE
 70
     0
  9
$REGENMODE
 70
     1
  9
$FILLMODE
 70
     1
  9
$QTEXTMODE
 70
     0
  9
$MIRRTEXT
 70
     0
  9
$LTSCALE
 40
0.605
  9
$ATTMODE
 70
     1
  9
$TEXTSIZE
 40
0.2
  9
$TRACEWID
 40
0.05
  9
$TEXTSTYLE
  7
STANDARD
  9
$CLAYER
  8
0
  9
$CELTYPE
  6
BYLAYER
  9
$CECOLOR
 62
   256
  9
$CELTSCALE
 40
1.0
  9
$DISPSILH
 70
     0
  9
$DIMSCALE
 40
1.0
  9
$DIMASZ
 40
0.1875
  9
$DIMEXO
 40
0.06875
  9
$DIMDLI
 40
0.418
  9
$DIMRND
 40
0.0
  9
$DIMDLE
 40
0.0
  9
$DIMEXE
 40
0.198
  9
$DIMTP
 40
0.0
  9
$DIMTM
 40
0.0
  9
$DIMTXT
 40
0.15625
  9
$DIMCEN
 40
0.099
  9
$DIMTSZ
 40
0.0
  9
$DIMTOL
 70
     0
  9
$DIMLIM
 70
     0
  9
$DIMTIH
 70
     1
  9
$DIMTOH
 70
     1
  9
$DIMSE1
 70
     0
  9
$DIMSE2
 70
     0
  9
$DIMTAD
 70
     0
  9
$DIMZIN
 70
     0
  9
$DIMBLK
  1

  9
$DIMASO
 70
     1
  9
$DIMSHO
 70
     1
  9
$DIMPOST
  1

  9
$DIMAPOST
  1

  9
$DIMALT
 70
     0
  9
$DIMALTD
 70
     2
  9
$DIMALTF
 40
25.4
  9
$DIMLFAC
 40
1.0
  9
$DIMTOFL
 70
     0
  9
$DIMTVP
 40
0.0
  9
$DIMTIX
 70
     0
  9
$DIMSOXD
 70
     0
  9
$DIMSAH
 70
     0
  9
$DIMBLK1
  1

  9
$DIMBLK2
  1

  9
$DIMSTYLE
  2
STANDARD
  9
$DIMCLRD
 70
     0
  9
$DIMCLRE
 70
     0
  9
$DIMCLRT
 70
     0
  9
$DIMTFAC
 40
1.0
  9
$DIMGAP
 40
0.09
  9
$DIMJUST
 70
     0
  9
$DIMSD1
 70
     0
  9
$DIMSD2
 70
     0
  9
$DIMTOLJ
 70
     1
  9
$DIMTZIN
 70
     0
  9
$DIMALTZ
 70
     0
  9
$DIMALTTZ
 70
     0
  9
$DIMUPT
 70
     0
  9
$DIMDEC
 70
     4
  9
$DIMTDEC
 70
     4
  9
$DIMALTU
 70
     2
  9
$DIMALTTD
 70
     2
  9
$DIMTXSTY
  7
STANDARD
  9
$DIMAUNIT
 70
     0
  9
$DIMADEC
 70
     0
  9
$DIMALTRND
 40
0.0
  9
$DIMAZIN
 70
     0
  9
$DIMDSEP
 70
    46
  9
$DIMATFIT
 70
     3
  9
$DIMFRAC
 70
     0
  9
$DIMLDRBLK
  1

  9
$DIMLUNIT
 70
     2
  9
$DIMLWD
 70
    -2
  9
$DIMLWE
 70
    -2
  9
$DIMTMOVE
 70
     0
  9
$LUNITS
 70
     2
  9
$LUPREC
 70
     4
  9
$SKETCHINC
 40
0.1
  9
$FILLETRAD
 40
0.0
  9
$AUNITS
 70
     0
  9
$AUPREC
 70
     0
  9
$MENU
  1
.
  9
$ELEVATION
 40
0.0
  9
$PELEVATION
 40
0.0
  9
$THICKNESS
 40
0.0
  9
$LIMCHECK
 70
     0
  9
$CHAMFERA
 40
0.0
  9
$CHAMFERB
 40
0.0
  9
$CHAMFERC
 40
0.0
  9
$CHAMFERD
 40
0.0
  9
$SKPOLY
 70
     0
  9
$TDCREATE
 40
2456541.635420671
  9
$TDUCREATE
 40
2456541.843754005
  9
$TDUPDATE
 40
2456541.635953426
  9
$TDUUPDATE
 40
2456541.844286760
  9
$TDINDWG
 40
0.0005367361
  9
$TDUSRTIMER
 40
0.0005367361
  9
$USRTIMER
 70
     1
  9
$ANGBASE
 50
0.0
  9
$ANGDIR
 70
     0
  9
$PDMODE
 70
     3
  9
$PDSIZE
 40
0.3125
  9
$PLINEWID
 40
0.0
  9
$SPLFRAME
 70
     0
  9
$SPLINETYPE
 70
     6
  9
$SPLINESEGS
 70
     8
  9
$HANDSEED
  5
4D4
  9
$SURFTAB1
 70
     6
  9
$SURFTAB2
 70
     6
  9
$SURFTYPE
 70
     6
  9
$SURFU
 70
     6
  9
$SURFV
 70
     6
  9
$UCSBASE
  2

  9
$UCSNAME
  2

  9
$UCSORG
 10
0.0
 20
0.0
 30
0.0
  9
$UCSXDIR
 10
1.0
 20
0.0
 30
0.0
  9
$UCSYDIR
 10
0.0
 20
1.0
 30
0.0
  9
$UCSORTHOREF
  2

  9
$UCSORTHOVIEW
 70
     0
  9
$UCSORGTOP
 10
0.0
 20
0.0
 30
0.0
  9
$UCSORGBOTTOM
 10
0.0
 20
0.0
 30
0.0
  9
$UCSORGLEFT
 10
0.0
 20
0.0
 30
0.0
  9
$UCSORGRIGHT
 10
0.0
 20
0.0
 30
0.0
  9
$UCSORGFRONT
 10
0.0
 20
0.0
 30
0.0
  9
$UCSORGBACK
 10
0.0
 20
0.0
 30
0.0
  9
$PUCSBASE
  2

  9
$PUCSNAME
  2

  9
$PUCSORG
 10
0.0
 20
0.0
 30
0.0
  9
$PUCSXDIR
 10
1.0
 20
0.0
 30
0.0
  9
$PUCSYDIR
 10
0.0
 20
1.0
 30
0.0
  9
$PUCSORTHOREF
  2

  9
$PUCSORTHOVIEW
 70
     0
  9
$PUCSORGTOP
 10
0.0
 20
0.0
 30
0.0
  9
$PUCSORGBOTTOM
 10
0.0
 20
0.0
 30
0.0
  9
$PUCSORGLEFT
 10
0.0
 20
0.0
 30
0.0
  9
$PUCSORGRIGHT
 10
0.0
 20
0.0
 30
0.0
  9
$PUCSORGFRONT
 10
0.0
 20
0.0
 30
0.0
  9
$PUCSORGBACK
 10
0.0
 20
0.0
 30
0.0
  9
$USERI1
 70
     0
  9
$USERI2
 70
     0
  9
$USERI3
 70
     0
  9
$USERI4
 70
     0
  9
$USERI5
 70
     0
  9
$USERR1
 40
0.0
  9
$USERR2
 40
0.0
  9
$USERR3
 40
0.0
  9
$USERR4
 40
0.0
  9
$USERR5
 40
0.0
  9
$WORLDVIEW
 70
     1
  9
$SHADEDGE
 70
     3
  9
$SHADEDIF
 70
    70
  9
$TILEMODE
 70
     1
  9
$MAXACTVP
 70
    64
  9
$PINSBASE
 10
0.0
 20
0.0
 30
0.0
  9
$PLIMCHECK
 70
     0
  9
$PEXTMIN
 10
1.000000000000000E+20
 20
1.000000000000000E+20
 30
1.000000000000000E+20
  9
$PEXTMAX
 10
-1.000000000000000E+20
 20
-1.000000000000000E+20
 30
-1.000000000000000E+20
  9
$PLIMMIN
 10
0.0
 20
0.0
  9
$PLIMMAX
 10
12.0
 20
9.0
  9
$UNITMODE
 70
     0
  9
$VISRETAIN
 70
     1
  9
$PLINEGEN
 70
     0
  9
$PSLTSCALE
 70
     1
  9
$TREEDEPTH
 70
  3020
  9
$CMLSTYLE
  2
Standard
  9
$CMLJUST
 70
     0
  9
$CMLSCALE
 40
1.0
  9
$PROXYGRAPHICS
 70
     1
  9
$MEASUREMENT
 70
     0
  9
$CELWEIGHT
370
    -1
  9
$ENDCAPS
280
     0
  9
$JOINSTYLE
280
     0
  9
$LWDISPLAY
290
     0
  9
$INSUNITS
 70
     1
  9
$HYPERLINKBASE
  1

  9
$STYLESHEET
  1

  9
$XEDIT
290
     1
  9
$CEPSNTYPE
380
     0
  9
$PSTYLEMODE
290
     1
  9
$FINGERPRINTGUID
  2
{2DB2B98D-0ECB-410A-9A43-8911503636E7}
  9
$VERSIONGUID
  2
{8BE2A36E-F6C6-4FF5-B869-12DCFCBDA5B3}
  9
$EXTNAMES
290
     1
  9
$PSVPSCALE
 40
0.0
  9
$OLESTARTUP
290
     0
  9
$SORTENTS
280
   127
  9
$INDEXCTL
280
     0
  9
$HIDETEXT
280
     1
  9
$XCLIPFRAME
290
     0
  9
$HALOGAP
280
     0
  9
$OBSCOLOR
 70
   257
  9
$OBSLTYPE
280
     0
  9
$INTERSECTIONDISPLAY
280
     0
  9
$INTERSECTIONCOLOR
 70
   257
  9
$DIMASSOC
280
     2
  9
$PROJECTNAME
  1

  0
ENDSEC
  0
SECTION
  2
CLASSES
  0
CLASS
  1
ACDBDICTIONARYWDFLT
  2
AcDbDictionaryWithDefault
  3
ObjectDBX Classes
 90
        0
 91
        1
280
     0
281
     0
  0
CLASS
  1
TABLESTYLE
  2
AcDbTableStyle
  3
ObjectDBX Classes
 90
     2047
 91
        1
280
     0
281
     0
  0
CLASS
  1
AMGSETTINGSOBJ
  2
AmgSettingsObj
  3
"AcadM|Product Description: AutoCAD Mechanical 2000|Company: Autodesk"
 90
        0
 91
        2
280
     0
281
     0
  0
CLASS
  1
ACME_DOCUMENT
  2
AcMeDbDoc
  3
AcMeServices
 90
        0
 91
        1
280
     0
281
     0
  0
CLASS
  1
ACMESCOPE
  2
AcMeScope
  3
AcMeServices
 90
        0
 91
        1
280
     0
281
     0
  0
CLASS
  1
ACMECOMMANDHISTORY
  2
AcMeCommandHistory
  3
AcMeServices
 90
        0
 91
        1
280
     0
281
     0
  0
CLASS
  1
ACIMSYSVARMAN
  2
AcImSysVarManager
  3
AcMeServices
 90
        0
 91
        5
280
     0
281
     0
  0
CLASS
  1
ACIMINTSYSVAR
  2
AcImIntSysVar
  3
AcMeServices
 90
        0
 91
       26
280
     0
281
     0
  0
CLASS
  1
ACMEDRAWINGMAN
  2
AcMeDrawingMan
  3
AcMeServices
 90
        0
 91
        1
280
     0
281
     0
  0
CLASS
  1
ACMEVIEW
  2
AcMeView
  3
AcMeServices
 90
        0
 91
        1
280
     0
281
     0
  0
CLASS
  1
ACDBENTITYCACHE
  2
AcMeEntityCache
  3
AcMeServices
 90
        0
 91
        1
280
     0
281
     0
  0
CLASS
  1
GSMANAGER
  2
AcMeGSManager
  3
AcMeServices
 90
        0
 91
        1
280
     0
281
     0
  0
CLASS
  1
AMDTINTERNALREACTOR
  2
AmdtInternalReactor
  3
AcMeServices
 90
        0
 91
        2
280
     0
281
     0
  0
CLASS
  1
ACMESTATEMGR
  2
AcMeStateMgr
  3
AcMeServices
 90
        0
 91
        1
280
     0
281
     0
  0
CLASS
  1
ACGREFMASTER
  2
AcGrefMaster
  3
AcAttribServices
 90
        0
 91
        1
280
     0
281
     0
  0
CLASS
  1
AM_DRAWING_MGR
  2
AcDmDwgMgr
  3
AcMechDwgViewMgmt
 90
        0
 91
        1
280
     0
281
     0
  0
CLASS
  1
AM_DWG_DOCUMENT
  2
AcDmDwgDocument
  3
AcMechDwgViewMgmt
 90
        0
 91
        1
280
     0
281
     0
  0
CLASS
  1
AM_DWG_SHEET
  2
AcDmSheet
  3
AcMechDwgViewMgmt
 90
        0
 91
        1
280
     0
281
     0
  0
CLASS
  1
AM_VIEWDIMPARMAP
  2
AcDmViewDimParMap
  3
AcMechDwgViewMgmt
 90
        0
 91
        1
280
     0
281
     0
  0
CLASS
  1
ACIMREALSYSVAR
  2
AcImRealSysVar
  3
AcMeServices
 90
        0
 91
        1
280
     0
281
     0
  0
CLASS
  1
AM_DWGMGR_NAME
  2
AcDmDwgMgrName
  3
AcMechDwgViewMgmt
 90
        0
 91
        1
280
     0
281
     0
  0
CLASS
  1
ACME_DATABASE
  2
AcMeDbDatabase
  3
AcMeServices
 90
        0
 91
        3
280
     0
281
     0
  0
CLASS
  1
ACRFINSADJUSTERMGR
  2
AcRfInsAdjusterMgr
  3
AcMeServices
 90
        0
 91
        1
280
     0
281
     0
  0
CLASS
  1
ACGREFACADMASTER
  2
AcGrefacadMaster
  3
AcGrefServices
 90
        0
 91
        1
280
     0
281
     0
  0
CLASS
  1
AMDTMENUSTATEMGR
  2
AmdtMenuStateMgr
  3
McadcomServices
 90
        0
 91
        1
280
     0
281
     0
  0
CLASS
  1
AMDTMCOMMENUSTATE
  2
AmdtMcomMenuState
  3
McadcomServices
 90
        0
 91
        1
280
     0
281
     0
  0
CLASS
  1
AMIMASTER
  2
AmiMaster
  3
AmiServices
 90
        0
 91
        1
280
     0
281
     0
  0
CLASS
  1
MAPIAMMOUDLE
  2
MApiAmModule
  3
MApiAmServices
 90
        0
 91
        1
280
     0
281
     0
  0
CLASS
  1
ACIMSTRSYSVAR
  2
AcImStrSysVar
  3
AcMeServices
 90
        0
 91
        5
280
     0
281
     0
  0
CLASS
  1
AMDTADMENUSTATE
  2
AmdtAdMenuState
  3
DesignerServices
 90
        0
 91
        1
280
     0
281
     0
  0
CLASS
  1
ADAPPL
  2
AcAdAppl
  3
DesignerServices
 90
        0
 91
        1
280
     0
281
     0
  0
CLASS
  1
DEPMGR
  2
AcAdDepMgr
  3
DesignerServices
 90
        0
 91
        1
280
     0
281
     0
  0
CLASS
  1
PARAMMGR
  2
AcAdParamMgr
  3
DesignerServices
 90
        0
 91
        1
280
     0
281
     0
  0
CLASS
  1
PARAMSCOPE
  2
AcAdParamScope
  3
DesignerServices
 90
        0
 91
        1
280
     0
281
     0
  0
CLASS
  1
NAMEDAPPL
  2
AcAdNamedAppl
  3
DesignerServices
 90
        0
 91
        1
280
     0
281
     0
  0
CLASS
  1
AMDTDMMENUSTATE
  2
AmdtDmMenuState
  3
AcMechDwgViewMgmt
 90
        0
 91
        1
280
     0
281
     0
  0
CLASS
  1
AMDTAMMENUSTATE
  2
AmdtAmMenuState
  3
DesignerAssemblies
 90
        0
 91
        1
280
     0
281
     0
  0
CLASS
  1
ACAMPROJECT
  2
AcAmProject
  3
DesignerAssemblies
 90
        0
 91
        1
280
     0
281
     0
  0
CLASS
  1
ACAMGRCOMPDEF
  2
AcAmGrCompDef
  3
DesignerAssemblies
 90
        0
 91
        1
280
     0
281
     0
  0
CLASS
  1
ACCMCONTEXT
  2
AcCmContext
  3
DesignerAssemblies
 90
        0
 91
        1
280
     0
281
     0
  0
CLASS
  1
ACAMCOMPDEF
  2
AcAmCompDef
  3
DesignerAssemblies
 90
        0
 91
        1
280
     0
281
     0
  0
CLASS
  1
ACAMCOMPDEFMGR
  2
AcAmCompDefMgr
  3
DesignerAssemblies
 90
        0
 91
        1
280
     0
281
     0
  0
CLASS
  1
AMCONTEXTMGR
  2
AcAmContextMgr
  3
DesignerAssemblies
 90
        0
 91
        1
280
     0
281
     0
  0
CLASS
  1
ACAMCONTEXTMODELER
  2
AcAmContextModeler
  3
DesignerAssemblies
 90
        0
 91
        1
280
     0
281
     0
  0
CLASS
  1
ACMDATADICTIONARY
  2
AcmDataDictionary
  3
"AcmSymBB|Product Description: AutoCAD Mechanical 2004 DX|Company: Autodesk"
 90
        0
 91
        1
280
     0
281
     0
  0
CLASS
  1
CATALOGSTATE
  2
AcAmCatalogState
  3
DesignerAssemblies
 90
        0
 91
        1
280
     0
281
     0
  0
CLASS
  1
ACAMGRCOMPDEFSET
  2
AcAmGrCompDefSet
  3
DesignerAssemblies
 90
        0
 91
        1
280
     0
281
     0
  0
CLASS
  1
AMDTBROWSERDBTAB
  2
AmdtBrowserDbTab
  3
McadcomServices
 90
        0
 91
        1
280
     0
281
     0
  0
CLASS
  1
CBROWSERAPPOBJECT
  2
CBrowserAppObject
  3
McadcomServices
 90
        0
 91
        3
280
     0
281
     0
  0
CLASS
  1
DM_PLACEHOLDER
  2
AcDmSelsetPlaceholder
  3
AcMechDwgViewMgmt
 90
        0
 91
        1
280
     0
281
     0
  0
CLASS
  1
ACMSTANDARDANSI
  2
AcmStandardANSI
  3
"Amdt_StdImp|Product Description: AutoCAD Mechanical 2004 DX|Company: Autodesk"
 90
        0
 91
        1
280
     0
281
     0
  0
CLASS
  1
AMGOBJPROPCFG
  2
AmgObjPropCfg
  3
"AmgLay|Product Description: AutoCAD Mechanical 2000|Company: Autodesk"
 90
        1
 91
        1
280
     0
281
     0
  0
CLASS
  1
ACMSURFSTANDARDANSI
  2
AcmSurfTextStdANSI
  3
"Amdt_StdImp|Product Description: AutoCAD Mechanical 2004 DX|Company: Autodesk"
 90
        0
 91
        1
280
     0
281
     0
  0
CLASS
  1
ACMFCFSTANDARDANSI
  2
AcmFCFStdANSI
  3
"Amdt_StdImp|Product Description: AutoCAD Mechanical 2004 DX|Company: Autodesk"
 90
        0
 91
        1
280
     0
281
     0
  0
CLASS
  1
ACMWELDSTANDARDANSI
  2
AcmWeldingStdANSI
  3
"Amdt_StdImp|Product Description: AutoCAD Mechanical 2004 DX|Company: Autodesk"
 90
        0
 91
        1
280
     0
281
     0
  0
CLASS
  1
ACMIDSTANDARDANSI
  2
AcmIdStdANSI
  3
"Amdt_StdImp|Product Description: AutoCAD Mechanical 2004 DX|Company: Autodesk"
 90
        0
 91
        1
280
     0
281
     0
  0
CLASS
  1
ACMDATUMSTANDARDANSI
  2
AcmDatumStdANSI
  3
"Amdt_StdImp|Product Description: AutoCAD Mechanical 2004 DX|Company: Autodesk"
 90
        0
 91
        1
280
     0
281
     0
  0
CLASS
  1
ACMBOMSTANDARDANSI
  2
AcmBOMStdANSI
  3
"Amdt_StdImp|Product Description: AutoCAD Mechanical 2004 DX|Company: Autodesk"
 90
        0
 91
        1
280
     0
281
     0
  0
CLASS
  1
ACMDETAILSTANDARDANSI
  2
AmdtDetailSymStdANSI
  3
"Amdt_StdImp|Product Description: AutoCAD Mechanical 2004 DX|Company: Autodesk"
 90
        0
 91
        1
280
     0
281
     0
  0
CLASS
  1
ACMSECTIONSTANDARDANSI
  2
AmdtSectionSymStdANSI
  3
"Amdt_StdImp|Product Description: AutoCAD Mechanical 2004 DX|Company: Autodesk"
 90
        0
 91
        1
280
     0
281
     0
  0
CLASS
  1
ACMCENTERLINESTANDARDANSI
  2
AmdtCenterLineStdANSI
  3
"Amdt_StdImp|Product Description: AutoCAD Mechanical 2004 DX|Company: Autodesk"
 90
        0
 91
        1
280
     0
281
     0
  0
CLASS
  1
ACMTHREADLINESTANDARDANSI
  2
AmdtThreadLineStdANSI
  3
"Amdt_StdImp|Product Description: AutoCAD Mechanical 2004 DX|Company: Autodesk"
 90
        0
 91
        1
280
     0
281
     0
  0
CLASS
  1
ACMNOTESTANDARDANSI
  2
AmdtNoteStdANSI
  3
"Amdt_StdImp|Product Description: AutoCAD Mechanical 2004 DX|Company: Autodesk"
 90
        0
 91
        1
280
     0
281
     0
  0
CLASS
  1
AMDTNOTETEMPLATEDB
  2
AmdtNoteTemplateDB
  3
AMDT_STDIMP_MODULE_NAME
 90
        0
 91
        6
280
     0
281
     0
  0
CLASS
  1
ACAMGLAYSTD
  2
AcAmgLayStd
  3
"AcAmgLayStd|Product Description: AutoCAD Mechanical 2000|Company: Autodesk"
 90
        0
 91
        1
280
     0
281
     0
  0
CLASS
  1
ACAMGDIMSTD
  2
AcAmgDimStd
  3
"AcAmgDimStd|Product Description: AutoCAD Mechanical 2000|Company: Autodesk"
 90
        0
 91
        1
280
     0
281
     0
  0
CLASS
  1
ACAMGHOLECHARTSTDANSI
  2
AcAmgHoleChartStdANSI
  3
ACMSYMBB_MODULE_NAME
 90
        0
 91
        1
280
     0
281
     0
  0
CLASS
  1
ACAMGTITLESTD
  2
AcAmgTitleStd
  3
"TITLEAPP"
 90
        0
 91
        1
280
     0
281
     0
  0
CLASS
  1
ACMDATAENTRYBLOCK
  2
AcmDataEntryBlock
  3
"AcmSymBB|Product Description: AutoCAD Mechanical 2004 DX|Company: Autodesk"
 90
        0
 91
        2
280
     0
281
     0
  0
CLASS
  1
ACAMGFILTERDAT
  2
AcAmgFilterDat
  3
"AcadM|Product Description: AutoCAD Mechanical 2000|Company: Autodesk"
 90
        0
 91
        6
280
     0
281
     0
  0
CLASS
  1
ACRFATTGENMGR
  2
AcRfAttGeneralMgr
  3
AcAttribServices
 90
        0
 91
        1
280
     0
281
     0
  0
CLASS
  1
DICTIONARYVAR
  2
AcDbDictionaryVar
  3
ObjectDBX Classes
 90
        0
 91
        1
280
     0
281
     0
  0
ENDSEC
  0
SECTION
  2
TABLES
  0
TABLE
  2
VPORT
  5
8
330
0
100
AcDbSymbolTable
 70
     3
  0
VPORT
  5
4D3
330
8
100
AcDbSymbolTableRecord
100
AcDbViewportTableRecord
  2
*Active
 70
     0
 10
0.0
 20
0.0
 11
1.0
 21
1.0
 12
5.500000025611372
 22
4.250000019790604
 13
0.0
 23
0.0
 14
1.0
 24
1.0
 15
0.0
 25
0.0
 16
0.0
 26
0.0
 36
1.0
 17
0.0
 27
0.0
 37
0.0
 40
8.581993419903763
 41
1.735999999999999
 42
50.0
 43
0.0
 44
0.0
 50
0.0
 51
0.0
 71
     0
 72
   100
 73
     1
 74
     1
 75
     0
 76
     0
 77
     0
 78
     0
281
     0
 65
     0
110
0.0
120
0.0
130
0.0
111
1.0
121
0.0
131
0.0
112
0.0
122
1.0
132
0.0
 79
     0
146
0.0
  0
ENDTAB
  0
TABLE
  2
LTYPE
  5
5
330
0
100
AcDbSymbolTable
 70
    19
  0
LTYPE
  5
14
330
5
100
AcDbSymbolTableRecord
100
AcDbLinetypeTableRecord
  2
BYBLOCK
 70
     0
  3

 72
    65
 73
     0
 40
0.0
  0
LTYPE
  5
15
330
5
100
AcDbSymbolTableRecord
100
AcDbLinetypeTableRecord
  2
BYLAYER
 70
     0
  3

 72
    65
 73
     0
 40
0.0
  0
LTYPE
  5
16
330
5
100
AcDbSymbolTableRecord
100
AcDbLinetypeTableRecord
  2
CONTINUOUS
 70
     0
  3
Solid line
 72
    65
 73
     0
 40
0.0
  0
LTYPE
  5
1F5
330
5
100
AcDbSymbolTableRecord
100
AcDbLinetypeTableRecord
  2
CENTER
 70
     0
  3
____ _ ____ _ ____ _ ____ _ ____ _ ____ _ ____
 72
    65
 73
     4
 40
0.6
 49
0.375
 74
     0
 49
-0.075
 74
     0
 49
0.075
 74
     0
 49
-0.075
 74
     0
  0
LTYPE
  5
1F6
330
5
100
AcDbSymbolTableRecord
100
AcDbLinetypeTableRecord
  2
HIDDEN
 70
     0
  3
- - - - - - - - - - - - - - - - - - - -
 72
    65
 73
     2
 40
0.2
 49
0.1
 74
     0
 49
-0.1
 74
     0
  0
LTYPE
  5
1F7
330
5
100
AcDbSymbolTableRecord
100
AcDbLinetypeTableRecord
  2
PHANTOM
 70
     0
  3
_____ _ _ _____ _ _ _____ _ _ _____
 72
    65
 73
     6
 40
0.8
 49
0.45
 74
     0
 49
-0.05
 74
     0
 49
0.1
 74
     0
 49
-0.05
 74
     0
 49
0.1
 74
     0
 49
-0.05
 74
     0
  0
LTYPE
  5
1F8
330
5
100
AcDbSymbolTableRecord
100
AcDbLinetypeTableRecord
  2
DOT
 70
     0
  3
. . . . . . . . . . . . . . . . . . . .
 72
    65
 73
     2
 40
0.2
 49
0.1
 74
     0
 49
-0.1
 74
     0
  0
LTYPE
  5
1F9
330
5
100
AcDbSymbolTableRecord
100
AcDbLinetypeTableRecord
  2
DASHED
 70
     0
  3
- - - - - - - - - - - - - - - - - - - -
 72
    65
 73
     2
 40
0.2
 49
0.1
 74
     0
 49
-0.1
 74
     0
  0
LTYPE
  5
3CB
330
5
100
AcDbSymbolTableRecord
100
AcDbLinetypeTableRecord
  2
PHANTOM2
 70
     0
  3
Phantom (.5x) ___ _ _ ___ _ _ ___ _ _ ___ _ _
 72
    65
 73
     6
 40
1.25
 49
0.625
 74
     0
 49
-0.125
 74
     0
 49
0.125
 74
     0
 49
-0.125
 74
     0
 49
0.125
 74
     0
 49
-0.125
 74
     0
  0
LTYPE
  5
3FF
330
5
100
AcDbSymbolTableRecord
100
AcDbLinetypeTableRecord
  2
AM_ISO02W050
 70
     0
  3
__ __ __ __ __ __ __ __ __ __ __ __ __ __ __
 72
    65
 73
     2
 40
7.5
 49
6.0
 74
     0
 49
-1.5
 74
     0
  0
LTYPE
  5
400
330
5
100
AcDbSymbolTableRecord
100
AcDbLinetypeTableRecord
  2
AM_ISO08W050
 70
     0
  3
____ . ____ . ____ . ____ . ____ . ____ . ____
 72
    65
 73
     4
 40
18.0
 49
12.0
 74
     0
 49
-1.5
 74
     0
 49
3.0
 74
     0
 49
-1.5
 74
     0
  0
LTYPE
  5
401
330
5
100
AcDbSymbolTableRecord
100
AcDbLinetypeTableRecord
  2
AM_ISO09W050
 70
     0
  3
_____ . . _____ . . _____ . . ____ .. ____
 72
    65
 73
     6
 40
22.5
 49
12.0
 74
     0
 49
-1.5
 74
     0
 49
3.0
 74
     0
 49
-1.5
 74
     0
 49
3.0
 74
     0
 49
-1.5
 74
     0
  0
LTYPE
  5
402
330
5
100
AcDbSymbolTableRecord
100
AcDbLinetypeTableRecord
  2
Amconstr
 70
     0
  3
_______________________
 72
    65
 73
     2
 40
9999.0
 49
9999.0
 74
     0
 49
0.0
 74
     0
  0
LTYPE
  5
403
330
5
100
AcDbSymbolTableRecord
100
AcDbLinetypeTableRecord
  2
AM_ISO08W050x2
 70
     0
  3
__ . __ . __ . __ . __ . __
 72
    65
 73
     4
 40
9.0
 49
6.0
 74
     0
 49
-0.75
 74
     0
 49
1.5
 74
     0
 49
-0.75
 74
     0
  0
LTYPE
  5
404
330
5
100
AcDbSymbolTableRecord
100
AcDbLinetypeTableRecord
  2
AM_ISO02W050x2
 70
     0
  3
 _ _ _ _ _ _ _ _ _ _ _ _
 72
    65
 73
     2
 40
3.75
 49
3.0
 74
     0
 49
-0.75
 74
     0
  0
LTYPE
  5
407
330
5
100
AcDbSymbolTableRecord
100
AcDbLinetypeTableRecord
  2
Amzigzag
 70
     0
  3
/\/-/\/-/\/-/\/-/\/-/\/
 72
    65
 73
     2
 40
11.0001
 49
0.0001
 74
     4
 75
   136
340
406
 46
0.04
 50
0.0
 44
0.0
 45
0.0
 49
-11.0
 74
     0
  0
LTYPE
  5
408
330
5
100
AcDbSymbolTableRecord
100
AcDbLinetypeTableRecord
  2
CENTER2
 70
     0
  3
Center (.5x) ___ _ ___ _ ___ _ ___ _ ___ _ ___
 72
    65
 73
     4
 40
1.125
 49
0.75
 74
     0
 49
-0.125
 74
     0
 49
0.125
 74
     0
 49
-0.125
 74
     0
  0
LTYPE
  5
409
330
5
100
AcDbSymbolTableRecord
100
AcDbLinetypeTableRecord
  2
HIDDEN2
 70
     0
  3
Hidden (.5x) _ _ _ _ _ _ _ _ _ _ _ _ _ _ _ _ _
 72
    65
 73
     2
 40
0.1875
 49
0.125
 74
     0
 49
-0.0625
 74
     0
  0
LTYPE
  5
40A
330
5
100
AcDbSymbolTableRecord
100
AcDbLinetypeTableRecord
  2
Amzigzag2
 70
     0
  3
/\/-/\/-/\/-/\/-/\/-/\/
 72
    65
 73
     2
 40
0.4401
 49
0.0001
 74
     4
 75
   136
340
406
 46
0.0016
 50
0.0
 44
0.0
 45
0.0
 49
-0.4400000000000001
 74
     0
  0
LTYPE
  5
418
330
5
100
AcDbSymbolTableRecord
100
AcDbLinetypeTableRecord
  2
ACANSTGB
 70
     0
  3
__ . . __ . .
 72
    65
 73
     6
 40
0.35433070866
 49
0.15748031496
 74
     0
 49
-0.03937007874
 74
     0
 49
0.03937007874
 74
     0
 49
-0.03937007874
 74
     0
 49
0.03937007874
 74
     0
 49
-0.03937007874
 74
     0
  0
LTYPE
  5
419
330
5
100
AcDbSymbolTableRecord
100
AcDbLinetypeTableRecord
  2
ACANSTGL
 70
     0
  3
_ _ _ _ _
 72
    65
 73
     2
 40
0.11811023622
 49
0.07874015748
 74
     0
 49
-0.03937007874
 74
     0
  0
ENDTAB
  0
TABLE
  2
LAYER
  5
2
330
0
100
AcDbSymbolTable
 70
    11
  0
LAYER
  5
10
330
2
100
AcDbSymbolTableRecord
100
AcDbLayerTableRecord
  2
0
 70
     0
 62
     7
  6
CONTINUOUS
370
    -3
390
F
  0
LAYER
  5
1FA
330
2
100
AcDbSymbolTableRecord
100
AcDbLayerTableRecord
  2
DEFAULT_1
 70
     0
 62
     7
  6
CENTER
370
    -3
390
F
  0
LAYER
  5
1FB
330
2
100
AcDbSymbolTableRecord
100
AcDbLayerTableRecord
  2
DEFAULT_2
 70
     0
 62
     8
  6
HIDDEN
370
    -3
390
F
  0
LAYER
  5
1FC
330
2
100
AcDbSymbolTableRecord
100
AcDbLayerTableRecord
  2
DEFAULT_3
 70
     0
 62
     7
  6
PHANTOM
370
    -3
390
F
  0
LAYER
  5
1FD
330
2
100
AcDbSymbolTableRecord
100
AcDbLayerTableRecord
  2
CSYS_PART
 70
     0
 62
     7
  6
CONTINUOUS
370
    -3
390
F
  0
LAYER
  5
1FE
330
2
100
AcDbSymbolTableRecord
100
AcDbLayerTableRecord
  2
GRAY_BLUE
 70
     0
 62
     7
  6
CONTINUOUS
370
    -3
390
F
  0
LAYER
  5
1FF
330
2
100
AcDbSymbolTableRecord
100
AcDbLayerTableRecord
  2
INTF_GREEN
 70
     0
 62
     7
  6
CONTINUOUS
370
    -3
390
F
  0
LAYER
  5
200
330
2
100
AcDbSymbolTableRecord
100
AcDbLayerTableRecord
  2
LIGHT_BLUE
 70
     0
 62
     7
  6
CONTINUOUS
370
    -3
390
F
  0
LAYER
  5
201
330
2
100
AcDbSymbolTableRecord
100
AcDbLayerTableRecord
  2
R2
 70
     0
 62
     7
  6
CONTINUOUS
370
    -3
390
F
  0
LAYER
  5
460
330
2
100
AcDbSymbolTableRecord
100
AcDbLayerTableRecord
  2
AM_5
 70
     0
 62
     3
  6
CONTINUOUS
370
    15
390
F
1001
AcAecLayerStandard
1000

1000

  0
LAYER
  5
461
330
2
100
AcDbSymbolTableRecord
100
AcDbLayerTableRecord
  2
Defpoints
 70
     0
 62
     7
  6
CONTINUOUS
290
     0
370
    -3
390
F
  0
ENDTAB
  0
TABLE
  2
STYLE
  5
3
330
0
100
AcDbSymbolTable
 70
     5
  0
STYLE
  5
11
330
3
100
AcDbSymbolTableRecord
100
AcDbTextStyleTableRecord
  2
STANDARD
 70
     0
 40
0.0
 41
0.8
 50
0.0
 71
     0
 42
0.2
  3
txt
  4

  0
STYLE
  5
202
330
3
100
AcDbSymbolTableRecord
100
AcDbTextStyleTableRecord
  2
TEXTSTYLE_1
 70
     0
 40
0.0
 41
0.8
 50
0.0
 71
     0
 42
0.2
  3
gdt
  4

  0
STYLE
  5
406
330
3
100
AcDbSymbolTableRecord
100
AcDbTextStyleTableRecord
  2

 70
     1
 40
0.0
 41
1.0
 50
0.0
 71
     0
 42
0.2
  3
genltshp.shx
  4

  0
STYLE
  5
40B
330
3
100
AcDbSymbolTableRecord
100
AcDbTextStyleTableRecord
  2
ACANSTS
 70
     0
 40
1.0
 41
1.0
 50
0.0
 71
     0
 42
0.2
  3
romans.shx
  4

  0
STYLE
  5
417
330
3
100
AcDbSymbolTableRecord
100
AcDbTextStyleTableRecord
  2
ACANSGDT
 70
     0
 40
0.0
 41
1.0
 50
0.0
 71
     0
 42
0.2
  3
AMGDT
  4

  0
ENDTAB
  0
TABLE
  2
VIEW
  5
6
330
0
100
AcDbSymbolTable
 70
     1
  0
ENDTAB
  0
TABLE
  2
UCS
  5
7
330
0
100
AcDbSymbolTable
 70
     0
  0
ENDTAB
  0
TABLE
  2
APPID
  5
9
330
0
100
AcDbSymbolTable
 70
    11
  0
APPID
  5
203
330
9
100
AcDbSymbolTableRecord
100
AcDbRegAppTableRecord
  2
ACAD
 70
     0
  0
APPID
  5
39E
330
9
100
AcDbSymbolTableRecord
100
AcDbRegAppTableRecord
  2
MCAD_NO_VIS
 70
     0
  0
APPID
  5
39F
330
9
100
AcDbSymbolTableRecord
100
AcDbRegAppTableRecord
  2
ACAD_TEMP_GRAPHIC
 70
     0
  0
APPID
  5
3CD
330
9
100
AcDbSymbolTableRecord
100
AcDbRegAppTableRecord
  2
AD_DRAW
 70
     0
  0
APPID
  5
3D0
330
9
100
AcDbSymbolTableRecord
100
AcDbRegAppTableRecord
  2
ACATTRIBSERVICES
 70
     0
  0
APPID
  5
3F0
330
9
100
AcDbSymbolTableRecord
100
AcDbRegAppTableRecord
  2
DESIGNERASSEMBLIES
 70
     0
  0
APPID
  5
3F6
330
9
100
AcDbSymbolTableRecord
100
AcDbRegAppTableRecord
  2
ACADM_DIM_EDIT
 70
     0
  0
APPID
  5
3F7
330
9
100
AcDbSymbolTableRecord
100
AcDbRegAppTableRecord
  2
AMDT_DM_ADJ
 70
     0
  0
APPID
  5
425
330
9
100
AcDbSymbolTableRecord
100
AcDbRegAppTableRecord
  2
ACAD_DSTYLE_DIMARC_LENGTH_SYMBOL
 70
     0
  0
APPID
  5
426
330
9
100
AcDbSymbolTableRecord
100
AcDbRegAppTableRecord
  2
ACAD_DSTYLE_DIMJOGGED_JOGANGLE_SYMBOL
 70
     0
  0
APPID
  5
463
330
9
100
AcDbSymbolTableRecord
100
AcDbRegAppTableRecord
  2
AcAecLayerStandard
 70
     0
  0
ENDTAB
  0
TABLE
  2
DIMSTYLE
  5
A
330
0
100
AcDbSymbolTable
 70
     8
100
AcDbDimStyleTable
 71
     0
  0
DIMSTYLE
105
206
330
A
100
AcDbSymbolTableRecord
100
AcDbDimStyleTableRecord
  2
STANDARD
 70
     0
 41
0.1875
 47
0.05
 48
0.05
 78
     4
140
0.15625
271
     2
272
     2
284
     4
340
11
  0
DIMSTYLE
105
424
330
A
100
AcDbSymbolTableRecord
100
AcDbDimStyleTableRecord
  2
AM_ANSI
 70
     0
  4
mm
 41
0.1
 42
0.05
 43
0.5
 44
0.1
 47
0.1
 48
0.1
 78
     7
 79
     2
140
0.12
141
0.0
146
0.71
147
0.06
176
   256
177
   256
178
     2
274
     4
284
     7
340
11
371
    -1
372
    -1
1001
ACAD_DSTYLE_DIMARC_LENGTH_SYMBOL
1070
   379
1070
     1
1001
ACAD_DSTYLE_DIMJOGGED_JOGANGLE_SYMBOL
1070
   384
1040
0.7853981633974483
  0
DIMSTYLE
105
42D
330
A
100
AcDbSymbolTableRecord
100
AcDbDimStyleTableRecord
  2
AM_ANSI$3
 70
     0
  4
mm
 41
0.1
 42
0.05
 43
0.5
 44
0.1
 47
0.1
 48
0.1
 78
     7
 79
     2
140
0.12
141
0.0
146
0.71
147
0.06
176
   256
177
   256
178
     2
274
     4
284
     7
288
     1
289
     0
340
11
371
    -1
372
    -1
1001
ACAD_DSTYLE_DIMARC_LENGTH_SYMBOL
1070
   379
1070
     1
1001
ACAD_DSTYLE_DIMJOGGED_JOGANGLE_SYMBOL
1070
   384
1040
0.7853981633974483
  0
DIMSTYLE
105
430
330
A
100
AcDbSymbolTableRecord
100
AcDbDimStyleTableRecord
  2
AM_ANSI$4
 70
     0
  4
mm
 41
0.1
 42
0.05
 43
0.5
 44
0.1
 47
0.1
 48
0.1
 78
     7
 79
     2
140
0.12
141
0.0
146
0.71
147
0.06
176
   256
177
   256
178
     2
274
     4
284
     7
288
     1
289
     0
340
11
371
    -1
372
    -1
1001
ACAD_DSTYLE_DIMARC_LENGTH_SYMBOL
1070
   379
1070
     1
1001
ACAD_DSTYLE_DIMJOGGED_JOGANGLE_SYMBOL
1070
   384
1040
0.7853981633974483
  0
DIMSTYLE
105
435
330
A
100
AcDbSymbolTableRecord
100
AcDbDimStyleTableRecord
  2
AM_ANSI$7
 70
     0
  4
mm
 41
0.1
 42
0.05
 43
0.5
 44
0.1
 47
0.1
 48
0.1
 78
     7
 79
     2
140
0.24
141
0.0
146
0.71
147
0.06
176
   256
177
   256
178
     2
274
     4
284
     7
340
11
371
    -1
372
    -1
1001
ACAD_DSTYLE_DIMARC_LENGTH_SYMBOL
1070
   379
1070
     1
1001
ACAD_DSTYLE_DIMJOGGED_JOGANGLE_SYMBOL
1070
   384
1040
0.7853981633974483
  0
DIMSTYLE
105
438
330
A
100
AcDbSymbolTableRecord
100
AcDbDimStyleTableRecord
  2
AM_ANSI$SF
 70
     0
  4
mm
 41
0.1
 42
0.05
 43
0.5
 44
0.1
 47
0.1
 48
0.1
 75
     1
 76
     1
 78
     7
 79
     2
140
0.12
141
0.0
146
0.71
147
0.06
176
   256
177
   256
178
     2
274
     4
284
     7
340
11
371
    -1
372
    -1
1001
ACAD_DSTYLE_DIMARC_LENGTH_SYMBOL
1070
   379
1070
     1
1001
ACAD_DSTYLE_DIMJOGGED_JOGANGLE_SYMBOL
1070
   384
1040
0.7853981633974483
  0
DIMSTYLE
105
43F
330
A
100
AcDbSymbolTableRecord
100
AcDbDimStyleTableRecord
  2
AM_ANSI$SH
 70
     0
  4
mm
 41
0.1
 42
0.05
 43
0.5
 44
0.1
 47
0.1
 48
0.1
 75
     1
 76
     1
 78
     7
 79
     2
140
0.12
141
0.0
146
0.71
147
0.06
173
     1
176
   256
177
   256
178
     2
274
     4
284
     7
340
11
343
439
371
    -1
372
    -1
1001
ACAD_DSTYLE_DIMARC_LENGTH_SYMBOL
1070
   379
1070
     1
1001
ACAD_DSTYLE_DIMJOGGED_JOGANGLE_SYMBOL
1070
   384
1040
0.7853981633974483
  0
DIMSTYLE
105
462
102
{ACAD_REACTORS
330
465
330
466
330
473
330
474
330
4B7
102
}
330
A
100
AcDbSymbolTableRecord
100
AcDbDimStyleTableRecord
  2
STANDARD$0
 70
     0
 41
0.1875
 47
0.05
 48
0.05
 78
     4
140
0.15625
271
     2
272
     2
284
     4
340
11
  0
ENDTAB
  0
TABLE
  2
BLOCK_RECORD
  5
1
330
0
100
AcDbSymbolTable
 70
    10
  0
BLOCK_RECORD
  5
204
330
1
100
AcDbSymbolTableRecord
100
AcDbBlockTableRecord
  2
*Model_Space
340
38E
  0
BLOCK_RECORD
  5
205
330
1
100
AcDbSymbolTableRecord
100
AcDbBlockTableRecord
  2
*Paper_Space
340
38F
  0
BLOCK_RECORD
  5
439
330
1
100
AcDbSymbolTableRecord
100
AcDbBlockTableRecord
  2
GENAXEH
340
0
  0
BLOCK_RECORD
  5
446
330
1
100
AcDbSymbolTableRecord
100
AcDbBlockTableRecord
  2
*D2
340
0
  0
BLOCK_RECORD
  5
453
330
1
100
AcDbSymbolTableRecord
100
AcDbBlockTableRecord
  2
*D3
340
0
  0
BLOCK_RECORD
  5
475
330
1
100
AcDbSymbolTableRecord
100
AcDbBlockTableRecord
  2
*D5
340
0
  0
BLOCK_RECORD
  5
482
330
1
100
AcDbSymbolTableRecord
100
AcDbBlockTableRecord
  2
*D6
340
0
  0
BLOCK_RECORD
  5
4A4
330
1
100
AcDbSymbolTableRecord
100
AcDbBlockTableRecord
  2
*D7
340
0
  0
BLOCK_RECORD
  5
4B8
330
1
100
AcDbSymbolTableRecord
100
AcDbBlockTableRecord
  2
*D9
340
0
  0
ENDTAB
  0
ENDSEC
  0
SECTION
  2
BLOCKS
  0
BLOCK
  5
20
330
204
100
AcDbEntity
  8
0
100
AcDbBlockBegin
  2
*Model_Space
 70
     0
 10
0.0
 20
0.0
 30
0.0
  3
*Model_Space
  1

  0
ENDBLK
  5
21
330
204
100
AcDbEntity
  8
0
100
AcDbBlockEnd
  0
BLOCK
  5
1C
330
205
100
AcDbEntity
 67
     1
  8
0
100
AcDbBlockBegin
  2
*Paper_Space
 70
     0
 10
0.0
 20
0.0
 30
0.0
  3
*Paper_Space
  1

  0
ENDBLK
  5
1D
330
205
100
AcDbEntity
 67
     1
  8
0
100
AcDbBlockEnd
  0
BLOCK
  5
43B
330
439
100
AcDbEntity
  8
0
100
AcDbBlockBegin
  2
GENAXEH
 70
     0
 10
0.0
 20
0.0
 30
0.0
  3
GENAXEH
  1

  0
LINE
  5
43A
330
439
100
AcDbEntity
  8
0
100
AcDbLine
 10
-1.0
 20
0.0
 30
0.0
 11
1.0
 21
0.0
 31
0.0
  0
ENDBLK
  5
43C
330
439
100
AcDbEntity
  8
0
100
AcDbBlockEnd
  0
BLOCK
  5
447
330
446
100
AcDbEntity
  8
0
100
AcDbBlockBegin
  2
*D2
 70
     1
 10
0.0
 20
0.0
 30
0.0
  3
*D2
  1

  0
LINE
  5
448
330
446
100
AcDbEntity
  8
AM_5
 62
     0
370
    -2
100
AcDbLine
 10
5.466832164210548
 20
4.444040854099998
 30
0.0
 11
6.096082164210548
 21
4.444040854099998
 31
0.0
  0
LINE
  5
449
330
446
100
AcDbEntity
  8
AM_5
 62
     0
370
    -2
100
AcDbLine
 10
5.466832164210548
 20
3.113332192699998
 30
0.0
 11
6.096082164210548
 21
3.113332192699998
 31
0.0
  0
LINE
  5
44A
330
446
100
AcDbEntity
  8
AM_5
 62
     0
370
    -2
100
AcDbLine
 10
5.898082164210548
 20
4.256540854099998
 30
0.0
 11
5.898082164210548
 21
4.077019856733333
 31
0.0
  0
LINE
  5
44B
330
446
100
AcDbEntity
  8
AM_5
 62
     0
370
    -2
100
AcDbLine
 10
5.898082164210548
 20
3.300832192699998
 30
0.0
 11
5.898082164210548
 21
3.480353190066664
 31
0.0
  0
SOLID
  5
44C
330
446
100
AcDbEntity
  8
AM_5
 62
     0
100
AcDbTrace
 10
5.866832164210548
 20
4.256540854099998
 30
0.0
 11
5.929332164210548
 21
4.256540854099998
 31
0.0
 12
5.898082164210548
 22
4.444040854099998
 32
0.0
 13
5.898082164210548
 23
4.444040854099998
 33
0.0
  0
SOLID
  5
44D
330
446
100
AcDbEntity
  8
AM_5
 62
     0
100
AcDbTrace
 10
5.866832164210548
 20
3.300832192699998
 30
0.0
 11
5.929332164210548
 21
3.300832192699998
 31
0.0
 12
5.898082164210548
 22
3.113332192699998
 32
0.0
 13
5.898082164210548
 23
3.113332192699998
 33
0.0
  0
MTEXT
  5
44E
330
446
100
AcDbEntity
  8
AM_5
 62
     0
100
AcDbMText
 10
5.898082164210548
 20
3.778686523399999
 30
0.0
 40
0.15625
 41
0.0
 71
     5
 72
     1
  1
\A1;1.33\P [33.80]
 73
     1
 44
1.0
  0
POINT
  5
44F
330
446
100
AcDbEntity
  8
Defpoints
 62
     0
100
AcDbPoint
 10
5.398082164210548
 20
4.444040854099998
 30
0.0
  0
POINT
  5
450
330
446
100
AcDbEntity
  8
Defpoints
 62
     0
100
AcDbPoint
 10
5.398082164210548
 20
3.113332192699998
 30
0.0
  0
POINT
  5
451
330
446
100
AcDbEntity
  8
Defpoints
 62
     0
100
AcDbPoint
 10
5.898082164210548
 20
3.113332192699998
 30
0.0
  0
ENDBLK
  5
452
330
446
100
AcDbEntity
  8
0
100
AcDbBlockEnd
  0
BLOCK
  5
454
330
453
100
AcDbEntity
  8
0
100
AcDbBlockBegin
  2
*D3
 70
     1
 10
0.0
 20
0.0
 30
0.0
  3
*D3
  1

  0
LINE
  5
455
330
453
100
AcDbEntity
  8
0
 62
     0
370
    -2
100
AcDbLine
 10
3.9424640325
 20
4.398617625799998
 30
0.0
 11
3.9424640325
 21
5.142041854099998
 31
0.0
  0
LINE
  5
456
330
453
100
AcDbEntity
  8
0
 62
     0
370
    -2
100
AcDbLine
 10
5.2810467097
 20
4.398617625799998
 30
0.0
 11
5.2810467097
 21
5.142041854099998
 31
0.0
  0
LINE
  5
457
330
453
100
AcDbEntity
  8
0
 62
     0
370
    -2
100
AcDbLine
 10
3.7549640325
 20
4.944041854099999
 30
0.0
 11
3.5674640325
 21
4.944041854099999
 31
0.0
  0
LINE
  5
458
330
453
100
AcDbEntity
  8
0
 62
     0
370
    -2
100
AcDbLine
 10
5.4685467097
 20
4.944041854099999
 30
0.0
 11
5.6560467097
 21
4.944041854099999
 31
0.0
  0
SOLID
  5
459
330
453
100
AcDbEntity
  8
0
 62
     0
100
AcDbTrace
 10
3.7549640325
 20
4.975291854099999
 30
0.0
 11
3.7549640325
 21
4.912791854099999
 31
0.0
 12
3.9424640325
 22
4.944041854099999
 32
0.0
 13
3.9424640325
 23
4.944041854099999
 33
0.0
  0
SOLID
  5
45A
330
453
100
AcDbEntity
  8
0
 62
     0
100
AcDbTrace
 10
5.4685467097
 20
4.975291854099999
 30
0.0
 11
5.4685467097
 21
4.912791854099999
 31
0.0
 12
5.2810467097
 22
4.944041854099999
 32
0.0
 13
5.2810467097
 23
4.944041854099999
 33
0.0
  0
MTEXT
  5
45B
330
453
100
AcDbEntity
  8
0
 62
     0
100
AcDbMText
 10
4.6117553711
 20
4.944041854099999
 30
0.0
 40
0.15625
 41
0.0
 71
     5
 72
     1
  1
\A1;1.34 [34.00]
 73
     1
 44
1.0
  0
POINT
  5
45C
330
453
100
AcDbEntity
  8
Defpoints
 62
     0
100
AcDbPoint
 10
3.9424640325
 20
4.329867625799998
 30
0.0
  0
POINT
  5
45D
330
453
100
AcDbEntity
  8
Defpoints
 62
     0
100
AcDbPoint
 10
5.2810467097
 20
4.329867625799998
 30
0.0
  0
POINT
  5
45E
330
453
100
AcDbEntity
  8
Defpoints
 62
     0
100
AcDbPoint
 10
5.2810467097
 20
4.944041854099999
 30
0.0
  0
ENDBLK
  5
45F
330
453
100
AcDbEntity
  8
0
100
AcDbBlockEnd
  0
BLOCK
  5
480
330
475
100
AcDbEntity
  8
0
100
AcDbBlockBegin
  2
*D5
 70
     1
 10
0.0
 20
0.0
 30
0.0
  3
*D5
  1

  0
LINE
  5
48F
330
475
100
AcDbEntity
  8
0
 62
     0
370
    -2
100
AcDbLine
 10
4.123738446550001
 20
4.894101024299999
 30
0.0
 11
4.123738446550001
 21
5.637525252599999
 31
0.0
  0
LINE
  5
490
330
475
100
AcDbEntity
  8
0
 62
     0
370
    -2
100
AcDbLine
 10
5.462321123750001
 20
4.894101024299999
 30
0.0
 11
5.462321123750001
 21
5.637525252599999
 31
0.0
  0
LINE
  5
491
330
475
100
AcDbEntity
  8
0
 62
     0
370
    -2
100
AcDbLine
 10
3.936238446550001
 20
5.4395252526
 30
0.0
 11
3.748738446550001
 21
5.4395252526
 31
0.0
  0
LINE
  5
492
330
475
100
AcDbEntity
  8
0
 62
     0
370
    -2
100
AcDbLine
 10
5.649821123750001
 20
5.4395252526
 30
0.0
 11
5.837321123750001
 21
5.4395252526
 31
0.0
  0
SOLID
  5
493
330
475
100
AcDbEntity
  8
0
 62
     0
100
AcDbTrace
 10
3.936238446550001
 20
5.4707752526
 30
0.0
 11
3.936238446550001
 21
5.4082752526
 31
0.0
 12
4.123738446550001
 22
5.4395252526
 32
0.0
 13
4.123738446550001
 23
5.4395252526
 33
0.0
  0
SOLID
  5
494
330
475
100
AcDbEntity
  8
0
 62
     0
100
AcDbTrace
 10
5.649821123750001
 20
5.4707752526
 30
0.0
 11
5.649821123750001
 21
5.4082752526
 31
0.0
 12
5.462321123750001
 22
5.4395252526
 32
0.0
 13
5.462321123750001
 23
5.4395252526
 33
0.0
  0
MTEXT
  5
495
330
475
100
AcDbEntity
  8
0
 62
     0
100
AcDbMText
 10
4.793029785150001
 20
5.4395252526
 30
0.0
 40
0.15625
 41
0.0
 71
     5
 72
     1
  1
\A1;1.34 [34.00]
 73
     1
 44
1.0
  0
POINT
  5
496
330
475
100
AcDbEntity
  8
Defpoints
 62
     0
100
AcDbPoint
 10
4.123738446550001
 20
4.825351024299999
 30
0.0
  0
POINT
  5
497
330
475
100
AcDbEntity
  8
Defpoints
 62
     0
100
AcDbPoint
 10
5.462321123750001
 20
4.825351024299999
 30
0.0
  0
POINT
  5
498
330
475
100
AcDbEntity
  8
Defpoints
 62
     0
100
AcDbPoint
 10
5.462321123750001
 20
5.4395252526
 30
0.0
  0
ENDBLK
  5
481
330
475
100
AcDbEntity
  8
0
100
AcDbBlockEnd
  0
BLOCK
  5
48D
330
482
100
AcDbEntity
  8
0
100
AcDbBlockBegin
  2
*D6
 70
     1
 10
0.0
 20
0.0
 30
0.0
  3
*D6
  1

  0
LINE
  5
499
330
482
100
AcDbEntity
  8
0
 62
     0
370
    -2
100
AcDbLine
 10
5.648106578260549
 20
4.9395242526
 30
0.0
 11
6.27735657826055
 21
4.939524252599999
 31
0.0
  0
LINE
  5
49A
330
482
100
AcDbEntity
  8
0
 62
     0
370
    -2
100
AcDbLine
 10
5.648106578260549
 20
3.608815591199999
 30
0.0
 11
6.27735657826055
 21
3.608815591199999
 31
0.0
  0
LINE
  5
49B
330
482
100
AcDbEntity
  8
0
 62
     0
370
    -2
100
AcDbLine
 10
6.07935657826055
 20
4.752024252599999
 30
0.0
 11
6.07935657826055
 21
4.572503255233332
 31
0.0
  0
LINE
  5
49C
330
482
100
AcDbEntity
  8
0
 62
     0
370
    -2
100
AcDbLine
 10
6.07935657826055
 20
3.796315591199999
 30
0.0
 11
6.07935657826055
 21
3.975836588566666
 31
0.0
  0
SOLID
  5
49D
330
482
100
AcDbEntity
  8
0
 62
     0
100
AcDbTrace
 10
6.04810657826055
 20
4.752024252599999
 30
0.0
 11
6.11060657826055
 21
4.752024252599999
 31
0.0
 12
6.07935657826055
 22
4.939524252599999
 32
0.0
 13
6.07935657826055
 23
4.939524252599999
 33
0.0
  0
SOLID
  5
49E
330
482
100
AcDbEntity
  8
0
 62
     0
100
AcDbTrace
 10
6.04810657826055
 20
3.796315591199999
 30
0.0
 11
6.11060657826055
 21
3.796315591199999
 31
0.0
 12
6.07935657826055
 22
3.608815591199999
 32
0.0
 13
6.07935657826055
 23
3.608815591199999
 33
0.0
  0
MTEXT
  5
49F
330
482
100
AcDbEntity
  8
0
 62
     0
100
AcDbMText
 10
6.079356578260549
 20
4.274169921900001
 30
0.0
 40
0.15625
 41
0.0
 71
     5
 72
     1
  1
\A1;1.33\P [33.80]
 73
     1
 44
1.0
  0
POINT
  5
4A0
330
482
100
AcDbEntity
  8
Defpoints
 62
     0
100
AcDbPoint
 10
5.57935657826055
 20
4.9395242526
 30
0.0
  0
POINT
  5
4A1
330
482
100
AcDbEntity
  8
Defpoints
 62
     0
100
AcDbPoint
 10
5.57935657826055
 20
3.608815591199999
 30
0.0
  0
POINT
  5
4A2
330
482
100
AcDbEntity
  8
Defpoints
 62
     0
100
AcDbPoint
 10
6.07935657826055
 20
3.608815591199999
 30
0.0
  0
ENDBLK
  5
48E
330
482
100
AcDbEntity
  8
0
100
AcDbBlockEnd
  0
BLOCK
  5
4A5
330
4A4
100
AcDbEntity
  8
0
100
AcDbBlockBegin
  2
*D7
 70
     1
 10
0.0
 20
0.0
 30
0.0
  3
*D7
  1

  0
LINE
  5
4A6
330
4A4
100
AcDbEntity
  8
0
 62
     0
370
    -2
100
AcDbLine
 10
2.647849159499998
 20
2.103522725139542
 30
0.0
 11
3.277099159499999
 21
2.103522725139541
 31
0.0
  0
LINE
  5
4A7
330
4A4
100
AcDbEntity
  8
0
 62
     0
370
    -2
100
AcDbLine
 10
2.647849159499998
 20
0.764940047939542
 30
0.0
 11
3.277099159499998
 21
0.7649400479395418
 31
0.0
  0
LINE
  5
4A8
330
4A4
100
AcDbEntity
  8
0
 62
     0
370
    -2
100
AcDbLine
 10
3.079099159499999
 20
1.916022725139541
 30
0.0
 11
3.079099159499999
 21
1.732564719872875
 31
0.0
  0
LINE
  5
4A9
330
4A4
100
AcDbEntity
  8
0
 62
     0
370
    -2
100
AcDbLine
 10
3.079099159499998
 20
0.9524400479395417
 30
0.0
 11
3.079099159499999
 21
1.135898053206208
 31
0.0
  0
SOLID
  5
4AA
330
4A4
100
AcDbEntity
  8
0
 62
     0
100
AcDbTrace
 10
3.047849159499999
 20
1.916022725139541
 30
0.0
 11
3.110349159499999
 21
1.916022725139541
 31
0.0
 12
3.079099159499999
 22
2.103522725139541
 32
0.0
 13
3.079099159499999
 23
2.103522725139541
 33
0.0
  0
SOLID
  5
4AB
330
4A4
100
AcDbEntity
  8
0
 62
     0
100
AcDbTrace
 10
3.047849159499998
 20
0.9524400479395417
 30
0.0
 11
3.110349159499998
 21
0.9524400479395417
 31
0.0
 12
3.079099159499998
 22
0.7649400479395419
 32
0.0
 13
3.079099159499998
 23
0.7649400479395419
 33
0.0
  0
MTEXT
  5
4AC
330
4A4
100
AcDbEntity
  8
0
 62
     0
100
AcDbMText
 10
3.079099159499998
 20
1.434231386539542
 30
0.0
 40
0.15625
 41
0.0
 71
     5
 72
     1
  1
\A1;1.34\P [34.00]
 73
     1
 44
1.0
  0
POINT
  5
4AD
330
4A4
100
AcDbEntity
  8
Defpoints
 62
     0
100
AcDbPoint
 10
2.579099159499998
 20
2.103522725139542
 30
0.0
  0
POINT
  5
4AE
330
4A4
100
AcDbEntity
  8
Defpoints
 62
     0
100
AcDbPoint
 10
2.579099159499998
 20
0.764940047939542
 30
0.0
  0
POINT
  5
4AF
330
4A4
100
AcDbEntity
  8
Defpoints
 62
     0
100
AcDbPoint
 10
3.079099159499998
 20
0.7649400479395419
 30
0.0
  0
ENDBLK
  5
4B0
330
4A4
100
AcDbEntity
  8
0
100
AcDbBlockEnd
  0
BLOCK
  5
4C3
330
4B8
100
AcDbEntity
  8
0
100
AcDbBlockBegin
  2
*D9
 70
     1
 10
0.0
 20
0.0
 30
0.0
  3
*D9
  1

  0
LINE
  5
4C5
330
4B8
100
AcDbEntity
  8
0
 62
     0
370
    -2
100
AcDbLine
 10
2.7203589252
 20
2.550638994849999
 30
0.0
 11
3.3496089252
 21
2.550638994849999
 31
0.0
  0
LINE
  5
4C6
330
4B8
100
AcDbEntity
  8
0
 62
     0
370
    -2
100
AcDbLine
 10
2.7203589252
 20
1.21205631765
 30
0.0
 11
3.3496089252
 21
1.21205631765
 31
0.0
  0
LINE
  5
4C7
330
4B8
100
AcDbEntity
  8
0
 62
     0
370
    -2
100
AcDbLine
 10
3.1516089252
 20
2.363138994849999
 30
0.0
 11
3.1516089252
 21
2.179680989583332
 31
0.0
  0
LINE
  5
4C8
330
4B8
100
AcDbEntity
  8
0
 62
     0
370
    -2
100
AcDbLine
 10
3.1516089252
 20
1.39955631765
 30
0.0
 11
3.1516089252
 21
1.583014322916666
 31
0.0
  0
SOLID
  5
4C9
330
4B8
100
AcDbEntity
  8
0
 62
     0
100
AcDbTrace
 10
3.1203589252
 20
2.363138994849999
 30
0.0
 11
3.1828589252
 21
2.363138994849999
 31
0.0
 12
3.1516089252
 22
2.550638994849999
 32
0.0
 13
3.1516089252
 23
2.550638994849999
 33
0.0
  0
SOLID
  5
4CA
330
4B8
100
AcDbEntity
  8
0
 62
     0
100
AcDbTrace
 10
3.1203589252
 20
1.39955631765
 30
0.0
 11
3.1828589252
 21
1.39955631765
 31
0.0
 12
3.1516089252
 22
1.21205631765
 32
0.0
 13
3.1516089252
 23
1.21205631765
 33
0.0
  0
MTEXT
  5
4CB
330
4B8
100
AcDbEntity
  8
0
 62
     0
100
AcDbMText
 10
3.151608925199999
 20
1.88134765625
 30
0.0
 40
0.15625
 41
0.0
 71
     5
 72
     1
  1
\A1;1.34\P [34.00]
 73
     1
 44
1.0
  0
POINT
  5
4CC
330
4B8
100
AcDbEntity
  8
Defpoints
 62
     0
100
AcDbPoint
 10
2.6516089252
 20
2.550638994849999
 30
0.0
  0
POINT
  5
4CD
330
4B8
100
AcDbEntity
  8
Defpoints
 62
     0
100
AcDbPoint
 10
2.6516089252
 20
1.21205631765
 30
0.0
  0
POINT
  5
4CE
330
4B8
100
AcDbEntity
  8
Defpoints
 62
     0
100
AcDbPoint
 10
3.1516089252
 20
1.21205631765
 30
0.0
  0
ENDBLK
  5
4C4
330
4B8
100
AcDbEntity
  8
0
100
AcDbBlockEnd
  0
ENDSEC
  0
SECTION
  2
ENTITIES
  0
LINE
  5
207
330
204
100
AcDbEntity
  8
0
  6
Continuous
 62
     7
100
AcDbLine
 10
0.0
 20
0.0
 30
0.0
 11
0.0
 21
8.5
 31
0.0
  0
LINE
  5
208
330
204
100
AcDbEntity
  8
0
  6
Continuous
 62
     7
100
AcDbLine
 10
0.0
 20
0.0
 30
0.0
 11
11.0
 21
0.0
 31
0.0
  0
LINE
  5
209
330
204
100
AcDbEntity
  8
0
  6
Continuous
 62
     7
100
AcDbLine
 10
0.0
 20
8.5
 30
0.0
 11
11.0
 21
8.5
 31
0.0
  0
LINE
  5
20A
330
204
100
AcDbEntity
  8
0
  6
Continuous
 62
     7
100
AcDbLine
 10
11.0
 20
0.0
 30
0.0
 11
11.0
 21
8.5
 31
0.0
  0
LINE
  5
20B
330
204
100
AcDbEntity
  8
0
  6
Continuous
 62
     7
100
AcDbLine
 10
8.228288968699999
 20
5.777164491351386
 30
0.0
 11
8.228288968699999
 21
5.095674284951384
 31
0.0
  0
LINE
  5
20C
330
204
100
AcDbEntity
  8
0
  6
Continuous
 62
     7
100
AcDbLine
 10
8.3257253482
 20
5.749842032151385
 30
0.0
 11
8.3257253482
 21
5.720910844151386
 31
0.0
  0
LINE
  5
20D
330
204
100
AcDbEntity
  8
0
  6
Continuous
 62
     7
100
AcDbLine
 10
8.3257253482
 20
5.039420637651386
 30
0.0
 11
8.3257253482
 21
4.859404356751386
 31
0.0
  0
LINE
  5
20E
330
204
100
AcDbEntity
  8
0
  6
Continuous
 62
     7
100
AcDbLine
 10
8.228288968699999
 20
5.777164491351386
 30
0.0
 11
8.2603035125
 21
5.795647986551386
 31
0.0
  0
LINE
  5
20F
330
204
100
AcDbEntity
  8
0
  6
Continuous
 62
     7
100
AcDbLine
 10
8.4746617624
 20
5.919407041051385
 30
0.0
 11
8.502500496099999
 21
5.935479645551385
 31
0.0
  0
LINE
  5
210
330
204
100
AcDbEntity
  8
0
  6
Continuous
 62
     7
100
AcDbLine
 10
8.716858745999999
 20
6.059238700051386
 30
0.0
 11
8.7446974797
 21
6.075311304551386
 31
0.0
  0
LINE
  5
211
330
204
100
AcDbEntity
  8
0
  6
Continuous
 62
     7
100
AcDbLine
 10
8.959055729600001
 20
6.199070359051385
 30
0.0
 11
8.9868944634
 21
6.215142963551385
 31
0.0
  0
LINE
  5
212
330
204
100
AcDbEntity
  8
0
  6
Continuous
 62
     7
100
AcDbLine
 10
9.2012527132
 20
6.338902018051386
 30
0.0
 11
9.233267256999999
 21
6.357385513251386
 31
0.0
  0
LINE
  5
213
330
204
100
AcDbEntity
  8
0
  6
Continuous
 62
     7
100
AcDbLine
 10
8.3257253482
 20
4.859404356751386
 30
0.0
 11
9.077377418200001
 21
4.425447649151386
 31
0.0
  0
LINE
  5
214
330
204
100
AcDbEntity
  8
0
  6
Continuous
 62
     7
100
AcDbLine
 10
8.4463300687
 20
4.789774764051386
 30
0.0
 11
8.4463300687
 21
4.680996771751385
 31
0.0
  0
LINE
  5
215
330
204
100
AcDbEntity
  8
0
  6
Continuous
 62
     7
100
AcDbLine
 10
8.4746617624
 20
5.919407041051385
 30
0.0
 11
8.4746617624
 21
5.900121526551385
 31
0.0
  0
LINE
  5
216
330
204
100
AcDbEntity
  8
0
  6
Continuous
 62
     7
100
AcDbLine
 10
8.381402815700001
 20
5.846278769951385
 30
0.0
 11
9.275026169
 21
6.362209373951386
 31
0.0
  0
LINE
  5
217
330
204
100
AcDbEntity
  8
0
  6
Continuous
 62
     7
100
AcDbLine
 10
8.228288968699999
 20
5.095674284951384
 30
0.0
 11
8.3257253482
 21
5.039420637651386
 31
0.0
  0
LINE
  5
218
330
204
100
AcDbEntity
  8
0
  6
Continuous
 62
     7
100
AcDbLine
 10
9.077377418200001
 20
4.605463930151386
 30
0.0
 11
9.1748137977
 21
4.549210282851386
 31
0.0
  0
LINE
  5
219
330
204
100
AcDbEntity
  8
0
  6
Continuous
 62
     7
100
AcDbLine
 10
8.544755265599999
 20
4.680996771751385
 30
0.0
 11
8.544755265599999
 21
4.732950235751386
 31
0.0
  0
LINE
  5
21A
330
204
100
AcDbEntity
  8
0
  6
Continuous
 62
     7
100
AcDbLine
 10
8.716858745999999
 20
6.059238700051386
 30
0.0
 11
8.716858745999999
 21
6.039953185651385
 31
0.0
  0
LINE
  5
21B
330
204
100
AcDbEntity
  8
0
  6
Continuous
 62
     7
100
AcDbLine
 10
9.3237502119
 20
4.747706479851385
 30
0.0
 11
9.421186591299999
 21
4.691452832551386
 31
0.0
  0
LINE
  5
21C
330
204
100
AcDbEntity
  8
0
  6
Continuous
 62
     7
100
AcDbLine
 10
8.959055729600001
 20
6.199070359051385
 30
0.0
 11
8.959055729600001
 21
6.179784844651385
 31
0.0
  0
LINE
  5
21D
330
204
100
AcDbEntity
  8
0
  6
Continuous
 62
     7
100
AcDbLine
 10
9.234666263899999
 20
5.155958577151385
 30
0.0
 11
9.3237502119
 21
5.175941482751386
 31
0.0
  0
LINE
  5
21E
330
204
100
AcDbEntity
  8
0
  6
Continuous
 62
     7
100
AcDbLine
 10
9.565947195499999
 20
4.887538138851386
 30
0.0
 11
9.663383574899999
 21
4.831284491551386
 31
0.0
  0
LINE
  5
21F
330
204
100
AcDbEntity
  8
0
  6
Continuous
 62
     7
100
AcDbLine
 10
9.206828341499999
 20
5.136667470551385
 30
0.0
 11
9.3237502119
 21
5.069164124351385
 31
0.0
  0
LINE
  5
220
330
204
100
AcDbEntity
  8
0
  6
Continuous
 62
     7
100
AcDbLine
 10
9.077377418200001
 20
4.425447649151386
 30
0.0
 11
9.077377418200001
 21
4.605463930151386
 31
0.0
  0
LINE
  5
221
330
204
100
AcDbEntity
  8
0
  6
Continuous
 62
     7
100
AcDbLine
 10
9.077377418200001
 20
5.286954136551385
 30
0.0
 11
9.077377418200001
 21
5.315885324551385
 31
0.0
  0
LINE
  5
222
330
204
100
AcDbEntity
  8
0
  6
Continuous
 62
     7
100
AcDbLine
 10
9.4768632475
 20
5.295790236151385
 30
0.0
 11
9.565947195499999
 21
5.315773141751385
 31
0.0
  0
LINE
  5
223
330
204
100
AcDbEntity
  8
0
  6
Continuous
 62
     7
100
AcDbLine
 10
9.1748137977
 20
5.230700489251385
 30
0.0
 11
9.077377418200001
 21
5.286954136551385
 31
0.0
  0
LINE
  5
224
330
204
100
AcDbEntity
  8
0
  6
Continuous
 62
     7
100
AcDbLine
 10
8.3257253482
 20
5.720910844151386
 30
0.0
 11
8.228288968699999
 21
5.777164491351386
 31
0.0
  0
LINE
  5
225
330
204
100
AcDbEntity
  8
0
  6
Continuous
 62
     7
100
AcDbLine
 10
8.3257253482
 20
5.749842032151385
 30
0.0
 11
9.077377418200001
 21
5.315885324551385
 31
0.0
  0
LINE
  5
226
330
204
100
AcDbEntity
  8
0
  6
Continuous
 62
     7
100
AcDbLine
 10
8.2603035125
 20
5.795647986551386
 30
0.0
 11
8.326433186
 21
5.757468865551386
 31
0.0
  0
LINE
  5
227
330
204
100
AcDbEntity
  8
0
  6
Continuous
 62
     7
100
AcDbLine
 10
9.109391962
 20
5.305437631751385
 30
0.0
 11
9.206828341499999
 21
5.249183984451385
 31
0.0
  0
LINE
  5
228
330
204
100
AcDbEntity
  8
0
  6
Continuous
 62
     7
100
AcDbLine
 10
9.1748137977
 20
4.549210282851386
 30
0.0
 11
9.1748137977
 21
5.230700489251385
 31
0.0
  0
LINE
  5
229
330
204
100
AcDbEntity
  8
0
  6
Continuous
 62
     7
100
AcDbLine
 10
9.2012527132
 20
6.338902018051386
 30
0.0
 11
9.2012527132
 21
6.319616503651385
 31
0.0
  0
LINE
  5
22A
330
204
100
AcDbEntity
  8
0
  6
Continuous
 62
     7
100
AcDbLine
 10
9.206828341499999
 20
5.249183984451385
 30
0.0
 11
9.206828341499999
 21
4.567693778051386
 31
0.0
  0
LINE
  5
22B
330
204
100
AcDbEntity
  8
0
  6
Continuous
 62
     7
100
AcDbLine
 10
10.026678239
 20
5.928252666351386
 30
0.0
 11
9.1330548857
 21
5.412322062451385
 31
0.0
  0
LINE
  5
22C
330
204
100
AcDbEntity
  8
0
  6
Continuous
 62
     7
100
AcDbLine
 10
9.7190602311
 20
5.435621895151386
 30
0.0
 11
9.808144179099999
 21
5.455604800751385
 31
0.0
  0
LINE
  5
22D
330
204
100
AcDbEntity
  8
0
  6
Continuous
 62
     7
100
AcDbLine
 10
9.961257214699999
 20
5.575453554151385
 30
0.0
 11
10.0503411627
 21
5.595436459751385
 31
0.0
  0
LINE
  5
22E
330
204
100
AcDbEntity
  8
0
  6
Continuous
 62
     7
100
AcDbLine
 10
9.1330548857
 20
5.412322062451385
 30
0.0
 11
8.9880362897
 21
5.496046693751386
 31
0.0
  0
LINE
  5
22F
330
204
100
AcDbEntity
  8
0
  6
Continuous
 62
     7
100
AcDbLine
 10
8.905031343200001
 20
5.543968537851386
 30
0.0
 11
8.6094263582
 21
5.714632294551385
 31
0.0
  0
LINE
  5
230
330
204
100
AcDbEntity
  8
0
  6
Continuous
 62
     7
100
AcDbLine
 10
8.526421411599999
 20
5.762554138651385
 30
0.0
 11
8.381402815700001
 21
5.846278769951385
 31
0.0
  0
LINE
  5
231
330
204
100
AcDbEntity
  8
0
  6
Continuous
 62
     7
100
AcDbLine
 10
9.808144179099999
 20
5.027369797851386
 30
0.0
 11
9.9055805586
 21
4.971116150551385
 31
0.0
  0
LINE
  5
232
330
204
100
AcDbEntity
  8
0
  6
Continuous
 62
     7
100
AcDbLine
 10
10.0823557065
 20
5.867175158351385
 30
0.0
 11
10.0503411627
 21
5.848691663251385
 31
0.0
  0
LINE
  5
233
330
204
100
AcDbEntity
  8
0
  6
Continuous
 62
     7
100
AcDbLine
 10
9.8359829128
 20
5.724932608751386
 30
0.0
 11
9.808144179099999
 21
5.708860004251386
 31
0.0
  0
LINE
  5
234
330
204
100
AcDbEntity
  8
0
  6
Continuous
 62
     7
100
AcDbLine
 10
9.593785929199999
 20
5.585100949751385
 30
0.0
 11
9.565947195499999
 21
5.569028345251386
 31
0.0
  0
LINE
  5
235
330
204
100
AcDbEntity
  8
0
  6
Continuous
 62
     7
100
AcDbLine
 10
9.351588945599999
 20
5.445269290751385
 30
0.0
 11
9.3237502119
 21
5.429196686251386
 31
0.0
  0
LINE
  5
236
330
204
100
AcDbEntity
  8
0
  6
Continuous
 62
     7
100
AcDbLine
 10
9.109391962
 20
5.305437631751385
 30
0.0
 11
9.077377418200001
 21
5.286954136551385
 31
0.0
  0
LINE
  5
237
330
204
100
AcDbEntity
  8
0
  6
Continuous
 62
     7
100
AcDbLine
 10
9.449025325099999
 20
5.276499129551385
 30
0.0
 11
9.565947195499999
 21
5.208995783351385
 31
0.0
  0
LINE
  5
238
330
204
100
AcDbEntity
  8
0
  6
Continuous
 62
     7
100
AcDbLine
 10
9.421186591299999
 20
5.372943038951386
 30
0.0
 11
9.3237502119
 21
5.429196686251386
 31
0.0
  0
LINE
  5
239
330
204
100
AcDbEntity
  8
0
  6
Continuous
 62
     7
100
AcDbLine
 10
8.491363746599999
 20
5.909764364151386
 30
0.0
 11
8.4746617624
 21
5.919407041051385
 31
0.0
  0
LINE
  5
23A
330
204
100
AcDbEntity
  8
0
  6
Continuous
 62
     7
100
AcDbLine
 10
9.3237502119
 20
5.429196686251386
 30
0.0
 11
9.3237502119
 21
5.175941482751386
 31
0.0
  0
LINE
  5
23B
330
204
100
AcDbEntity
  8
0
  6
Continuous
 62
     7
100
AcDbLine
 10
9.3237502119
 20
5.069164124351385
 30
0.0
 11
9.3237502119
 21
4.747706479851385
 31
0.0
  0
LINE
  5
23C
330
204
100
AcDbEntity
  8
0
  6
Continuous
 62
     7
100
AcDbLine
 10
9.1748137977
 20
5.230700489251385
 30
0.0
 11
9.206828341499999
 21
5.249183984451385
 31
0.0
  0
LINE
  5
23D
330
204
100
AcDbEntity
  8
0
  6
Continuous
 62
     7
100
AcDbLine
 10
9.421186591299999
 20
5.372943038951386
 30
0.0
 11
9.449025325099999
 21
5.389015643451385
 31
0.0
  0
LINE
  5
23E
330
204
100
AcDbEntity
  8
0
  6
Continuous
 62
     7
100
AcDbLine
 10
9.663383574899999
 20
5.512774697951385
 30
0.0
 11
9.6912223087
 21
5.528847302451385
 31
0.0
  0
LINE
  5
23F
330
204
100
AcDbEntity
  8
0
  6
Continuous
 62
     7
100
AcDbLine
 10
9.9055805586
 20
5.652606356951385
 30
0.0
 11
9.933419292299999
 21
5.668678961451385
 31
0.0
  0
LINE
  5
240
330
204
100
AcDbEntity
  8
0
  6
Continuous
 62
     7
100
AcDbLine
 10
10.1477775422
 20
5.792438015951385
 30
0.0
 11
10.179792086
 21
5.810921511151385
 31
0.0
  0
LINE
  5
241
330
204
100
AcDbEntity
  8
0
  6
Continuous
 62
     7
100
AcDbLine
 10
8.502500496099999
 20
5.935479645551385
 30
0.0
 11
8.519202480399998
 21
5.925836968651385
 31
0.0
  0
LINE
  5
242
330
204
100
AcDbEntity
  8
0
  6
Continuous
 62
     7
100
AcDbLine
 10
9.351588945599999
 20
5.445269290751385
 30
0.0
 11
9.449025325099999
 21
5.389015643451385
 31
0.0
  0
LINE
  5
243
330
204
100
AcDbEntity
  8
0
  6
Continuous
 62
     7
100
AcDbLine
 10
9.421186591299999
 20
4.691452832551386
 30
0.0
 11
9.421186591299999
 21
5.372943038951386
 31
0.0
  0
LINE
  5
244
330
204
100
AcDbEntity
  8
0
  6
Continuous
 62
     7
100
AcDbLine
 10
9.449025325099999
 20
5.389015643451385
 30
0.0
 11
9.449025325099999
 21
4.707525437051385
 31
0.0
  0
LINE
  5
245
330
204
100
AcDbEntity
  8
0
  6
Continuous
 62
     7
100
AcDbLine
 10
9.961257214699999
 20
5.575453554151385
 30
0.0
 11
9.933419292299999
 21
5.559381418051385
 31
0.0
  0
LINE
  5
246
330
204
100
AcDbEntity
  8
0
  6
Continuous
 62
     7
100
AcDbLine
 10
9.7190602311
 20
5.435621895151386
 30
0.0
 11
9.6912223087
 21
5.419549759051386
 31
0.0
  0
LINE
  5
247
330
204
100
AcDbEntity
  8
0
  6
Continuous
 62
     7
100
AcDbLine
 10
9.4768632475
 20
5.295790236151385
 30
0.0
 11
9.449025325099999
 21
5.279718100051386
 31
0.0
  0
LINE
  5
248
330
204
100
AcDbEntity
  8
0
  6
Continuous
 62
     7
100
AcDbLine
 10
9.234666263899999
 20
5.155958577151385
 30
0.0
 11
9.206828341499999
 21
5.139886441051385
 31
0.0
  0
LINE
  5
249
330
204
100
AcDbEntity
  8
0
  6
Continuous
 62
     7
100
AcDbLine
 10
10.0503411627
 20
5.167201456851385
 30
0.0
 11
10.1477775422
 21
5.110947809551385
 31
0.0
  0
LINE
  5
24A
330
204
100
AcDbEntity
  8
0
  6
Continuous
 62
     7
100
AcDbLine
 10
9.6912223087
 20
5.416330788551385
 30
0.0
 11
9.808144179099999
 21
5.348827442351385
 31
0.0
  0
LINE
  5
24B
330
204
100
AcDbEntity
  8
0
  6
Continuous
 62
     7
100
AcDbLine
 10
9.565947195499999
 20
5.569028345251386
 30
0.0
 11
9.565947195499999
 21
5.315773141751385
 31
0.0
  0
LINE
  5
24C
330
204
100
AcDbEntity
  8
0
  6
Continuous
 62
     7
100
AcDbLine
 10
9.565947195499999
 20
5.208995783351385
 30
0.0
 11
9.565947195499999
 21
4.887538138851386
 31
0.0
  0
LINE
  5
24D
330
204
100
AcDbEntity
  8
0
  6
Continuous
 62
     7
100
AcDbLine
 10
9.206828341499999
 20
5.001659653951386
 30
0.0
 11
9.3237502119
 21
5.069164124351385
 31
0.0
  0
LINE
  5
24E
330
204
100
AcDbEntity
  8
0
  6
Continuous
 62
     7
100
AcDbLine
 10
9.449025325099999
 20
5.141491312951385
 30
0.0
 11
9.565947195499999
 21
5.208995783351385
 31
0.0
  0
LINE
  5
24F
330
204
100
AcDbEntity
  8
0
  6
Continuous
 62
     7
100
AcDbLine
 10
9.6912223087
 20
5.281322971951385
 30
0.0
 11
9.808144179099999
 21
5.348827442351385
 31
0.0
  0
LINE
  5
250
330
204
100
AcDbEntity
  8
0
  6
Continuous
 62
     7
100
AcDbLine
 10
9.933419292299999
 20
5.421154630951385
 30
0.0
 11
10.0503411627
 21
5.488659101351386
 31
0.0
  0
LINE
  5
251
330
204
100
AcDbEntity
  8
0
  6
Continuous
 62
     7
100
AcDbLine
 10
9.663383574899999
 20
5.512774697951385
 30
0.0
 11
9.565947195499999
 21
5.569028345251386
 31
0.0
  0
LINE
  5
252
330
204
100
AcDbEntity
  8
0
  6
Continuous
 62
     7
100
AcDbLine
 10
8.7335607302
 20
6.049596023151385
 30
0.0
 11
8.716858745999999
 21
6.059238700051386
 31
0.0
  0
LINE
  5
253
330
204
100
AcDbEntity
  8
0
  6
Continuous
 62
     7
100
AcDbLine
 10
8.7446974797
 20
6.075311304551386
 30
0.0
 11
8.761399464
 21
6.065668627651386
 31
0.0
  0
LINE
  5
254
330
204
100
AcDbEntity
  8
0
  6
Continuous
 62
     7
100
AcDbLine
 10
9.593785929199999
 20
5.585100949751385
 30
0.0
 11
9.6912223087
 21
5.528847302451385
 31
0.0
  0
LINE
  5
255
330
204
100
AcDbEntity
  8
0
  6
Continuous
 62
     7
100
AcDbLine
 10
9.663383574899999
 20
4.831284491551386
 30
0.0
 11
9.663383574899999
 21
5.512774697951385
 31
0.0
  0
LINE
  5
256
330
204
100
AcDbEntity
  8
0
  6
Continuous
 62
     7
100
AcDbLine
 10
9.6912223087
 20
5.528847302451385
 30
0.0
 11
9.6912223087
 21
4.847357096051385
 31
0.0
  0
LINE
  5
257
330
204
100
AcDbEntity
  8
0
  6
Continuous
 62
     7
100
AcDbLine
 10
9.933419292299999
 20
5.556162447551386
 30
0.0
 11
10.0503411627
 21
5.488659101351386
 31
0.0
  0
LINE
  5
258
330
204
100
AcDbEntity
  8
0
  6
Continuous
 62
     7
100
AcDbLine
 10
9.808144179099999
 20
5.708860004251386
 30
0.0
 11
9.808144179099999
 21
5.455604800751385
 31
0.0
  0
LINE
  5
259
330
204
100
AcDbEntity
  8
0
  6
Continuous
 62
     7
100
AcDbLine
 10
9.808144179099999
 20
5.348827442351385
 30
0.0
 11
9.808144179099999
 21
5.027369797851386
 31
0.0
  0
LINE
  5
25A
330
204
100
AcDbEntity
  8
0
  6
Continuous
 62
     7
100
AcDbLine
 10
9.9055805586
 20
5.652606356951385
 30
0.0
 11
9.808144179099999
 21
5.708860004251386
 31
0.0
  0
LINE
  5
25B
330
204
100
AcDbEntity
  8
0
  6
Continuous
 62
     7
100
AcDbLine
 10
8.9757577138
 20
6.189427682151385
 30
0.0
 11
8.959055729600001
 21
6.199070359051385
 31
0.0
  0
LINE
  5
25C
330
204
100
AcDbEntity
  8
0
  6
Continuous
 62
     7
100
AcDbLine
 10
8.9868944634
 20
6.215142963551385
 30
0.0
 11
9.003596447599999
 21
6.205500286651385
 31
0.0
  0
LINE
  5
25D
330
204
100
AcDbEntity
  8
0
  6
Continuous
 62
     7
100
AcDbLine
 10
9.8359829128
 20
5.724932608751386
 30
0.0
 11
9.933419292299999
 21
5.668678961451385
 31
0.0
  0
LINE
  5
25E
330
204
100
AcDbEntity
  8
0
  6
Continuous
 62
     7
100
AcDbLine
 10
9.9055805586
 20
4.971116150551385
 30
0.0
 11
9.9055805586
 21
5.652606356951385
 31
0.0
  0
LINE
  5
25F
330
204
100
AcDbEntity
  8
0
  6
Continuous
 62
     7
100
AcDbLine
 10
9.933419292299999
 20
5.668678961451385
 30
0.0
 11
9.933419292299999
 21
4.987188755051386
 31
0.0
  0
LINE
  5
260
330
204
100
AcDbEntity
  8
0
  6
Continuous
 62
     7
100
AcDbLine
 10
9.1748137977
 20
4.549210282851386
 30
0.0
 11
9.206828341499999
 21
4.567693778051386
 31
0.0
  0
LINE
  5
261
330
204
100
AcDbEntity
  8
0
  6
Continuous
 62
     7
100
AcDbLine
 10
9.421186591299999
 20
4.691452832551386
 30
0.0
 11
9.449025325099999
 21
4.707525437051385
 31
0.0
  0
LINE
  5
262
330
204
100
AcDbEntity
  8
0
  6
Continuous
 62
     7
100
AcDbLine
 10
9.663383574899999
 20
4.831284491551386
 30
0.0
 11
9.6912223087
 21
4.847357096051385
 31
0.0
  0
LINE
  5
263
330
204
100
AcDbEntity
  8
0
  6
Continuous
 62
     7
100
AcDbLine
 10
9.9055805586
 20
4.971116150551385
 30
0.0
 11
9.933419292299999
 21
4.987188755051386
 31
0.0
  0
LINE
  5
264
330
204
100
AcDbEntity
  8
0
  6
Continuous
 62
     7
100
AcDbLine
 10
10.1477775422
 20
5.110947809551385
 30
0.0
 11
10.179792086
 21
5.129431304651385
 31
0.0
  0
LINE
  5
265
330
204
100
AcDbEntity
  8
0
  6
Continuous
 62
     7
100
AcDbLine
 10
9.077377418200001
 20
4.425447649151386
 30
0.0
 11
10.0823557065
 21
5.005668671051385
 31
0.0
  0
LINE
  5
266
330
204
100
AcDbEntity
  8
0
  6
Continuous
 62
     7
100
AcDbLine
 10
10.1477775422
 20
5.792438015951385
 30
0.0
 11
10.0503411627
 21
5.848691663251385
 31
0.0
  0
LINE
  5
267
330
204
100
AcDbEntity
  8
0
  6
Continuous
 62
     7
100
AcDbLine
 10
9.217954697499999
 20
6.329259341151385
 30
0.0
 11
9.2012527132
 21
6.338902018051386
 31
0.0
  0
LINE
  5
268
330
204
100
AcDbEntity
  8
0
  6
Continuous
 62
     7
100
AcDbLine
 10
10.0503411627
 20
5.848691663251385
 30
0.0
 11
10.0503411627
 21
5.595436459751385
 31
0.0
  0
LINE
  5
269
330
204
100
AcDbEntity
  8
0
  6
Continuous
 62
     7
100
AcDbLine
 10
10.0503411627
 20
5.488659101351386
 30
0.0
 11
10.0503411627
 21
5.167201456851385
 31
0.0
  0
LINE
  5
26A
330
204
100
AcDbEntity
  8
0
  6
Continuous
 62
     7
100
AcDbLine
 10
10.0823557065
 20
5.896106346451386
 30
0.0
 11
10.0823557065
 21
5.867175158351385
 31
0.0
  0
LINE
  5
26B
330
204
100
AcDbEntity
  8
0
  6
Continuous
 62
     7
100
AcDbLine
 10
10.0823557065
 20
5.148718269451386
 30
0.0
 11
10.0823557065
 21
5.005668671051385
 31
0.0
  0
LINE
  5
26C
330
204
100
AcDbEntity
  8
0
  6
Continuous
 62
     7
100
AcDbLine
 10
9.233267256999999
 20
6.357385513251386
 30
0.0
 11
9.2499692413
 21
6.347742836251386
 31
0.0
  0
LINE
  5
26D
330
204
100
AcDbEntity
  8
0
  6
Continuous
 62
     7
100
AcDbLine
 10
10.0823557065
 20
5.867175158351385
 30
0.0
 11
10.179792086
 21
5.810921511151385
 31
0.0
  0
LINE
  5
26E
330
204
100
AcDbEntity
  8
0
  6
Continuous
 62
     7
100
AcDbLine
 10
9.275026169
 20
6.362209373951386
 30
0.0
 11
9.420044765
 21
6.278484742551386
 31
0.0
  0
LINE
  5
26F
330
204
100
AcDbEntity
  8
0
  6
Continuous
 62
     7
100
AcDbLine
 10
9.503049711499999
 20
6.230562898551385
 30
0.0
 11
9.798654696499999
 21
6.059899141751386
 31
0.0
  0
LINE
  5
270
330
204
100
AcDbEntity
  8
0
  6
Continuous
 62
     7
100
AcDbLine
 10
9.881659643099999
 20
6.011977297651386
 30
0.0
 11
10.026678239
 21
5.928252666351386
 31
0.0
  0
LINE
  5
271
330
204
100
AcDbEntity
  8
0
  6
Continuous
 62
     7
100
AcDbLine
 10
10.0660476498
 20
5.932152499751385
 30
0.0
 11
9.314395579700001
 21
6.366109207351385
 31
0.0
  0
LINE
  5
272
330
204
100
AcDbEntity
  8
0
  6
Continuous
 62
     7
100
AcDbLine
 10
10.1477775422
 20
5.110947809551385
 30
0.0
 11
10.1477775422
 21
5.792438015951385
 31
0.0
  0
LINE
  5
273
330
204
100
AcDbEntity
  8
0
  6
Continuous
 62
     7
100
AcDbLine
 10
10.179792086
 20
5.810921511151385
 30
0.0
 11
10.179792086
 21
5.129431304651385
 31
0.0
  0
LINE
  5
274
330
204
100
AcDbEntity
  8
0
  6
Continuous
 62
     7
100
AcDbLine
 10
4.123738446599999
 20
4.825351024199999
 30
0.0
 11
4.123738446599999
 21
3.9907053549
 31
0.0
  0
LINE
  5
275
330
204
100
AcDbEntity
  8
0
  6
Continuous
 62
     7
100
AcDbLine
 10
5.176888052899999
 20
3.608815591199999
 30
0.0
 11
5.078462855999999
 21
3.608815591199999
 31
0.0
  0
LINE
  5
276
330
204
100
AcDbEntity
  8
0
  6
Continuous
 62
     7
100
AcDbLine
 10
4.507596714299999
 20
3.608815591199999
 30
0.0
 11
4.3894864781
 21
3.608815591199999
 31
0.0
  0
LINE
  5
277
330
204
100
AcDbEntity
  8
0
  6
Continuous
 62
     7
100
AcDbLine
 10
4.2615337222
 20
3.9907053549
 30
0.0
 11
4.2615337222
 21
3.770232913999999
 31
0.0
  0
LINE
  5
278
330
204
100
AcDbEntity
  8
0
  6
Continuous
 62
     7
100
AcDbLine
 10
4.2615337222
 20
4.825351024199999
 30
0.0
 11
4.2615337222
 21
4.9395242526
 31
0.0
  0
LINE
  5
279
330
204
100
AcDbEntity
  8
0
  6
Continuous
 62
     7
100
AcDbLine
 10
4.2615337222
 20
3.770232913999999
 30
0.0
 11
5.3245258481
 21
3.770232913999999
 31
0.0
  0
LINE
  5
27A
330
204
100
AcDbEntity
  8
0
  6
Continuous
 62
     7
100
AcDbLine
 10
4.3894864781
 20
3.770232913999999
 30
0.0
 11
4.3894864781
 21
3.608815591199999
 31
0.0
  0
LINE
  5
27B
330
204
100
AcDbEntity
  8
0
  6
Continuous
 62
     7
100
AcDbLine
 10
4.4879116749
 20
3.770232913999999
 30
0.0
 11
4.4879116749
 21
3.608815591199999
 31
0.0
  0
LINE
  5
27C
330
204
100
AcDbEntity
  8
0
  6
Continuous
 62
     7
100
AcDbLine
 10
4.507596714299999
 20
3.770232913999999
 30
0.0
 11
4.507596714299999
 21
3.608815591199999
 31
0.0
  0
LINE
  5
27D
330
204
100
AcDbEntity
  8
0
  6
Continuous
 62
     7
100
AcDbLine
 10
4.123738446599999
 20
3.9907053549
 30
0.0
 11
4.2615337222
 21
3.9907053549
 31
0.0
  0
LINE
  5
27E
330
204
100
AcDbEntity
  8
0
  6
Continuous
 62
     7
100
AcDbLine
 10
5.3245258481
 20
3.9907053549
 30
0.0
 11
5.462321123699999
 21
3.9907053549
 31
0.0
  0
LINE
  5
27F
330
204
100
AcDbEntity
  8
0
  6
Continuous
 62
     7
100
AcDbLine
 10
5.078462855999999
 20
3.770232913999999
 30
0.0
 11
5.078462855999999
 21
3.608815591199999
 31
0.0
  0
LINE
  5
280
330
204
100
AcDbEntity
  8
0
  6
Continuous
 62
     7
100
AcDbLine
 10
5.176888052899999
 20
3.770232913999999
 30
0.0
 11
5.176888052899999
 21
3.608815591199999
 31
0.0
  0
LINE
  5
281
330
204
100
AcDbEntity
  8
0
  6
Continuous
 62
     7
100
AcDbLine
 10
5.3245258481
 20
3.770232913999999
 30
0.0
 11
5.3245258481
 21
3.9907053549
 31
0.0
  0
LINE
  5
282
330
204
100
AcDbEntity
  8
0
  6
Continuous
 62
     7
100
AcDbLine
 10
5.3245258481
 20
4.825351024199999
 30
0.0
 11
5.3245258481
 21
4.9395242526
 31
0.0
  0
LINE
  5
283
330
204
100
AcDbEntity
  8
0
  6
Continuous
 62
     7
100
AcDbLine
 10
5.462321123699999
 20
4.825351024199999
 30
0.0
 11
5.3245258481
 21
4.825351024199999
 31
0.0
  0
LINE
  5
284
330
204
100
AcDbEntity
  8
0
  6
Continuous
 62
     7
100
AcDbLine
 10
4.2615337222
 20
4.825351024199999
 30
0.0
 11
4.123738446599999
 21
4.825351024199999
 31
0.0
  0
LINE
  5
285
330
204
100
AcDbEntity
  8
0
  6
Continuous
 62
     7
100
AcDbLine
 10
4.2615337222
 20
4.860784095099999
 30
0.0
 11
5.3245258481
 21
4.860784095099999
 31
0.0
  0
LINE
  5
286
330
204
100
AcDbEntity
  8
0
  6
Continuous
 62
     7
100
AcDbLine
 10
5.462321123699999
 20
3.9907053549
 30
0.0
 11
5.462321123699999
 21
4.825351024199999
 31
0.0
  0
LINE
  5
287
330
204
100
AcDbEntity
  8
0
  6
Continuous
 62
     7
100
AcDbLine
 10
4.2615337222
 20
4.9395242526
 30
0.0
 11
5.3245258481
 21
4.9395242526
 31
0.0
  0
LINE
  5
288
330
204
100
AcDbEntity
  8
0
  6
Continuous
 62
     7
100
AcDbLine
 10
1.2303490826
 20
3.770232913999999
 30
0.0
 11
1.2303490826
 21
4.860784095099999
 31
0.0
  0
LINE
  5
289
330
204
100
AcDbEntity
  8
0
  6
Continuous
 62
     7
100
AcDbLine
 10
1.275624673199999
 20
4.825351024199999
 30
0.0
 11
1.275624673199999
 21
3.9907053549
 31
0.0
  0
LINE
  5
28A
330
204
100
AcDbEntity
  8
0
  6
Continuous
 62
     7
100
AcDbLine
 10
2.6378291156
 20
3.608815591199999
 30
0.0
 11
2.5394044828
 21
3.608815591199999
 31
0.0
  0
LINE
  5
28B
330
204
100
AcDbEntity
  8
0
  6
Continuous
 62
     7
100
AcDbLine
 10
1.4134196668
 20
3.608815591199999
 30
0.0
 11
1.314995034
 21
3.608815591199999
 31
0.0
  0
LINE
  5
28C
330
204
100
AcDbEntity
  8
0
  6
Continuous
 62
     7
100
AcDbLine
 10
1.3149947519
 20
3.770232913999999
 30
0.0
 11
1.3149947519
 21
3.608815591199999
 31
0.0
  0
LINE
  5
28D
330
204
100
AcDbEntity
  8
0
  6
Continuous
 62
     7
100
AcDbLine
 10
1.364207350399999
 20
4.542262671999999
 30
0.0
 11
1.364207350399999
 21
4.3844061423
 31
0.0
  0
LINE
  5
28E
330
204
100
AcDbEntity
  8
0
  6
Continuous
 62
     7
100
AcDbLine
 10
1.413419948799999
 20
3.608815591199999
 30
0.0
 11
1.413419948799999
 21
3.770232913999999
 31
0.0
  0
LINE
  5
28F
330
204
100
AcDbEntity
  8
0
  6
Continuous
 62
     7
100
AcDbLine
 10
1.490191602299999
 20
4.3844061423
 30
0.0
 11
1.490191602299999
 21
4.542262671999999
 31
0.0
  0
LINE
  5
290
330
204
100
AcDbEntity
  8
0
  6
Continuous
 62
     7
100
AcDbLine
 10
2.6516089252
 20
3.770232913999999
 30
0.0
 11
1.2303490826
 21
3.770232913999999
 31
0.0
  0
LINE
  5
291
330
204
100
AcDbEntity
  8
0
  6
Continuous
 62
     7
100
AcDbLine
 10
1.275624673199999
 20
4.5151802297
 30
0.0
 11
1.4016089252
 21
4.553697480899999
 31
0.0
  0
LINE
  5
292
330
204
100
AcDbEntity
  8
0
  6
Continuous
 62
     7
100
AcDbLine
 10
1.578774279499999
 20
3.9907053549
 30
0.0
 11
1.578774279499999
 21
4.825351024199999
 31
0.0
  0
LINE
  5
293
330
204
100
AcDbEntity
  8
0
  6
Continuous
 62
     7
100
AcDbLine
 10
1.618144358199999
 20
4.825351024199999
 30
0.0
 11
1.618144358199999
 21
3.9907053549
 31
0.0
  0
LINE
  5
294
330
204
100
AcDbEntity
  8
0
  6
Continuous
 62
     7
100
AcDbLine
 10
1.618144358199999
 20
4.5151802297
 30
0.0
 11
1.7441286102
 21
4.553697480899999
 31
0.0
  0
LINE
  5
295
330
204
100
AcDbEntity
  8
0
  6
Continuous
 62
     7
100
AcDbLine
 10
2.6516089252
 20
3.9907053549
 30
0.0
 11
2.606333334599999
 21
3.9907053549
 31
0.0
  0
LINE
  5
296
330
204
100
AcDbEntity
  8
0
  6
Continuous
 62
     7
100
AcDbLine
 10
2.3031837283
 20
3.9907053549
 30
0.0
 11
2.263813649599999
 21
3.9907053549
 31
0.0
  0
LINE
  5
297
330
204
100
AcDbEntity
  8
0
  6
Continuous
 62
     7
100
AcDbLine
 10
1.9606640433
 20
3.9907053549
 30
0.0
 11
1.921293964499999
 21
3.9907053549
 31
0.0
  0
LINE
  5
298
330
204
100
AcDbEntity
  8
0
  6
Continuous
 62
     7
100
AcDbLine
 10
1.618144358199999
 20
3.9907053549
 30
0.0
 11
1.578774279499999
 21
3.9907053549
 31
0.0
  0
LINE
  5
299
330
204
100
AcDbEntity
  8
0
  6
Continuous
 62
     7
100
AcDbLine
 10
1.275624673199999
 20
3.9907053549
 30
0.0
 11
1.2303490826
 21
3.9907053549
 31
0.0
  0
LINE
  5
29A
330
204
100
AcDbEntity
  8
0
  6
Continuous
 62
     7
100
AcDbLine
 10
1.706727035399999
 20
4.542262671999999
 30
0.0
 11
1.706727035399999
 21
4.3844061423
 31
0.0
  0
LINE
  5
29B
330
204
100
AcDbEntity
  8
0
  6
Continuous
 62
     7
100
AcDbLine
 10
1.9606640433
 20
4.5151802297
 30
0.0
 11
2.0866482952
 21
4.553697480899999
 31
0.0
  0
LINE
  5
29C
330
204
100
AcDbEntity
  8
0
  6
Continuous
 62
     7
100
AcDbLine
 10
2.3031837283
 20
4.5151802297
 30
0.0
 11
2.429167980299999
 21
4.553697480899999
 31
0.0
  0
LINE
  5
29D
330
204
100
AcDbEntity
  8
0
  6
Continuous
 62
     7
100
AcDbLine
 10
1.8327112874
 20
4.3844061423
 30
0.0
 11
1.8327112874
 21
4.542262671999999
 31
0.0
  0
LINE
  5
29E
330
204
100
AcDbEntity
  8
0
  6
Continuous
 62
     7
100
AcDbLine
 10
1.921293964499999
 20
3.9907053549
 30
0.0
 11
1.921293964499999
 21
4.825351024199999
 31
0.0
  0
LINE
  5
29F
330
204
100
AcDbEntity
  8
0
  6
Continuous
 62
     7
100
AcDbLine
 10
1.9606640433
 20
4.825351024199999
 30
0.0
 11
1.9606640433
 21
3.9907053549
 31
0.0
  0
LINE
  5
2A0
330
204
100
AcDbEntity
  8
0
  6
Continuous
 62
     7
100
AcDbLine
 10
2.049246720399999
 20
4.542262671999999
 30
0.0
 11
2.049246720399999
 21
4.3844061423
 31
0.0
  0
LINE
  5
2A1
330
204
100
AcDbEntity
  8
0
  6
Continuous
 62
     7
100
AcDbLine
 10
1.275624673199999
 20
4.3844061423
 30
0.0
 11
1.578774279499999
 21
4.3844061423
 31
0.0
  0
LINE
  5
2A2
330
204
100
AcDbEntity
  8
0
  6
Continuous
 62
     7
100
AcDbLine
 10
1.618144358199999
 20
4.3844061423
 30
0.0
 11
1.921293964499999
 21
4.3844061423
 31
0.0
  0
LINE
  5
2A3
330
204
100
AcDbEntity
  8
0
  6
Continuous
 62
     7
100
AcDbLine
 10
1.9606640433
 20
4.3844061423
 30
0.0
 11
2.263813649599999
 21
4.3844061423
 31
0.0
  0
LINE
  5
2A4
330
204
100
AcDbEntity
  8
0
  6
Continuous
 62
     7
100
AcDbLine
 10
2.3031837283
 20
4.3844061423
 30
0.0
 11
2.606333334599999
 21
4.3844061423
 31
0.0
  0
LINE
  5
2A5
330
204
100
AcDbEntity
  8
0
  6
Continuous
 62
     7
100
AcDbLine
 10
1.4527900275
 20
4.553697480899999
 30
0.0
 11
1.578774279499999
 21
4.5151802297
 31
0.0
  0
LINE
  5
2A6
330
204
100
AcDbEntity
  8
0
  6
Continuous
 62
     7
100
AcDbLine
 10
2.1752309724
 20
4.3844061423
 30
0.0
 11
2.1752309724
 21
4.542262671999999
 31
0.0
  0
LINE
  5
2A7
330
204
100
AcDbEntity
  8
0
  6
Continuous
 62
     7
100
AcDbLine
 10
1.795309712599999
 20
4.553697480899999
 30
0.0
 11
1.921293964499999
 21
4.5151802297
 31
0.0
  0
LINE
  5
2A8
330
204
100
AcDbEntity
  8
0
  6
Continuous
 62
     7
100
AcDbLine
 10
2.263813649599999
 20
3.9907053549
 30
0.0
 11
2.263813649599999
 21
4.825351024199999
 31
0.0
  0
LINE
  5
2A9
330
204
100
AcDbEntity
  8
0
  6
Continuous
 62
     7
100
AcDbLine
 10
2.4803490826
 20
4.553697480899999
 30
0.0
 11
2.429167980299999
 21
4.553697480899999
 31
0.0
  0
LINE
  5
2AA
330
204
100
AcDbEntity
  8
0
  6
Continuous
 62
     7
100
AcDbLine
 10
2.1378293976
 20
4.553697480899999
 30
0.0
 11
2.0866482952
 21
4.553697480899999
 31
0.0
  0
LINE
  5
2AB
330
204
100
AcDbEntity
  8
0
  6
Continuous
 62
     7
100
AcDbLine
 10
1.795309712599999
 20
4.553697480899999
 30
0.0
 11
1.7441286102
 21
4.553697480899999
 31
0.0
  0
LINE
  5
2AC
330
204
100
AcDbEntity
  8
0
  6
Continuous
 62
     7
100
AcDbLine
 10
1.4527900275
 20
4.553697480899999
 30
0.0
 11
1.4016089252
 21
4.553697480899999
 31
0.0
  0
LINE
  5
2AD
330
204
100
AcDbEntity
  8
0
  6
Continuous
 62
     7
100
AcDbLine
 10
2.1378293976
 20
4.553697480899999
 30
0.0
 11
2.263813649599999
 21
4.5151802297
 31
0.0
  0
LINE
  5
2AE
330
204
100
AcDbEntity
  8
0
  6
Continuous
 62
     7
100
AcDbLine
 10
2.3031837283
 20
4.825351024199999
 30
0.0
 11
2.3031837283
 21
3.9907053549
 31
0.0
  0
LINE
  5
2AF
330
204
100
AcDbEntity
  8
0
  6
Continuous
 62
     7
100
AcDbLine
 10
2.3917664055
 20
4.542262671999999
 30
0.0
 11
2.3917664055
 21
4.3844061423
 31
0.0
  0
LINE
  5
2B0
330
204
100
AcDbEntity
  8
0
  6
Continuous
 62
     7
100
AcDbLine
 10
2.4803490826
 20
4.553697480899999
 30
0.0
 11
2.606333334599999
 21
4.5151802297
 31
0.0
  0
LINE
  5
2B1
330
204
100
AcDbEntity
  8
0
  6
Continuous
 62
     7
100
AcDbLine
 10
2.5177506574
 20
4.3844061423
 30
0.0
 11
2.5177506574
 21
4.542262671999999
 31
0.0
  0
LINE
  5
2B2
330
204
100
AcDbEntity
  8
0
  6
Continuous
 62
     7
100
AcDbLine
 10
2.6516089252
 20
4.825351024199999
 30
0.0
 11
2.606333334599999
 21
4.825351024199999
 31
0.0
  0
LINE
  5
2B3
330
204
100
AcDbEntity
  8
0
  6
Continuous
 62
     7
100
AcDbLine
 10
2.3031837283
 20
4.825351024199999
 30
0.0
 11
2.263813649599999
 21
4.825351024199999
 31
0.0
  0
LINE
  5
2B4
330
204
100
AcDbEntity
  8
0
  6
Continuous
 62
     7
100
AcDbLine
 10
1.9606640433
 20
4.825351024199999
 30
0.0
 11
1.921293964499999
 21
4.825351024199999
 31
0.0
  0
LINE
  5
2B5
330
204
100
AcDbEntity
  8
0
  6
Continuous
 62
     7
100
AcDbLine
 10
1.618144358199999
 20
4.825351024199999
 30
0.0
 11
1.578774279499999
 21
4.825351024199999
 31
0.0
  0
LINE
  5
2B6
330
204
100
AcDbEntity
  8
0
  6
Continuous
 62
     7
100
AcDbLine
 10
1.275624673199999
 20
4.825351024199999
 30
0.0
 11
1.2303490826
 21
4.825351024199999
 31
0.0
  0
LINE
  5
2B7
330
204
100
AcDbEntity
  8
0
  6
Continuous
 62
     7
100
AcDbLine
 10
2.539404200799999
 20
3.770232913999999
 30
0.0
 11
2.539404200799999
 21
3.608815591199999
 31
0.0
  0
LINE
  5
2B8
330
204
100
AcDbEntity
  8
0
  6
Continuous
 62
     7
100
AcDbLine
 10
2.606333334599999
 20
3.9907053549
 30
0.0
 11
2.606333334599999
 21
4.825351024199999
 31
0.0
  0
LINE
  5
2B9
330
204
100
AcDbEntity
  8
0
  6
Continuous
 62
     7
100
AcDbLine
 10
2.6378293976
 20
3.608815591199999
 30
0.0
 11
2.6378293976
 21
3.770232913999999
 31
0.0
  0
LINE
  5
2BA
330
204
100
AcDbEntity
  8
0
  6
Continuous
 62
     7
100
AcDbLine
 10
2.6516089252
 20
4.860784095099999
 30
0.0
 11
2.6516089252
 21
3.770232913999999
 31
0.0
  0
LINE
  5
2BB
330
204
100
AcDbEntity
  8
0
  6
Continuous
 62
     7
100
AcDbLine
 10
2.5728687677
 20
4.9395242526
 30
0.0
 11
1.3090892401
 21
4.9395242526
 31
0.0
  0
LINE
  5
2BC
330
204
100
AcDbEntity
  8
0
  6
Continuous
 62
     7
100
AcDbLine
 10
1.2303490826
 20
1.212056317699999
 30
0.0
 11
1.2303490826
 21
2.550638994799999
 31
0.0
  0
LINE
  5
2BD
330
204
100
AcDbEntity
  8
0
  6
Continuous
 62
     7
100
AcDbLine
 10
1.275624673199999
 20
2.550638994799999
 30
0.0
 11
1.275624673199999
 21
2.4128437192
 31
0.0
  0
LINE
  5
2BE
330
204
100
AcDbEntity
  8
0
  6
Continuous
 62
     7
100
AcDbLine
 10
1.275624673199999
 20
1.3498515933
 30
0.0
 11
1.275624673199999
 21
1.212056317699999
 31
0.0
  0
LINE
  5
2BF
330
204
100
AcDbEntity
  8
0
  6
Continuous
 62
     7
100
AcDbLine
 10
2.6516089252
 20
1.212056317699999
 30
0.0
 11
2.606333334599999
 21
1.212056317699999
 31
0.0
  0
LINE
  5
2C0
330
204
100
AcDbEntity
  8
0
  6
Continuous
 62
     7
100
AcDbLine
 10
2.3031837283
 20
1.212056317699999
 30
0.0
 11
2.263813649599999
 21
1.212056317699999
 31
0.0
  0
LINE
  5
2C1
330
204
100
AcDbEntity
  8
0
  6
Continuous
 62
     7
100
AcDbLine
 10
1.9606640433
 20
1.212056317699999
 30
0.0
 11
1.921293964499999
 21
1.212056317699999
 31
0.0
  0
LINE
  5
2C2
330
204
100
AcDbEntity
  8
0
  6
Continuous
 62
     7
100
AcDbLine
 10
1.618144358199999
 20
1.212056317699999
 30
0.0
 11
1.578774279499999
 21
1.212056317699999
 31
0.0
  0
LINE
  5
2C3
330
204
100
AcDbEntity
  8
0
  6
Continuous
 62
     7
100
AcDbLine
 10
1.275624673199999
 20
1.212056317699999
 30
0.0
 11
1.2303490826
 21
1.212056317699999
 31
0.0
  0
LINE
  5
2C4
330
204
100
AcDbEntity
  8
0
  6
Continuous
 62
     7
100
AcDbLine
 10
2.6516089252
 20
1.3498515933
 30
0.0
 11
1.2303490826
 21
1.3498515933
 31
0.0
  0
LINE
  5
2C5
330
204
100
AcDbEntity
  8
0
  6
Continuous
 62
     7
100
AcDbLine
 10
1.578774279499999
 20
1.212056317699999
 30
0.0
 11
1.578774279499999
 21
1.3498515933
 31
0.0
  0
LINE
  5
2C6
330
204
100
AcDbEntity
  8
0
  6
Continuous
 62
     7
100
AcDbLine
 10
1.578774279499999
 20
2.4128437192
 30
0.0
 11
1.578774279499999
 21
2.550638994799999
 31
0.0
  0
LINE
  5
2C7
330
204
100
AcDbEntity
  8
0
  6
Continuous
 62
     7
100
AcDbLine
 10
1.618144358199999
 20
2.550638994799999
 30
0.0
 11
1.618144358199999
 21
2.4128437192
 31
0.0
  0
LINE
  5
2C8
330
204
100
AcDbEntity
  8
0
  6
Continuous
 62
     7
100
AcDbLine
 10
1.618144358199999
 20
1.3498515933
 30
0.0
 11
1.618144358199999
 21
1.212056317699999
 31
0.0
  0
LINE
  5
2C9
330
204
100
AcDbEntity
  8
0
  6
Continuous
 62
     7
100
AcDbLine
 10
1.921293964499999
 20
1.212056317699999
 30
0.0
 11
1.921293964499999
 21
1.3498515933
 31
0.0
  0
LINE
  5
2CA
330
204
100
AcDbEntity
  8
0
  6
Continuous
 62
     7
100
AcDbLine
 10
1.921293964499999
 20
2.4128437192
 30
0.0
 11
1.921293964499999
 21
2.550638994799999
 31
0.0
  0
LINE
  5
2CB
330
204
100
AcDbEntity
  8
0
  6
Continuous
 62
     7
100
AcDbLine
 10
1.9606640433
 20
2.550638994799999
 30
0.0
 11
1.9606640433
 21
2.4128437192
 31
0.0
  0
LINE
  5
2CC
330
204
100
AcDbEntity
  8
0
  6
Continuous
 62
     7
100
AcDbLine
 10
1.9606640433
 20
1.3498515933
 30
0.0
 11
1.9606640433
 21
1.212056317699999
 31
0.0
  0
LINE
  5
2CD
330
204
100
AcDbEntity
  8
0
  6
Continuous
 62
     7
100
AcDbLine
 10
2.263813649599999
 20
1.212056317699999
 30
0.0
 11
2.263813649599999
 21
1.3498515933
 31
0.0
  0
LINE
  5
2CE
330
204
100
AcDbEntity
  8
0
  6
Continuous
 62
     7
100
AcDbLine
 10
2.263813649599999
 20
2.4128437192
 30
0.0
 11
2.263813649599999
 21
2.550638994799999
 31
0.0
  0
LINE
  5
2CF
330
204
100
AcDbEntity
  8
0
  6
Continuous
 62
     7
100
AcDbLine
 10
2.3031837283
 20
2.550638994799999
 30
0.0
 11
2.3031837283
 21
2.4128437192
 31
0.0
  0
LINE
  5
2D0
330
204
100
AcDbEntity
  8
0
  6
Continuous
 62
     7
100
AcDbLine
 10
2.3031837283
 20
1.3498515933
 30
0.0
 11
2.3031837283
 21
1.212056317699999
 31
0.0
  0
LINE
  5
2D1
330
204
100
AcDbEntity
  8
0
  6
Continuous
 62
     7
100
AcDbLine
 10
2.6516089252
 20
2.4128437192
 30
0.0
 11
1.2303490826
 21
2.4128437192
 31
0.0
  0
LINE
  5
2D2
330
204
100
AcDbEntity
  8
0
  6
Continuous
 62
     7
100
AcDbLine
 10
2.606333334599999
 20
1.212056317699999
 30
0.0
 11
2.606333334599999
 21
1.3498515933
 31
0.0
  0
LINE
  5
2D3
330
204
100
AcDbEntity
  8
0
  6
Continuous
 62
     7
100
AcDbLine
 10
2.606333334599999
 20
2.4128437192
 30
0.0
 11
2.606333334599999
 21
2.550638994799999
 31
0.0
  0
LINE
  5
2D4
330
204
100
AcDbEntity
  8
0
  6
Continuous
 62
     7
100
AcDbLine
 10
2.6516089252
 20
2.550638994799999
 30
0.0
 11
2.6516089252
 21
1.212056317699999
 31
0.0
  0
LINE
  5
2D5
330
204
100
AcDbEntity
  8
0
  6
Continuous
 62
     7
100
AcDbLine
 10
2.6516089252
 20
2.550638994799999
 30
0.0
 11
2.606333334599999
 21
2.550638994799999
 31
0.0
  0
LINE
  5
2D6
330
204
100
AcDbEntity
  8
0
  6
Continuous
 62
     7
100
AcDbLine
 10
2.3031837283
 20
2.550638994799999
 30
0.0
 11
2.263813649599999
 21
2.550638994799999
 31
0.0
  0
LINE
  5
2D7
330
204
100
AcDbEntity
  8
0
  6
Continuous
 62
     7
100
AcDbLine
 10
1.9606640433
 20
2.550638994799999
 30
0.0
 11
1.921293964499999
 21
2.550638994799999
 31
0.0
  0
LINE
  5
2D8
330
204
100
AcDbEntity
  8
0
  6
Continuous
 62
     7
100
AcDbLine
 10
1.618144358199999
 20
2.550638994799999
 30
0.0
 11
1.578774279499999
 21
2.550638994799999
 31
0.0
  0
LINE
  5
2D9
330
204
100
AcDbEntity
  8
0
  6
Continuous
 62
     7
100
AcDbLine
 10
1.275624673199999
 20
2.550638994799999
 30
0.0
 11
1.2303490826
 21
2.550638994799999
 31
0.0
  0
LINE
  5
2DA
330
204
100
AcDbEntity
  8
0
  6
Continuous
 62
     7
100
AcDbLine
 10
1.2303490826
 20
5.695576825499999
 30
0.0
 11
1.2303490826
 21
7.034159502599999
 31
0.0
  0
LINE
  5
2DB
330
204
100
AcDbEntity
  8
0
  6
Continuous
 62
     7
100
AcDbLine
 10
1.275624673199999
 20
7.034159502599999
 30
0.0
 11
1.275624673199999
 21
6.8963642271
 31
0.0
  0
LINE
  5
2DC
330
204
100
AcDbEntity
  8
0
  6
Continuous
 62
     7
100
AcDbLine
 10
1.275624673199999
 20
5.8333721011
 30
0.0
 11
1.275624673199999
 21
5.695576825499999
 31
0.0
  0
LINE
  5
2DD
330
204
100
AcDbEntity
  8
0
  6
Continuous
 62
     7
100
AcDbLine
 10
2.6516089252
 20
5.695576825499999
 30
0.0
 11
2.606333334599999
 21
5.695576825499999
 31
0.0
  0
LINE
  5
2DE
330
204
100
AcDbEntity
  8
0
  6
Continuous
 62
     7
100
AcDbLine
 10
2.3031837283
 20
5.695576825499999
 30
0.0
 11
2.263813649599999
 21
5.695576825499999
 31
0.0
  0
LINE
  5
2DF
330
204
100
AcDbEntity
  8
0
  6
Continuous
 62
     7
100
AcDbLine
 10
1.9606640433
 20
5.695576825499999
 30
0.0
 11
1.921293964499999
 21
5.695576825499999
 31
0.0
  0
LINE
  5
2E0
330
204
100
AcDbEntity
  8
0
  6
Continuous
 62
     7
100
AcDbLine
 10
1.618144358199999
 20
5.695576825499999
 30
0.0
 11
1.578774279499999
 21
5.695576825499999
 31
0.0
  0
LINE
  5
2E1
330
204
100
AcDbEntity
  8
0
  6
Continuous
 62
     7
100
AcDbLine
 10
1.275624673199999
 20
5.695576825499999
 30
0.0
 11
1.2303490826
 21
5.695576825499999
 31
0.0
  0
LINE
  5
2E2
330
204
100
AcDbEntity
  8
0
  6
Continuous
 62
     7
100
AcDbLine
 10
1.3090892401
 20
5.8333721011
 30
0.0
 11
1.3090892401
 21
6.0384585124
 31
0.0
  0
LINE
  5
2E3
330
204
100
AcDbEntity
  8
0
  6
Continuous
 62
     7
100
AcDbLine
 10
1.3090892401
 20
6.1558447448
 30
0.0
 11
1.3090892401
 21
6.5738915833
 31
0.0
  0
LINE
  5
2E4
330
204
100
AcDbEntity
  8
0
  6
Continuous
 62
     7
100
AcDbLine
 10
1.3090892401
 20
6.6912778157
 30
0.0
 11
1.3090892401
 21
6.8963642271
 31
0.0
  0
LINE
  5
2E5
330
204
100
AcDbEntity
  8
0
  6
Continuous
 62
     7
100
AcDbLine
 10
1.407514436999999
 20
6.749042962899999
 30
0.0
 11
1.407514436999999
 21
6.6522697389
 31
0.0
  0
LINE
  5
2E6
330
204
100
AcDbEntity
  8
0
  6
Continuous
 62
     7
100
AcDbLine
 10
1.407514436999999
 20
6.6128996601
 30
0.0
 11
1.407514436999999
 21
6.516126436
 31
0.0
  0
LINE
  5
2E7
330
204
100
AcDbEntity
  8
0
  6
Continuous
 62
     7
100
AcDbLine
 10
1.407514436999999
 20
6.2136098921
 30
0.0
 11
1.407514436999999
 21
6.116836667999999
 31
0.0
  0
LINE
  5
2E8
330
204
100
AcDbEntity
  8
0
  6
Continuous
 62
     7
100
AcDbLine
 10
1.407514436999999
 20
6.077466589299999
 30
0.0
 11
1.407514436999999
 21
5.980693365199999
 31
0.0
  0
LINE
  5
2E9
330
204
100
AcDbEntity
  8
0
  6
Continuous
 62
     7
100
AcDbLine
 10
2.6516089252
 20
5.8333721011
 30
0.0
 11
1.2303490826
 21
5.8333721011
 31
0.0
  0
LINE
  5
2EA
330
204
100
AcDbEntity
  8
0
  6
Continuous
 62
     7
100
AcDbLine
 10
1.446884515699999
 20
5.980693365199999
 30
0.0
 11
1.446884515699999
 21
6.077466589299999
 31
0.0
  0
LINE
  5
2EB
330
204
100
AcDbEntity
  8
0
  6
Continuous
 62
     7
100
AcDbLine
 10
1.446884515699999
 20
6.116836667999999
 30
0.0
 11
1.446884515699999
 21
6.2136098921
 31
0.0
  0
LINE
  5
2EC
330
204
100
AcDbEntity
  8
0
  6
Continuous
 62
     7
100
AcDbLine
 10
1.446884515699999
 20
6.516126436
 30
0.0
 11
1.446884515699999
 21
6.6128996601
 31
0.0
  0
LINE
  5
2ED
330
204
100
AcDbEntity
  8
0
  6
Continuous
 62
     7
100
AcDbLine
 10
1.446884515699999
 20
6.6522697389
 30
0.0
 11
1.446884515699999
 21
6.749042962899999
 31
0.0
  0
LINE
  5
2EE
330
204
100
AcDbEntity
  8
0
  6
Continuous
 62
     7
100
AcDbLine
 10
1.578774279499999
 20
5.695576825499999
 30
0.0
 11
1.578774279499999
 21
5.8333721011
 31
0.0
  0
LINE
  5
2EF
330
204
100
AcDbEntity
  8
0
  6
Continuous
 62
     7
100
AcDbLine
 10
1.578774279499999
 20
6.8963642271
 30
0.0
 11
1.578774279499999
 21
7.034159502599999
 31
0.0
  0
LINE
  5
2F0
330
204
100
AcDbEntity
  8
0
  6
Continuous
 62
     7
100
AcDbLine
 10
1.618144358199999
 20
7.034159502599999
 30
0.0
 11
1.618144358199999
 21
6.8963642271
 31
0.0
  0
LINE
  5
2F1
330
204
100
AcDbEntity
  8
0
  6
Continuous
 62
     7
100
AcDbLine
 10
1.618144358199999
 20
5.8333721011
 30
0.0
 11
1.618144358199999
 21
5.695576825499999
 31
0.0
  0
LINE
  5
2F2
330
204
100
AcDbEntity
  8
0
  6
Continuous
 62
     7
100
AcDbLine
 10
1.3107412129
 20
6.077466589299999
 30
0.0
 11
1.407514436999999
 21
6.077466589299999
 31
0.0
  0
LINE
  5
2F3
330
204
100
AcDbEntity
  8
0
  6
Continuous
 62
     7
100
AcDbLine
 10
1.446884515699999
 20
6.077466589299999
 30
0.0
 11
1.543657739799999
 21
6.077466589299999
 31
0.0
  0
LINE
  5
2F4
330
204
100
AcDbEntity
  8
0
  6
Continuous
 62
     7
100
AcDbLine
 10
1.653260897899999
 20
6.077466589299999
 30
0.0
 11
1.750034121999999
 21
6.077466589299999
 31
0.0
  0
LINE
  5
2F5
330
204
100
AcDbEntity
  8
0
  6
Continuous
 62
     7
100
AcDbLine
 10
1.7894042008
 20
6.077466589299999
 30
0.0
 11
1.886177424799999
 21
6.077466589299999
 31
0.0
  0
LINE
  5
2F6
330
204
100
AcDbEntity
  8
0
  6
Continuous
 62
     7
100
AcDbLine
 10
1.995780583
 20
6.077466589299999
 30
0.0
 11
2.0925538071
 21
6.077466589299999
 31
0.0
  0
LINE
  5
2F7
330
204
100
AcDbEntity
  8
0
  6
Continuous
 62
     7
100
AcDbLine
 10
2.1319238858
 20
6.077466589299999
 30
0.0
 11
2.2286971099
 21
6.077466589299999
 31
0.0
  0
LINE
  5
2F8
330
204
100
AcDbEntity
  8
0
  6
Continuous
 62
     7
100
AcDbLine
 10
2.338300268
 20
6.077466589299999
 30
0.0
 11
2.435073492099999
 21
6.077466589299999
 31
0.0
  0
LINE
  5
2F9
330
204
100
AcDbEntity
  8
0
  6
Continuous
 62
     7
100
AcDbLine
 10
2.4744435708
 20
6.077466589299999
 30
0.0
 11
2.5712167949
 21
6.077466589299999
 31
0.0
  0
LINE
  5
2FA
330
204
100
AcDbEntity
  8
0
  6
Continuous
 62
     7
100
AcDbLine
 10
1.750034121999999
 20
6.749042962899999
 30
0.0
 11
1.750034121999999
 21
6.6522697389
 31
0.0
  0
LINE
  5
2FB
330
204
100
AcDbEntity
  8
0
  6
Continuous
 62
     7
100
AcDbLine
 10
1.750034121999999
 20
6.6128996601
 30
0.0
 11
1.750034121999999
 21
6.516126436
 31
0.0
  0
LINE
  5
2FC
330
204
100
AcDbEntity
  8
0
  6
Continuous
 62
     7
100
AcDbLine
 10
1.750034121999999
 20
6.2136098921
 30
0.0
 11
1.750034121999999
 21
6.116836667999999
 31
0.0
  0
LINE
  5
2FD
330
204
100
AcDbEntity
  8
0
  6
Continuous
 62
     7
100
AcDbLine
 10
1.750034121999999
 20
6.077466589299999
 30
0.0
 11
1.750034121999999
 21
5.980693365199999
 31
0.0
  0
LINE
  5
2FE
330
204
100
AcDbEntity
  8
0
  6
Continuous
 62
     7
100
AcDbLine
 10
2.5712167949
 20
6.116836667999999
 30
0.0
 11
2.4744435708
 21
6.116836667999999
 31
0.0
  0
LINE
  5
2FF
330
204
100
AcDbEntity
  8
0
  6
Continuous
 62
     7
100
AcDbLine
 10
2.435073492099999
 20
6.116836667999999
 30
0.0
 11
2.338300268
 21
6.116836667999999
 31
0.0
  0
LINE
  5
300
330
204
100
AcDbEntity
  8
0
  6
Continuous
 62
     7
100
AcDbLine
 10
2.2286971099
 20
6.116836667999999
 30
0.0
 11
2.1319238858
 21
6.116836667999999
 31
0.0
  0
LINE
  5
301
330
204
100
AcDbEntity
  8
0
  6
Continuous
 62
     7
100
AcDbLine
 10
2.0925538071
 20
6.116836667999999
 30
0.0
 11
1.995780583
 21
6.116836667999999
 31
0.0
  0
LINE
  5
302
330
204
100
AcDbEntity
  8
0
  6
Continuous
 62
     7
100
AcDbLine
 10
1.886177424799999
 20
6.116836667999999
 30
0.0
 11
1.7894042008
 21
6.116836667999999
 31
0.0
  0
LINE
  5
303
330
204
100
AcDbEntity
  8
0
  6
Continuous
 62
     7
100
AcDbLine
 10
1.750034121999999
 20
6.116836667999999
 30
0.0
 11
1.653260897899999
 21
6.116836667999999
 31
0.0
  0
LINE
  5
304
330
204
100
AcDbEntity
  8
0
  6
Continuous
 62
     7
100
AcDbLine
 10
1.543657739799999
 20
6.116836667999999
 30
0.0
 11
1.446884515699999
 21
6.116836667999999
 31
0.0
  0
LINE
  5
305
330
204
100
AcDbEntity
  8
0
  6
Continuous
 62
     7
100
AcDbLine
 10
1.407514436999999
 20
6.116836667999999
 30
0.0
 11
1.3107412129
 21
6.116836667999999
 31
0.0
  0
LINE
  5
306
330
204
100
AcDbEntity
  8
0
  6
Continuous
 62
     7
100
AcDbLine
 10
1.7894042008
 20
5.980693365199999
 30
0.0
 11
1.7894042008
 21
6.077466589299999
 31
0.0
  0
LINE
  5
307
330
204
100
AcDbEntity
  8
0
  6
Continuous
 62
     7
100
AcDbLine
 10
1.7894042008
 20
6.116836667999999
 30
0.0
 11
1.7894042008
 21
6.2136098921
 31
0.0
  0
LINE
  5
308
330
204
100
AcDbEntity
  8
0
  6
Continuous
 62
     7
100
AcDbLine
 10
1.7894042008
 20
6.516126436
 30
0.0
 11
1.7894042008
 21
6.6128996601
 31
0.0
  0
LINE
  5
309
330
204
100
AcDbEntity
  8
0
  6
Continuous
 62
     7
100
AcDbLine
 10
1.7894042008
 20
6.6522697389
 30
0.0
 11
1.7894042008
 21
6.749042962899999
 31
0.0
  0
LINE
  5
30A
330
204
100
AcDbEntity
  8
0
  6
Continuous
 62
     7
100
AcDbLine
 10
1.921293964499999
 20
5.695576825499999
 30
0.0
 11
1.921293964499999
 21
5.8333721011
 31
0.0
  0
LINE
  5
30B
330
204
100
AcDbEntity
  8
0
  6
Continuous
 62
     7
100
AcDbLine
 10
1.921293964499999
 20
6.8963642271
 30
0.0
 11
1.921293964499999
 21
7.034159502599999
 31
0.0
  0
LINE
  5
30C
330
204
100
AcDbEntity
  8
0
  6
Continuous
 62
     7
100
AcDbLine
 10
1.9606640433
 20
7.034159502599999
 30
0.0
 11
1.9606640433
 21
6.8963642271
 31
0.0
  0
LINE
  5
30D
330
204
100
AcDbEntity
  8
0
  6
Continuous
 62
     7
100
AcDbLine
 10
1.9606640433
 20
5.8333721011
 30
0.0
 11
1.9606640433
 21
5.695576825499999
 31
0.0
  0
LINE
  5
30E
330
204
100
AcDbEntity
  8
0
  6
Continuous
 62
     7
100
AcDbLine
 10
2.0925538071
 20
6.749042962899999
 30
0.0
 11
2.0925538071
 21
6.6522697389
 31
0.0
  0
LINE
  5
30F
330
204
100
AcDbEntity
  8
0
  6
Continuous
 62
     7
100
AcDbLine
 10
2.0925538071
 20
6.6128996601
 30
0.0
 11
2.0925538071
 21
6.516126436
 31
0.0
  0
LINE
  5
310
330
204
100
AcDbEntity
  8
0
  6
Continuous
 62
     7
100
AcDbLine
 10
2.0925538071
 20
6.2136098921
 30
0.0
 11
2.0925538071
 21
6.116836667999999
 31
0.0
  0
LINE
  5
311
330
204
100
AcDbEntity
  8
0
  6
Continuous
 62
     7
100
AcDbLine
 10
2.0925538071
 20
6.077466589299999
 30
0.0
 11
2.0925538071
 21
5.980693365199999
 31
0.0
  0
LINE
  5
312
330
204
100
AcDbEntity
  8
0
  6
Continuous
 62
     7
100
AcDbLine
 10
2.1319238858
 20
5.980693365199999
 30
0.0
 11
2.1319238858
 21
6.077466589299999
 31
0.0
  0
LINE
  5
313
330
204
100
AcDbEntity
  8
0
  6
Continuous
 62
     7
100
AcDbLine
 10
2.1319238858
 20
6.116836667999999
 30
0.0
 11
2.1319238858
 21
6.2136098921
 31
0.0
  0
LINE
  5
314
330
204
100
AcDbEntity
  8
0
  6
Continuous
 62
     7
100
AcDbLine
 10
2.1319238858
 20
6.516126436
 30
0.0
 11
2.1319238858
 21
6.6128996601
 31
0.0
  0
LINE
  5
315
330
204
100
AcDbEntity
  8
0
  6
Continuous
 62
     7
100
AcDbLine
 10
2.1319238858
 20
6.6522697389
 30
0.0
 11
2.1319238858
 21
6.749042962899999
 31
0.0
  0
LINE
  5
316
330
204
100
AcDbEntity
  8
0
  6
Continuous
 62
     7
100
AcDbLine
 10
1.3107412129
 20
6.6128996601
 30
0.0
 11
1.407514436999999
 21
6.6128996601
 31
0.0
  0
LINE
  5
317
330
204
100
AcDbEntity
  8
0
  6
Continuous
 62
     7
100
AcDbLine
 10
1.446884515699999
 20
6.6128996601
 30
0.0
 11
1.543657739799999
 21
6.6128996601
 31
0.0
  0
LINE
  5
318
330
204
100
AcDbEntity
  8
0
  6
Continuous
 62
     7
100
AcDbLine
 10
1.653260897899999
 20
6.6128996601
 30
0.0
 11
1.750034121999999
 21
6.6128996601
 31
0.0
  0
LINE
  5
319
330
204
100
AcDbEntity
  8
0
  6
Continuous
 62
     7
100
AcDbLine
 10
1.7894042008
 20
6.6128996601
 30
0.0
 11
1.886177424799999
 21
6.6128996601
 31
0.0
  0
LINE
  5
31A
330
204
100
AcDbEntity
  8
0
  6
Continuous
 62
     7
100
AcDbLine
 10
1.995780583
 20
6.6128996601
 30
0.0
 11
2.0925538071
 21
6.6128996601
 31
0.0
  0
LINE
  5
31B
330
204
100
AcDbEntity
  8
0
  6
Continuous
 62
     7
100
AcDbLine
 10
2.1319238858
 20
6.6128996601
 30
0.0
 11
2.2286971099
 21
6.6128996601
 31
0.0
  0
LINE
  5
31C
330
204
100
AcDbEntity
  8
0
  6
Continuous
 62
     7
100
AcDbLine
 10
2.338300268
 20
6.6128996601
 30
0.0
 11
2.435073492099999
 21
6.6128996601
 31
0.0
  0
LINE
  5
31D
330
204
100
AcDbEntity
  8
0
  6
Continuous
 62
     7
100
AcDbLine
 10
2.4744435708
 20
6.6128996601
 30
0.0
 11
2.5712167949
 21
6.6128996601
 31
0.0
  0
LINE
  5
31E
330
204
100
AcDbEntity
  8
0
  6
Continuous
 62
     7
100
AcDbLine
 10
2.263813649599999
 20
5.695576825499999
 30
0.0
 11
2.263813649599999
 21
5.8333721011
 31
0.0
  0
LINE
  5
31F
330
204
100
AcDbEntity
  8
0
  6
Continuous
 62
     7
100
AcDbLine
 10
2.263813649599999
 20
6.8963642271
 30
0.0
 11
2.263813649599999
 21
7.034159502599999
 31
0.0
  0
LINE
  5
320
330
204
100
AcDbEntity
  8
0
  6
Continuous
 62
     7
100
AcDbLine
 10
2.5712167949
 20
6.6522697389
 30
0.0
 11
2.4744435708
 21
6.6522697389
 31
0.0
  0
LINE
  5
321
330
204
100
AcDbEntity
  8
0
  6
Continuous
 62
     7
100
AcDbLine
 10
2.435073492099999
 20
6.6522697389
 30
0.0
 11
2.338300268
 21
6.6522697389
 31
0.0
  0
LINE
  5
322
330
204
100
AcDbEntity
  8
0
  6
Continuous
 62
     7
100
AcDbLine
 10
2.2286971099
 20
6.6522697389
 30
0.0
 11
2.1319238858
 21
6.6522697389
 31
0.0
  0
LINE
  5
323
330
204
100
AcDbEntity
  8
0
  6
Continuous
 62
     7
100
AcDbLine
 10
2.0925538071
 20
6.6522697389
 30
0.0
 11
1.995780583
 21
6.6522697389
 31
0.0
  0
LINE
  5
324
330
204
100
AcDbEntity
  8
0
  6
Continuous
 62
     7
100
AcDbLine
 10
1.886177424799999
 20
6.6522697389
 30
0.0
 11
1.7894042008
 21
6.6522697389
 31
0.0
  0
LINE
  5
325
330
204
100
AcDbEntity
  8
0
  6
Continuous
 62
     7
100
AcDbLine
 10
1.750034121999999
 20
6.6522697389
 30
0.0
 11
1.653260897899999
 21
6.6522697389
 31
0.0
  0
LINE
  5
326
330
204
100
AcDbEntity
  8
0
  6
Continuous
 62
     7
100
AcDbLine
 10
1.543657739799999
 20
6.6522697389
 30
0.0
 11
1.446884515699999
 21
6.6522697389
 31
0.0
  0
LINE
  5
327
330
204
100
AcDbEntity
  8
0
  6
Continuous
 62
     7
100
AcDbLine
 10
1.407514436999999
 20
6.6522697389
 30
0.0
 11
1.3107412129
 21
6.6522697389
 31
0.0
  0
LINE
  5
328
330
204
100
AcDbEntity
  8
0
  6
Continuous
 62
     7
100
AcDbLine
 10
2.3031837283
 20
7.034159502599999
 30
0.0
 11
2.3031837283
 21
6.8963642271
 31
0.0
  0
LINE
  5
329
330
204
100
AcDbEntity
  8
0
  6
Continuous
 62
     7
100
AcDbLine
 10
2.3031837283
 20
5.8333721011
 30
0.0
 11
2.3031837283
 21
5.695576825499999
 31
0.0
  0
LINE
  5
32A
330
204
100
AcDbEntity
  8
0
  6
Continuous
 62
     7
100
AcDbLine
 10
2.435073492099999
 20
6.749042962899999
 30
0.0
 11
2.435073492099999
 21
6.6522697389
 31
0.0
  0
LINE
  5
32B
330
204
100
AcDbEntity
  8
0
  6
Continuous
 62
     7
100
AcDbLine
 10
2.435073492099999
 20
6.6128996601
 30
0.0
 11
2.435073492099999
 21
6.516126436
 31
0.0
  0
LINE
  5
32C
330
204
100
AcDbEntity
  8
0
  6
Continuous
 62
     7
100
AcDbLine
 10
2.435073492099999
 20
6.2136098921
 30
0.0
 11
2.435073492099999
 21
6.116836667999999
 31
0.0
  0
LINE
  5
32D
330
204
100
AcDbEntity
  8
0
  6
Continuous
 62
     7
100
AcDbLine
 10
2.435073492099999
 20
6.077466589299999
 30
0.0
 11
2.435073492099999
 21
5.980693365199999
 31
0.0
  0
LINE
  5
32E
330
204
100
AcDbEntity
  8
0
  6
Continuous
 62
     7
100
AcDbLine
 10
2.4744435708
 20
5.980693365199999
 30
0.0
 11
2.4744435708
 21
6.077466589299999
 31
0.0
  0
LINE
  5
32F
330
204
100
AcDbEntity
  8
0
  6
Continuous
 62
     7
100
AcDbLine
 10
2.4744435708
 20
6.116836667999999
 30
0.0
 11
2.4744435708
 21
6.2136098921
 31
0.0
  0
LINE
  5
330
330
204
100
AcDbEntity
  8
0
  6
Continuous
 62
     7
100
AcDbLine
 10
2.4744435708
 20
6.516126436
 30
0.0
 11
2.4744435708
 21
6.6128996601
 31
0.0
  0
LINE
  5
331
330
204
100
AcDbEntity
  8
0
  6
Continuous
 62
     7
100
AcDbLine
 10
2.4744435708
 20
6.6522697389
 30
0.0
 11
2.4744435708
 21
6.749042962899999
 31
0.0
  0
LINE
  5
332
330
204
100
AcDbEntity
  8
0
  6
Continuous
 62
     7
100
AcDbLine
 10
1.2303490826
 20
6.8963642271
 30
0.0
 11
2.6516089252
 21
6.8963642271
 31
0.0
  0
LINE
  5
333
330
204
100
AcDbEntity
  8
0
  6
Continuous
 62
     7
100
AcDbLine
 10
2.5728687677
 20
6.8963642271
 30
0.0
 11
2.5728687677
 21
6.6912778157
 31
0.0
  0
LINE
  5
334
330
204
100
AcDbEntity
  8
0
  6
Continuous
 62
     7
100
AcDbLine
 10
2.5728687677
 20
6.5738915833
 30
0.0
 11
2.5728687677
 21
6.1558447448
 31
0.0
  0
LINE
  5
335
330
204
100
AcDbEntity
  8
0
  6
Continuous
 62
     7
100
AcDbLine
 10
2.5728687677
 20
6.0384585124
 30
0.0
 11
2.5728687677
 21
5.8333721011
 31
0.0
  0
LINE
  5
336
330
204
100
AcDbEntity
  8
0
  6
Continuous
 62
     7
100
AcDbLine
 10
2.606333334599999
 20
5.695576825499999
 30
0.0
 11
2.606333334599999
 21
5.8333721011
 31
0.0
  0
LINE
  5
337
330
204
100
AcDbEntity
  8
0
  6
Continuous
 62
     7
100
AcDbLine
 10
2.606333334599999
 20
6.8963642271
 30
0.0
 11
2.606333334599999
 21
7.034159502599999
 31
0.0
  0
LINE
  5
338
330
204
100
AcDbEntity
  8
0
  6
Continuous
 62
     7
100
AcDbLine
 10
2.6516089252
 20
5.695576825499999
 30
0.0
 11
2.6516089252
 21
7.034159502599999
 31
0.0
  0
LINE
  5
339
330
204
100
AcDbEntity
  8
0
  6
Continuous
 62
     7
100
AcDbLine
 10
2.6516089252
 20
7.034159502599999
 30
0.0
 11
2.606333334599999
 21
7.034159502599999
 31
0.0
  0
LINE
  5
33A
330
204
100
AcDbEntity
  8
0
  6
Continuous
 62
     7
100
AcDbLine
 10
2.3031837283
 20
7.034159502599999
 30
0.0
 11
2.263813649599999
 21
7.034159502599999
 31
0.0
  0
LINE
  5
33B
330
204
100
AcDbEntity
  8
0
  6
Continuous
 62
     7
100
AcDbLine
 10
1.9606640433
 20
7.034159502599999
 30
0.0
 11
1.921293964499999
 21
7.034159502599999
 31
0.0
  0
LINE
  5
33C
330
204
100
AcDbEntity
  8
0
  6
Continuous
 62
     7
100
AcDbLine
 10
1.618144358199999
 20
7.034159502599999
 30
0.0
 11
1.578774279499999
 21
7.034159502599999
 31
0.0
  0
LINE
  5
33D
330
204
100
AcDbEntity
  8
0
  6
Continuous
 62
     7
100
AcDbLine
 10
1.275624673199999
 20
7.034159502599999
 30
0.0
 11
1.2303490826
 21
7.034159502599999
 31
0.0
  0
ARC
  5
33E
330
204
100
AcDbEntity
  8
0
  6
Continuous
 62
     7
100
AcDbCircle
 10
1.3090892401
 20
4.860784095099999
 30
0.0
 40
0.0787401575
100
AcDbArc
 50
90.0
 51
180.0
  0
ARC
  5
33F
330
204
100
AcDbEntity
  8
0
  6
Continuous
 62
     7
100
AcDbCircle
 10
2.5728687677
 20
4.860784095099999
 30
0.0
 40
0.0787401575
100
AcDbArc
 50
0.0
 51
90.0
  0
CIRCLE
  5
340
330
204
100
AcDbEntity
  8
0
  6
Continuous
 62
     7
100
AcDbCircle
 10
2.588616799199999
 20
2.2356783649
 30
0.0
 40
0.0492125984
  0
CIRCLE
  5
341
330
204
100
AcDbEntity
  8
0
  6
Continuous
 62
     7
100
AcDbCircle
 10
1.364207350399999
 20
2.215993325499999
 30
0.0
 40
0.0492125984
  0
CIRCLE
  5
342
330
204
100
AcDbEntity
  8
0
  6
Continuous
 62
     7
100
AcDbCircle
 10
1.364207350399999
 20
1.546701986999999
 30
0.0
 40
0.0492125984
  0
CIRCLE
  5
343
330
204
100
AcDbEntity
  8
0
  6
Continuous
 62
     7
100
AcDbCircle
 10
1.769719161399999
 20
6.097151628599999
 30
0.0
 40
0.1318897638
  0
CIRCLE
  5
344
330
204
100
AcDbEntity
  8
0
  6
Continuous
 62
     7
100
AcDbCircle
 10
1.4271867365
 20
6.0971527335
 30
0.0
 40
0.1318773393
  0
ARC
  5
345
330
204
100
AcDbEntity
  8
0
  6
Continuous
 62
     7
100
AcDbCircle
 10
1.7696797733
 20
6.097537777699999
 30
0.0
 40
0.1184963919
100
AcDbArc
 50
260.418271619
 51
279.5817283811
  0
ARC
  5
346
330
204
100
AcDbEntity
  8
0
  6
Continuous
 62
     7
100
AcDbCircle
 10
1.427238864499999
 20
6.097537777699999
 30
0.0
 40
0.1184963919
100
AcDbArc
 50
260.418271619
 51
279.5817283811
  0
ARC
  5
347
330
204
100
AcDbEntity
  8
0
  6
Continuous
 62
     7
100
AcDbCircle
 10
1.7697579252
 20
6.0971541008
 30
0.0
 40
0.1180715963
100
AcDbArc
 50
279.5923194379
 51
260.4070668112
  0
ARC
  5
348
330
204
100
AcDbEntity
  8
0
  6
Continuous
 62
     7
100
AcDbCircle
 10
1.427238240099999
 20
6.0971541008
 30
0.0
 40
0.1180715963
100
AcDbArc
 50
279.5923194380001
 51
260.4070668167
  0
CIRCLE
  5
349
330
204
100
AcDbEntity
  8
0
  6
Continuous
 62
     7
100
AcDbCircle
 10
1.769719161399999
 20
6.6325846995
 30
0.0
 40
0.1318897638
  0
CIRCLE
  5
34A
330
204
100
AcDbEntity
  8
0
  6
Continuous
 62
     7
100
AcDbCircle
 10
1.4271867365
 20
6.632585804299999
 30
0.0
 40
0.1318773393
  0
ARC
  5
34B
330
204
100
AcDbEntity
  8
0
  6
Continuous
 62
     7
100
AcDbCircle
 10
1.7696797733
 20
6.6329708486
 30
0.0
 40
0.1184963919
100
AcDbArc
 50
260.418271619
 51
279.581728381
  0
ARC
  5
34C
330
204
100
AcDbEntity
  8
0
  6
Continuous
 62
     7
100
AcDbCircle
 10
1.427160088199999
 20
6.6329708486
 30
0.0
 40
0.1184963919
100
AcDbArc
 50
260.418271619
 51
279.5817283811
  0
ARC
  5
34D
330
204
100
AcDbEntity
  8
0
  6
Continuous
 62
     7
100
AcDbCircle
 10
1.769680397599999
 20
6.632587171599999
 30
0.0
 40
0.1180715963
100
AcDbArc
 50
279.5923194379
 51
260.4070668181
  0
ARC
  5
34E
330
204
100
AcDbEntity
  8
0
  6
Continuous
 62
     7
100
AcDbCircle
 10
1.427238240099999
 20
6.632587171599999
 30
0.0
 40
0.1180715963
100
AcDbArc
 50
279.5923194379
 51
260.4070668181
  0
CIRCLE
  5
34F
330
204
100
AcDbEntity
  8
0
  6
Continuous
 62
     7
100
AcDbCircle
 10
2.112238846399999
 20
6.097151628599999
 30
0.0
 40
0.1318897638
  0
CIRCLE
  5
350
330
204
100
AcDbEntity
  8
0
  6
Continuous
 62
     7
100
AcDbCircle
 10
2.4547715986
 20
6.0971527154
 30
0.0
 40
0.1318770336
  0
ARC
  5
351
330
204
100
AcDbEntity
  8
0
  6
Continuous
 62
     7
100
AcDbCircle
 10
2.1121994583
 20
6.097537777699999
 30
0.0
 40
0.1184963919
100
AcDbArc
 50
260.418271619
 51
279.5817283811
  0
ARC
  5
352
330
204
100
AcDbEntity
  8
0
  6
Continuous
 62
     7
100
AcDbCircle
 10
2.4547191433
 20
6.097537777699999
 30
0.0
 40
0.1184963919
100
AcDbArc
 50
260.418271619
 51
279.5817283811
  0
ARC
  5
353
330
204
100
AcDbEntity
  8
0
  6
Continuous
 62
     7
100
AcDbCircle
 10
2.1122776102
 20
6.0971541008
 30
0.0
 40
0.1180715963
100
AcDbArc
 50
279.5923194379
 51
260.407066812
  0
ARC
  5
354
330
204
100
AcDbEntity
  8
0
  6
Continuous
 62
     7
100
AcDbCircle
 10
2.454719767699999
 20
6.0971541008
 30
0.0
 40
0.1180715963
100
AcDbArc
 50
279.5923194379
 51
260.4070668116
  0
CIRCLE
  5
355
330
204
100
AcDbEntity
  8
0
  6
Continuous
 62
     7
100
AcDbCircle
 10
2.112238846399999
 20
6.6325846995
 30
0.0
 40
0.1318897638
  0
CIRCLE
  5
356
330
204
100
AcDbEntity
  8
0
  6
Continuous
 62
     7
100
AcDbCircle
 10
2.4547715986
 20
6.632585786299999
 30
0.0
 40
0.1318770336
  0
ARC
  5
357
330
204
100
AcDbEntity
  8
0
  6
Continuous
 62
     7
100
AcDbCircle
 10
2.1121994583
 20
6.6329708486
 30
0.0
 40
0.1184963919
100
AcDbArc
 50
260.418271619
 51
279.581728381
  0
ARC
  5
358
330
204
100
AcDbEntity
  8
0
  6
Continuous
 62
     7
100
AcDbCircle
 10
2.4547191433
 20
6.6329708486
 30
0.0
 40
0.1184963919
100
AcDbArc
 50
260.418271619
 51
279.581728381
  0
ARC
  5
359
330
204
100
AcDbEntity
  8
0
  6
Continuous
 62
     7
100
AcDbCircle
 10
2.112200082599999
 20
6.632587171599999
 30
0.0
 40
0.1180715963
100
AcDbArc
 50
279.5923194380001
 51
260.4070668124
  0
ARC
  5
35A
330
204
100
AcDbEntity
  8
0
  6
Continuous
 62
     7
100
AcDbCircle
 10
2.4547972953
 20
6.632587171599999
 30
0.0
 40
0.1180715963
100
AcDbArc
 50
279.5923194379
 51
260.4070668114
  0
SPLINE
  5
35B
330
204
100
AcDbEntity
  8
0
  6
Continuous
 62
     7
100
AcDbSpline
210
0.0
220
0.0
230
1.0
 70
     8
 71
     3
 72
    11
 73
     7
 74
     0
 42
0.0000000001
 43
0.0000000001
 40
0.0
 40
0.0
 40
0.0
 40
0.0
 40
0.2897771797
 40
0.5490714036
 40
0.7822268828
 40
1.0
 40
1.0
 40
1.0
 40
1.0
 10
10.0823557065
 20
5.896106346451386
 30
0.0
 10
10.0823557065
 20
5.900097014651385
 30
0.0
 10
10.0817523073
 20
5.907684512351385
 30
0.0
 10
10.0786773235
 20
5.918108724251386
 30
0.0
 10
10.0735050413
 20
5.926567495451386
 30
0.0
 10
10.0686446386
 20
5.930652493351385
 30
0.0
 10
10.0660473584
 20
5.932151999651385
 30
0.0
  0
SPLINE
  5
35C
330
204
100
AcDbEntity
  8
0
  6
Continuous
 62
     7
100
AcDbSpline
210
0.0
220
0.0
230
1.0
 70
     8
 71
     3
 72
    11
 73
     7
 74
     0
 42
0.0000000001
 43
0.0000000001
 40
0.0
 40
0.0
 40
0.0
 40
0.0
 40
0.2027226929
 40
0.4315135815
 40
0.6963035634999999
 40
1.0
 40
1.0
 40
1.0
 40
1.0
 10
9.404136343999999
 20
5.708057088251385
 30
0.0
 10
9.404135507000001
 20
5.703380689151385
 30
0.0
 10
9.402494046900001
 20
5.693366680351386
 30
0.0
 10
9.3950298288
 20
5.678890129851385
 30
0.0
 10
9.3824292391
 20
5.665247411551385
 30
0.0
 10
9.3715746225
 20
5.657717124751385
 30
0.0
 10
9.3655075359
 20
5.654214311551386
 30
0.0
  0
SPLINE
  5
35D
330
204
100
AcDbEntity
  8
0
  6
Continuous
 62
     7
100
AcDbSpline
210
0.0
220
0.0
230
1.0
 70
     8
 71
     3
 72
    11
 73
     7
 74
     0
 42
0.0000000001
 43
0.0000000001
 40
0.0
 40
0.0
 40
0.0
 40
0.0
 40
0.2027226929
 40
0.4315135815
 40
0.6963035634999999
 40
1.0
 40
1.0
 40
1.0
 40
1.0
 10
9.6463333276
 20
5.847888747251385
 30
0.0
 10
9.646332490599998
 20
5.843212348151386
 30
0.0
 10
9.644691030499998
 20
5.833198339351385
 30
0.0
 10
9.637226812399999
 20
5.818721788851386
 30
0.0
 10
9.624626222699999
 20
5.805079070551386
 30
0.0
 10
9.6137716061
 20
5.797548783751386
 30
0.0
 10
9.6077045196
 20
5.794045970551385
 30
0.0
  0
SPLINE
  5
35E
330
204
100
AcDbEntity
  8
0
  6
Continuous
 62
     7
100
AcDbSpline
210
0.0
220
0.0
230
1.0
 70
     8
 71
     3
 72
    11
 73
     7
 74
     0
 42
0.0000000001
 43
0.0000000001
 40
0.0
 40
0.0
 40
0.0
 40
0.0
 40
0.2027226929
 40
0.4315135815
 40
0.6963035634999999
 40
1.0
 40
1.0
 40
1.0
 40
1.0
 10
9.267723396
 20
6.066474348151385
 30
0.0
 10
9.267722558999999
 20
6.061797948951386
 30
0.0
 10
9.266081098899999
 20
6.051783940251386
 30
0.0
 10
9.2586168809
 20
6.037307389751385
 30
0.0
 10
9.2460162912
 20
6.023664671451386
 30
0.0
 10
9.2351616745
 20
6.016134384551385
 30
0.0
 10
9.229094587999998
 20
6.012631571451386
 30
0.0
  0
SPLINE
  5
35F
330
204
100
AcDbEntity
  8
0
  6
Continuous
 62
     7
100
AcDbSpline
210
0.0
220
0.0
230
1.0
 70
     8
 71
     3
 72
    11
 73
     7
 74
     0
 42
0.0000000001
 43
0.0000000001
 40
0.0
 40
0.0
 40
0.0
 40
0.0
 40
0.2027226929
 40
0.4315135815
 40
0.6963035634999999
 40
1.0
 40
1.0
 40
1.0
 40
1.0
 10
9.025526412399999
 20
5.926642689151385
 30
0.0
 10
9.025525575399999
 20
5.921966289951384
 30
0.0
 10
9.023884115299999
 20
5.911952281251386
 30
0.0
 10
9.0164198973
 20
5.897475730751385
 30
0.0
 10
9.0038193076
 20
5.883833012451384
 30
0.0
 10
8.9929646909
 20
5.876302725551385
 30
0.0
 10
8.986897604400001
 20
5.872799912451385
 30
0.0
  0
SPLINE
  5
360
330
204
100
AcDbEntity
  8
0
  6
Continuous
 62
     7
100
AcDbSpline
210
0.0
220
0.0
230
1.0
 70
     8
 71
     3
 72
    11
 73
     7
 74
     0
 42
0.0000000001
 43
0.0000000001
 40
0.0
 40
0.0
 40
0.0
 40
0.0
 40
0.2027226929
 40
0.4315135815
 40
0.6963035634999999
 40
1.0
 40
1.0
 40
1.0
 40
1.0
 10
9.161939360399999
 20
5.568225429251386
 30
0.0
 10
9.161938523399999
 20
5.563549030151386
 30
0.0
 10
9.160297063299999
 20
5.553535021351386
 30
0.0
 10
9.152832845199998
 20
5.539058470851385
 30
0.0
 10
9.140232255499999
 20
5.525415752551386
 30
0.0
 10
9.129377638899999
 20
5.517885465751385
 30
0.0
 10
9.123310552299999
 20
5.514382652551386
 30
0.0
  0
SPLINE
  5
361
330
204
100
AcDbEntity
  8
0
  6
Continuous
 62
     7
100
AcDbSpline
210
0.0
220
0.0
230
1.0
 70
     8
 71
     3
 72
    11
 73
     7
 74
     0
 42
0.0000000001
 43
0.0000000001
 40
0.0
 40
0.0
 40
0.0
 40
0.0
 40
0.2027226929
 40
0.4315135815
 40
0.6963035634999999
 40
1.0
 40
1.0
 40
1.0
 40
1.0
 10
8.7833294288
 20
5.786811030151386
 30
0.0
 10
8.7833285918
 20
5.782134630951385
 30
0.0
 10
8.7816871317
 20
5.772120622251385
 30
0.0
 10
8.7742229136
 20
5.757644071751386
 30
0.0
 10
8.761622323899999
 20
5.744001353451385
 30
0.0
 10
8.750767707299999
 20
5.736471066551386
 30
0.0
 10
8.744700620799999
 20
5.732968253451385
 30
0.0
  0
SPLINE
  5
362
330
204
100
AcDbEntity
  8
0
  6
Continuous
 62
     7
100
AcDbSpline
210
0.0
220
0.0
230
1.0
 70
     8
 71
     3
 72
    11
 73
     7
 74
     0
 42
0.0000000001
 43
0.0000000001
 40
0.0
 40
0.0
 40
0.0
 40
0.0
 40
0.2387035974
 40
0.4844337576
 40
0.7395525461
 40
1.0
 40
1.0
 40
1.0
 40
1.0
 10
8.5447533077
 20
4.680996770851385
 30
0.0
 10
8.544760528400001
 20
4.678942895151386
 30
0.0
 10
8.543917307699999
 20
4.674745694551385
 30
0.0
 10
8.540654396499999
 20
4.669183972051385
 30
0.0
 10
8.535974257799999
 20
4.664524743751386
 30
0.0
 10
8.532282122699999
 20
4.662026668451385
 30
0.0
 10
8.530341374099998
 20
4.660906183451385
 30
0.0
  0
SPLINE
  5
363
330
204
100
AcDbEntity
  8
0
  6
Continuous
 62
     7
100
AcDbSpline
210
0.0
220
0.0
230
1.0
 70
     8
 71
     3
 72
    19
 73
    15
 74
     0
 42
0.0000000001
 43
0.0000000001
 40
0.0
 40
0.0
 40
0.0
 40
0.0
 40
0.0682155479
 40
0.1401037807
 40
0.2867946084
 40
0.4250756765000001
 40
0.5477192262
 40
0.6724796966
 40
0.7347406598
 40
0.7949182385000001
 40
0.8517488076000001
 40
0.9045667204999999
 40
0.9536018698999999
 40
1.0
 40
1.0
 40
1.0
 40
1.0
 10
9.4712915716
 20
6.152463230451385
 30
0.0
 10
9.4661137153
 20
6.149473811551386
 30
0.0
 10
9.4550301209
 20
6.144091962451385
 30
0.0
 10
9.431241962599999
 20
6.135840744751385
 30
0.0
 10
9.400268719099999
 20
6.130204452551386
 30
0.0
 10
9.3644054785
 20
6.129702684651385
 30
0.0
 10
9.330805793699999
 20
6.134317349651385
 30
0.0
 10
9.304683849499999
 20
6.142299097751386
 30
0.0
 10
9.285178384099999
 20
6.151833985351386
 30
0.0
 10
9.2720122576
 20
6.160504700051386
 30
0.0
 10
9.2609455919
 20
6.170567588751386
 30
0.0
 10
9.2525600834
 20
6.181794651151385
 30
0.0
 10
9.247331451599999
 20
6.193833981851385
 30
0.0
 10
9.246143363699999
 20
6.202239366651386
 30
0.0
 10
9.2461417768
 20
6.206306007151385
 30
0.0
  0
SPLINE
  5
364
330
204
100
AcDbEntity
  8
0
  6
Continuous
 62
     7
100
AcDbSpline
210
0.0
220
0.0
230
1.0
 70
     8
 71
     3
 72
    19
 73
    15
 74
     0
 42
0.0000000001
 43
0.0000000001
 40
0.0
 40
0.0
 40
0.0
 40
0.0
 40
0.0682155479
 40
0.1401037807
 40
0.2867946084
 40
0.4250756765000001
 40
0.5477192262
 40
0.6724796966
 40
0.7347406598
 40
0.7949182385000001
 40
0.8517488076000001
 40
0.9045667204999999
 40
0.9536018698999999
 40
1.0
 40
1.0
 40
1.0
 40
1.0
 10
9.849901503199999
 20
5.933877629551385
 30
0.0
 10
9.8447236469
 20
5.930888210751385
 30
0.0
 10
9.833640052499999
 20
5.925506361651385
 30
0.0
 10
9.809851894099999
 20
5.917255143851386
 30
0.0
 10
9.778878650700001
 20
5.911618851651385
 30
0.0
 10
9.743015410099999
 20
5.911117083851386
 30
0.0
 10
9.709415725299999
 20
5.915731748751386
 30
0.0
 10
9.683293781099999
 20
5.923713496951386
 30
0.0
 10
9.663788315699999
 20
5.933248384451386
 30
0.0
 10
9.650622189199999
 20
5.941919099251386
 30
0.0
 10
9.6395555235
 20
5.951981987951386
 30
0.0
 10
9.631170015
 20
5.963209050351386
 30
0.0
 10
9.6259413832
 20
5.975248381051385
 30
0.0
 10
9.624753295299999
 20
5.983653765751385
 30
0.0
 10
9.624751708299999
 20
5.987720406351386
 30
0.0
  0
SPLINE
  5
365
330
204
100
AcDbEntity
  8
0
  6
Continuous
 62
     7
100
AcDbSpline
210
0.0
220
0.0
230
1.0
 70
     8
 71
     3
 72
    11
 73
     7
 74
     0
 42
0.0000000001
 43
0.0000000001
 40
0.0
 40
0.0
 40
0.0
 40
0.0
 40
0.2538925175
 40
0.5208172008
 40
0.7748038245000001
 40
1.0
 40
1.0
 40
1.0
 40
1.0
 10
9.123310552299999
 20
5.514382652551386
 30
0.0
 10
9.113122140199999
 20
5.508500405151385
 30
0.0
 10
9.090522617499999
 20
5.499322135151386
 30
0.0
 10
9.055112156399999
 20
5.492482895951385
 30
0.0
 10
9.020420035499999
 20
5.491471050451385
 30
0.0
 10
8.998280271799998
 20
5.494059381451386
 30
0.0
 10
8.9880364671
 20
5.496046998551385
 30
0.0
  0
SPLINE
  5
366
330
204
100
AcDbEntity
  8
0
  6
Continuous
 62
     7
100
AcDbSpline
210
0.0
220
0.0
230
1.0
 70
     8
 71
     3
 72
     9
 73
     5
 74
     0
 42
0.0000000001
 43
0.0000000001
 40
0.0
 40
0.0
 40
0.0
 40
0.0
 40
0.5140838890000001
 40
1.0
 40
1.0
 40
1.0
 40
1.0
 10
8.905033442799998
 20
5.543968945051386
 30
0.0
 10
8.902841484099999
 20
5.547736467651386
 30
0.0
 10
8.899380701
 20
5.555588008651385
 30
0.0
 10
8.898162365199999
 20
5.564105482651386
 30
0.0
 10
8.898160757499999
 20
5.568225429551385
 30
0.0
  0
SPLINE
  5
367
330
204
100
AcDbEntity
  8
0
  6
Continuous
 62
     7
100
AcDbSpline
210
0.0
220
0.0
230
1.0
 70
     8
 71
     3
 72
    11
 73
     7
 74
     0
 42
0.0000000001
 43
0.0000000001
 40
0.0
 40
0.0
 40
0.0
 40
0.0
 40
0.2538925175
 40
0.5208172008
 40
0.7748038245000001
 40
1.0
 40
1.0
 40
1.0
 40
1.0
 10
8.744700620799999
 20
5.732968253451385
 30
0.0
 10
8.734512208599999
 20
5.727086006051385
 30
0.0
 10
8.711912685999999
 20
5.717907735951385
 30
0.0
 10
8.6765022248
 20
5.711068496751385
 30
0.0
 10
8.641810103899999
 20
5.710056651251386
 30
0.0
 10
8.619670340199999
 20
5.712644982251385
 30
0.0
 10
8.609426535599999
 20
5.714632599351386
 30
0.0
  0
SPLINE
  5
368
330
204
100
AcDbEntity
  8
0
  6
Continuous
 62
     7
100
AcDbSpline
210
0.0
220
0.0
230
1.0
 70
     8
 71
     3
 72
     9
 73
     5
 74
     0
 42
0.0000000001
 43
0.0000000001
 40
0.0
 40
0.0
 40
0.0
 40
0.0
 40
0.5140838890000001
 40
1.0
 40
1.0
 40
1.0
 40
1.0
 10
8.526423511299999
 20
5.762554545851386
 30
0.0
 10
8.524231552599999
 20
5.766322068551385
 30
0.0
 10
8.5207707694
 20
5.774173609451385
 30
0.0
 10
8.519552433599999
 20
5.782691083451385
 30
0.0
 10
8.519550825899999
 20
5.786811030351386
 30
0.0
  0
SPLINE
  5
369
330
204
100
AcDbEntity
  8
0
  6
Continuous
 62
     7
100
AcDbSpline
210
0.0
220
0.0
230
1.0
 70
     8
 71
     3
 72
    19
 73
    15
 74
     0
 42
0.0000000001
 43
0.0000000001
 40
0.0
 40
0.0
 40
0.0
 40
0.0
 40
0.0682155479
 40
0.1401037807
 40
0.2867946084
 40
0.4250756765000001
 40
0.5477192262
 40
0.6724796966
 40
0.7347406598
 40
0.7949182385000001
 40
0.8517488076000001
 40
0.9045667204999999
 40
0.9536018698999999
 40
1.0
 40
1.0
 40
1.0
 40
1.0
 10
8.986897604400001
 20
5.872799912451385
 30
0.0
 10
8.981719748099999
 20
5.869810493551385
 30
0.0
 10
8.970636153699999
 20
5.864428644451385
 30
0.0
 10
8.946847995299998
 20
5.856177426651385
 30
0.0
 10
8.9158747519
 20
5.850541134551385
 30
0.0
 10
8.880011511299999
 20
5.850039366651386
 30
0.0
 10
8.846411826499998
 20
5.854654031651386
 30
0.0
 10
8.8202898823
 20
5.862635779751385
 30
0.0
 10
8.8007844169
 20
5.872170667351385
 30
0.0
 10
8.787618290399999
 20
5.880841382051385
 30
0.0
 10
8.776551624699999
 20
5.890904270751385
 30
0.0
 10
8.768166116199999
 20
5.902131333151386
 30
0.0
 10
8.7629374844
 20
5.914170663851386
 30
0.0
 10
8.761749396499999
 20
5.922576048651385
 30
0.0
 10
8.7617478095
 20
5.926642689151385
 30
0.0
  0
SPLINE
  5
36A
330
204
100
AcDbEntity
  8
0
  6
Continuous
 62
     7
100
AcDbSpline
210
0.0
220
0.0
230
1.0
 70
     8
 71
     3
 72
    19
 73
    15
 74
     0
 42
0.0000000001
 43
0.0000000001
 40
0.0
 40
0.0
 40
0.0
 40
0.0
 40
0.0682155479
 40
0.1401037807
 40
0.2867946084
 40
0.4250756765000001
 40
0.5477192262
 40
0.6724796966
 40
0.7347406598
 40
0.7949182385000001
 40
0.8517488076000001
 40
0.9045667204999999
 40
0.9536018698999999
 40
1.0
 40
1.0
 40
1.0
 40
1.0
 10
9.229094587999998
 20
6.012631571451386
 30
0.0
 10
9.223916731699999
 20
6.009642152551386
 30
0.0
 10
9.2128331373
 20
6.004260303451385
 30
0.0
 10
9.189044979
 20
5.996009085651385
 30
0.0
 10
9.1580717355
 20
5.990372793551385
 30
0.0
 10
9.1222084949
 20
5.989871025651385
 30
0.0
 10
9.0886088101
 20
5.994485690651385
 30
0.0
 10
9.0624868659
 20
6.002467438751386
 30
0.0
 10
9.042981400499998
 20
6.012002326351386
 30
0.0
 10
9.029815274
 20
6.020673041051385
 30
0.0
 10
9.018748608300001
 20
6.030735929751385
 30
0.0
 10
9.010363099800001
 20
6.041962992151385
 30
0.0
 10
9.005134467999999
 20
6.054002322851386
 30
0.0
 10
9.0039463801
 20
6.062407707651386
 30
0.0
 10
9.003944793099998
 20
6.066474348151385
 30
0.0
  0
SPLINE
  5
36B
330
204
100
AcDbEntity
  8
0
  6
Continuous
 62
     7
100
AcDbSpline
210
0.0
220
0.0
230
1.0
 70
     8
 71
     3
 72
    19
 73
    15
 74
     0
 42
0.0000000001
 43
0.0000000001
 40
0.0
 40
0.0
 40
0.0
 40
0.0
 40
0.0682155479
 40
0.1401037807
 40
0.2867946084
 40
0.4250756765000001
 40
0.5477192262
 40
0.6724796966
 40
0.7347406598
 40
0.7949182385000001
 40
0.8517488076000001
 40
0.9045667204999999
 40
0.9536018698999999
 40
1.0
 40
1.0
 40
1.0
 40
1.0
 10
9.6077045196
 20
5.794045970551385
 30
0.0
 10
9.6025266633
 20
5.791056551751386
 30
0.0
 10
9.5914430689
 20
5.785674702651386
 30
0.0
 10
9.567654910499999
 20
5.777423484851385
 30
0.0
 10
9.536681666999999
 20
5.771787192651386
 30
0.0
 10
9.5008184264
 20
5.771285424851385
 30
0.0
 10
9.467218741699999
 20
5.775900089751385
 30
0.0
 10
9.4410967975
 20
5.783881837951385
 30
0.0
 10
9.421591332
 20
5.793416725451385
 30
0.0
 10
9.408425205599998
 20
5.802087440251385
 30
0.0
 10
9.3973585399
 20
5.812150328951386
 30
0.0
 10
9.388973031399999
 20
5.823377391351386
 30
0.0
 10
9.383744399600001
 20
5.835416722051385
 30
0.0
 10
9.3825563116
 20
5.843822106751385
 30
0.0
 10
9.3825547247
 20
5.847888747351385
 30
0.0
  0
SPLINE
  5
36C
330
204
100
AcDbEntity
  8
0
  6
Continuous
 62
     7
100
AcDbSpline
210
0.0
220
0.0
230
1.0
 70
     8
 71
     3
 72
    19
 73
    15
 74
     0
 42
0.0000000001
 43
0.0000000001
 40
0.0
 40
0.0
 40
0.0
 40
0.0
 40
0.0682155479
 40
0.1401037807
 40
0.2867946084
 40
0.4250756765000001
 40
0.5477192262
 40
0.6724796966
 40
0.7347406598
 40
0.7949182385000001
 40
0.8517488076000001
 40
0.9045667204999999
 40
0.9536018698999999
 40
1.0
 40
1.0
 40
1.0
 40
1.0
 10
9.3655075359
 20
5.654214311551386
 30
0.0
 10
9.360329679699999
 20
5.651224892651386
 30
0.0
 10
9.349246085299999
 20
5.645843043651385
 30
0.0
 10
9.3254579269
 20
5.637591825851385
 30
0.0
 10
9.2944846834
 20
5.631955533651385
 30
0.0
 10
9.258621442799999
 20
5.631453765851385
 30
0.0
 10
9.225021758099998
 20
5.636068430751385
 30
0.0
 10
9.1988998139
 20
5.644050178951386
 30
0.0
 10
9.1793943484
 20
5.653585066451386
 30
0.0
 10
9.166228222
 20
5.662255781251386
 30
0.0
 10
9.155161556199999
 20
5.672318669951385
 30
0.0
 10
9.146776047799999
 20
5.683545732351385
 30
0.0
 10
9.141547415899999
 20
5.695585063051385
 30
0.0
 10
9.140359327999998
 20
5.703990447751386
 30
0.0
 10
9.1403577411
 20
5.708057088351385
 30
0.0
  0
SPLINE
  5
36D
330
204
100
AcDbEntity
  8
0
  6
Continuous
 62
     7
100
AcDbSpline
210
0.0
220
0.0
230
1.0
 70
     8
 71
     3
 72
    11
 73
     7
 74
     0
 42
0.0000000001
 43
0.0000000001
 40
0.0
 40
0.0
 40
0.0
 40
0.0
 40
0.2386326706
 40
0.4846875325
 40
0.7398248798
 40
1.0
 40
1.0
 40
1.0
 40
1.0
 10
9.897710792299999
 20
4.898992477851385
 30
0.0
 10
9.897642574099998
 20
4.896987028151385
 30
0.0
 10
9.896692924099999
 20
4.892918919151385
 30
0.0
 10
9.8934180201
 20
4.887540449751385
 30
0.0
 10
9.888811720699999
 20
4.883023685951385
 30
0.0
 10
9.8852025455
 20
4.880589819251386
 30
0.0
 10
9.883307890900001
 20
4.879495946451386
 30
0.0
  0
SPLINE
  5
36E
330
204
100
AcDbEntity
  8
0
  6
Continuous
 62
     7
100
AcDbSpline
210
0.0
220
0.0
230
1.0
 70
     8
 71
     3
 72
    11
 73
     7
 74
     0
 42
0.0000000001
 43
0.0000000001
 40
0.0
 40
0.0
 40
0.0
 40
0.0
 40
0.2027226931
 40
0.4315135821000001
 40
0.6963035641
 40
1.0
 40
1.0
 40
1.0
 40
1.0
 10
9.8885303112
 20
5.987720405651385
 30
0.0
 10
9.8885294741
 20
5.983044006551386
 30
0.0
 10
9.8868880139
 20
5.973029997951385
 30
0.0
 10
9.879423795800001
 20
5.958553447551386
 30
0.0
 10
9.866823206199999
 20
5.944910729451385
 30
0.0
 10
9.855968589699999
 20
5.937380442651385
 30
0.0
 10
9.849901503199999
 20
5.933877629551385
 30
0.0
  0
SPLINE
  5
36F
330
204
100
AcDbEntity
  8
0
  6
Continuous
 62
     7
100
AcDbSpline
210
0.0
220
0.0
230
1.0
 70
     8
 71
     3
 72
    11
 73
     7
 74
     0
 42
0.0000000001
 43
0.0000000001
 40
0.0
 40
0.0
 40
0.0
 40
0.0
 40
0.2027226931
 40
0.4315135821000001
 40
0.6963035641
 40
1.0
 40
1.0
 40
1.0
 40
1.0
 10
9.5099203796
 20
6.206306006451386
 30
0.0
 10
9.5099195426
 20
6.201629607351385
 30
0.0
 10
9.5082780824
 20
6.191615598751386
 30
0.0
 10
9.500813864199999
 20
6.177139048451385
 30
0.0
 10
9.488213274599999
 20
6.163496330351386
 30
0.0
 10
9.477358658099999
 20
6.155966043551385
 30
0.0
 10
9.4712915716
 20
6.152463230451385
 30
0.0
  0
SPLINE
  5
370
330
204
100
AcDbEntity
  8
0
  6
Continuous
 62
     7
100
AcDbSpline
210
0.0
220
0.0
230
1.0
 70
     8
 71
     3
 72
    11
 73
     7
 74
     0
 42
0.0000000001
 43
0.0000000001
 40
0.0
 40
0.0
 40
0.0
 40
0.0
 40
0.2897757015
 40
0.5490693943000001
 40
0.7822254655
 40
1.0
 40
1.0
 40
1.0
 40
1.0
 10
9.275026169
 20
6.362209373951386
 30
0.0
 10
9.2784820393
 20
6.364204609651385
 30
0.0
 10
9.2853544129
 20
6.367475642251385
 30
0.0
 10
9.2959190966
 20
6.370024625851385
 30
0.0
 10
9.30583037
 20
6.369774735351386
 30
0.0
 10
9.3117980944
 20
6.367608163751386
 30
0.0
 10
9.3143952884
 20
6.366108707251385
 30
0.0
  0
SPLINE
  5
371
330
204
100
AcDbEntity
  8
0
  6
Continuous
 62
     7
100
AcDbSpline
210
0.0
220
0.0
230
1.0
 70
     8
 71
     3
 72
    15
 73
    11
 74
     0
 42
0.0000000001
 43
0.0000000001
 40
0.0
 40
0.0
 40
0.0
 40
0.0
 40
0.1141475829
 40
0.2373370756
 40
0.3669780685
 40
0.5000016033
 40
0.6330249151000001
 40
0.7626652568000001
 40
0.8858537230999999
 40
1.0
 40
1.0
 40
1.0
 40
1.0
 10
8.3257253482
 20
5.749842032151385
 30
0.0
 10
8.3257253482
 20
5.754242979851385
 30
0.0
 10
8.3265320184
 20
5.763401958551385
 30
0.0
 10
8.329744896000001
 20
5.777219077651386
 30
0.0
 10
8.3348941765
 20
5.791214412851386
 30
0.0
 10
8.341783555599999
 20
5.804862070651386
 30
0.0
 10
8.350158007999999
 20
5.817652297051385
 30
0.0
 10
8.3597035895
 20
5.829109356151385
 30
0.0
 10
8.370063018999999
 20
5.838800297451385
 30
0.0
 10
8.377591521099999
 20
5.844078331151385
 30
0.0
 10
8.381402815700001
 20
5.846278769951385
 30
0.0
  0
SPLINE
  5
372
330
204
100
AcDbEntity
  8
0
  6
Continuous
 62
     7
100
AcDbSpline
210
0.0
220
0.0
230
1.0
 70
     8
 71
     3
 72
    10
 73
     6
 74
     0
 42
0.0000000001
 43
0.0000000001
 40
0.0
 40
0.0
 40
0.0
 40
0.0
 40
0.4400185707000001
 40
0.7089636973000001
 40
1.0
 40
1.0
 40
1.0
 40
1.0
 10
9.883307890900001
 20
4.879495946451386
 30
0.0
 10
9.878852247000001
 20
4.876923494651385
 30
0.0
 10
9.870988539299998
 20
4.873924681651385
 30
0.0
 10
9.8595000013
 20
4.871703284651385
 30
0.0
 10
9.8529476032
 20
4.871219318151386
 30
0.0
 10
9.849544876799999
 20
4.871180456051385
 30
0.0
  0
SPLINE
  5
373
330
204
100
AcDbEntity
  8
0
  6
Continuous
 62
     7
100
AcDbSpline
210
0.0
220
0.0
230
1.0
 70
     8
 71
     3
 72
    19
 73
    15
 74
     0
 42
0.0000000001
 43
0.0000000001
 40
0.0
 40
0.0
 40
0.0
 40
0.0
 40
0.1149387396
 40
0.2566743925
 40
0.3351642409
 40
0.4163653418
 40
0.4979179794000001
 40
0.5770950618000001
 40
0.6516084467000001
 40
0.720086812
 40
0.8347113173
 40
0.9219252065
 40
0.9602743173999998
 40
1.0
 40
1.0
 40
1.0
 40
1.0
 10
8.530341374099998
 20
4.660906183451385
 30
0.0
 10
8.527087292899999
 20
4.659027449951385
 30
0.0
 10
8.519314659199999
 20
4.655689997051386
 30
0.0
 10
8.5085448316
 20
4.653358993651385
 30
0.0
 10
8.4987159591
 20
4.652517839751385
 30
0.0
 10
8.4908171164
 20
4.652600293151385
 30
0.0
 10
8.482939027
 20
4.653414237351385
 30
0.0
 10
8.475386593499999
 20
4.654933465451385
 30
0.0
 10
8.468450323999999
 20
4.657144367551386
 30
0.0
 10
8.4607536027
 20
4.660589746251386
 30
0.0
 10
8.453350695099999
 20
4.665628256651386
 30
0.0
 10
8.448466017999999
 20
4.672012799851385
 30
0.0
 10
8.4466424671
 20
4.677136597351385
 30
0.0
 10
8.446329890299999
 20
4.679698091451386
 30
0.0
 10
8.446329892499999
 20
4.680996771151385
 30
0.0
  0
SPLINE
  5
374
330
204
100
AcDbEntity
  8
0
  6
Continuous
 62
     7
100
AcDbSpline
210
0.0
220
0.0
230
1.0
 70
     8
 71
     3
 72
    11
 73
     7
 74
     0
 42
0.0000000001
 43
0.0000000001
 40
0.0
 40
0.0
 40
0.0
 40
0.0
 40
0.2867593703
 40
0.5497886751
 40
0.7885809494
 40
1.0
 40
1.0
 40
1.0
 40
1.0
 10
8.6094263582
 20
5.714632294551385
 30
0.0
 10
8.600160112100001
 20
5.716430139051386
 30
0.0
 10
8.5824886327
 20
5.720551311151385
 30
0.0
 10
8.558396317699999
 20
5.730719517451385
 30
0.0
 10
8.5393233597
 20
5.744810227451385
 30
0.0
 10
8.529922354099999
 20
5.756539756051385
 30
0.0
 10
8.526421411599999
 20
5.762554138651385
 30
0.0
  0
SPLINE
  5
375
330
204
100
AcDbEntity
  8
0
  6
Continuous
 62
     7
100
AcDbSpline
210
0.0
220
0.0
230
1.0
 70
     8
 71
     3
 72
    11
 73
     7
 74
     0
 42
0.0000000001
 43
0.0000000001
 40
0.0
 40
0.0
 40
0.0
 40
0.0
 40
0.2867593703
 40
0.5497886751
 40
0.7885809494
 40
1.0
 40
1.0
 40
1.0
 40
1.0
 10
8.9880362897
 20
5.496046693751386
 30
0.0
 10
8.9787700437
 20
5.497844538151385
 30
0.0
 10
8.9610985642
 20
5.501965710351385
 30
0.0
 10
8.937006249199999
 20
5.512133916651386
 30
0.0
 10
8.9179332913
 20
5.526224626651385
 30
0.0
 10
8.908532285699999
 20
5.537954155151386
 30
0.0
 10
8.905031343200001
 20
5.543968537851386
 30
0.0
  0
SPLINE
  5
376
330
204
100
AcDbEntity
  8
0
  6
Continuous
 62
     7
100
AcDbSpline
210
0.0
220
0.0
230
1.0
 70
     8
 71
     3
 72
    12
 73
     8
 74
     0
 42
0.0000000001
 43
0.0000000001
 40
0.0
 40
0.0
 40
0.0
 40
0.0
 40
0.1197235728
 40
0.2397374373
 40
0.4850166531000001
 40
0.7401092406
 40
1.0
 40
1.0
 40
1.0
 40
1.0
 10
9.2461417768
 20
6.206306007151385
 30
0.0
 10
9.246140698200001
 20
6.209069843351385
 30
0.0
 10
9.246673105299999
 20
6.214617880551386
 30
0.0
 10
9.2497596759
 20
6.225434454551385
 30
0.0
 10
9.2571465578
 20
6.237983638351385
 30
0.0
 10
9.269680007899999
 20
6.250447983951386
 30
0.0
 10
9.279574674199999
 20
6.257148988851386
 30
0.0
 10
9.2847705024
 20
6.260148783751386
 30
0.0
  0
SPLINE
  5
377
330
204
100
AcDbEntity
  8
0
  6
Continuous
 62
     7
100
AcDbSpline
210
0.0
220
0.0
230
1.0
 70
     8
 71
     3
 72
    11
 73
     7
 74
     0
 42
0.0000000001
 43
0.0000000001
 40
0.0
 40
0.0
 40
0.0
 40
0.0
 40
0.2177745345
 40
0.4509306057
 40
0.7102242985
 40
1.0
 40
1.0
 40
1.0
 40
1.0
 10
10.0660473584
 20
5.932151999651385
 30
0.0
 10
10.0634501644
 20
5.933651456151385
 30
0.0
 10
10.0574824401
 20
5.935818027851386
 30
0.0
 10
10.0475711666
 20
5.936067918251385
 30
0.0
 10
10.037006483
 20
5.933518934751385
 30
0.0
 10
10.0301341093
 20
5.930247902051386
 30
0.0
 10
10.026678239
 20
5.928252666351386
 30
0.0
  0
SPLINE
  5
378
330
204
100
AcDbEntity
  8
0
  6
Continuous
 62
     7
100
AcDbSpline
210
0.0
220
0.0
230
1.0
 70
     8
 71
     3
 72
    12
 73
     8
 74
     0
 42
0.0000000001
 43
0.0000000001
 40
0.0
 40
0.0
 40
0.0
 40
0.0
 40
0.1197235728
 40
0.2397374372
 40
0.4850166531000001
 40
0.7401092406
 40
1.0
 40
1.0
 40
1.0
 40
1.0
 10
8.898160757499999
 20
5.568225429551385
 30
0.0
 10
8.898159678999999
 20
5.570989265651386
 30
0.0
 10
8.8986920861
 20
5.576537302851385
 30
0.0
 10
8.901778656699999
 20
5.587353876851385
 30
0.0
 10
8.909165538599999
 20
5.599903060551385
 30
0.0
 10
8.921698988699999
 20
5.612367406151385
 30
0.0
 10
8.9315936549
 20
5.619068411051385
 30
0.0
 10
8.9367894831
 20
5.622068205951385
 30
0.0
  0
SPLINE
  5
379
330
204
100
AcDbEntity
  8
0
  6
Continuous
 62
     7
100
AcDbSpline
210
0.0
220
0.0
230
1.0
 70
     8
 71
     3
 72
    12
 73
     8
 74
     0
 42
0.0000000001
 43
0.0000000001
 40
0.0
 40
0.0
 40
0.0
 40
0.0
 40
0.1197235728
 40
0.2397374372
 40
0.4850166531000001
 40
0.7401092406
 40
1.0
 40
1.0
 40
1.0
 40
1.0
 10
8.519550825899999
 20
5.786811030351386
 30
0.0
 10
8.519549747399999
 20
5.789574866551386
 30
0.0
 10
8.5200821545
 20
5.795122903751386
 30
0.0
 10
8.523168725099999
 20
5.805939477751386
 30
0.0
 10
8.5305556071
 20
5.818488661451386
 30
0.0
 10
8.543089057099999
 20
5.830953006951386
 30
0.0
 10
8.5529837234
 20
5.837654011851386
 30
0.0
 10
8.5581795515
 20
5.840653806751386
 30
0.0
  0
SPLINE
  5
37A
330
204
100
AcDbEntity
  8
0
  6
Continuous
 62
     7
100
AcDbSpline
210
0.0
220
0.0
230
1.0
 70
     8
 71
     3
 72
    12
 73
     8
 74
     0
 42
0.0000000001
 43
0.0000000001
 40
0.0
 40
0.0
 40
0.0
 40
0.0
 40
0.1197235728
 40
0.2397374373
 40
0.4850166531000001
 40
0.7401092406
 40
1.0
 40
1.0
 40
1.0
 40
1.0
 10
9.624751708299999
 20
5.987720406351386
 30
0.0
 10
9.624750629799999
 20
5.990484242551386
 30
0.0
 10
9.6252830369
 20
5.996032279751385
 30
0.0
 10
9.628369607499999
 20
6.006848853751386
 30
0.0
 10
9.6357564894
 20
6.019398037451384
 30
0.0
 10
9.648289939499999
 20
6.031862383151385
 30
0.0
 10
9.6581846058
 20
6.038563388051385
 30
0.0
 10
9.6633804339
 20
6.041563182951385
 30
0.0
  0
SPLINE
  5
37B
330
204
100
AcDbEntity
  8
0
  6
Continuous
 62
     7
100
AcDbSpline
210
0.0
220
0.0
230
1.0
 70
     8
 71
     3
 72
    15
 73
    11
 74
     0
 42
0.0000000001
 43
0.0000000001
 40
0.0
 40
0.0
 40
0.0
 40
0.0
 40
0.1141462769
 40
0.2373347432
 40
0.3669750849
 40
0.4999983967000001
 40
0.6330219315
 40
0.7626629244
 40
0.8858524170999999
 40
1.0
 40
1.0
 40
1.0
 40
1.0
 10
9.1330548857
 20
5.412322062451385
 30
0.0
 10
9.129243591099999
 20
5.410121623651384
 30
0.0
 10
9.121715089
 20
5.404843589851385
 30
0.0
 10
9.1113556595
 20
5.395152648551385
 30
0.0
 10
9.101810078099999
 20
5.383695589451385
 30
0.0
 10
9.093435625599999
 20
5.370905363151385
 30
0.0
 10
9.086546246599999
 20
5.357257705351385
 30
0.0
 10
9.081396965999999
 20
5.343262370151386
 30
0.0
 10
9.0781840884
 20
5.329445250951385
 30
0.0
 10
9.077377418200001
 20
5.320286272251385
 30
0.0
 10
9.077377418200001
 20
5.315885324551385
 30
0.0
  0
SPLINE
  5
37C
330
204
100
AcDbEntity
  8
0
  6
Continuous
 62
     7
100
AcDbSpline
210
0.0
220
0.0
230
1.0
 70
     8
 71
     3
 72
    12
 73
     8
 74
     0
 42
0.0000000001
 43
0.0000000001
 40
0.0
 40
0.0
 40
0.0
 40
0.0
 40
0.1197235728
 40
0.2397374373
 40
0.4850166531000001
 40
0.7401092406
 40
1.0
 40
1.0
 40
1.0
 40
1.0
 10
9.1403577411
 20
5.708057088351385
 30
0.0
 10
9.1403566626
 20
5.710820924451385
 30
0.0
 10
9.1408890696
 20
5.716368961651386
 30
0.0
 10
9.143975640299998
 20
5.727185535751385
 30
0.0
 10
9.151362522199999
 20
5.739734719451385
 30
0.0
 10
9.1638959723
 20
5.752199065151386
 30
0.0
 10
9.173790638499999
 20
5.758900070051386
 30
0.0
 10
9.178986466699999
 20
5.761899864951385
 30
0.0
  0
SPLINE
  5
37D
330
204
100
AcDbEntity
  8
0
  6
Continuous
 62
     7
100
AcDbSpline
210
0.0
220
0.0
230
1.0
 70
     8
 71
     3
 72
    11
 73
     7
 74
     0
 42
0.0000000001
 43
0.0000000001
 40
0.0
 40
0.0
 40
0.0
 40
0.0
 40
0.1988413032
 40
0.4413660055000001
 40
0.7163878186
 40
1.0
 40
1.0
 40
1.0
 40
1.0
 10
9.2847705024
 20
6.260148783751386
 30
0.0
 10
9.292750310499998
 20
6.264755900651385
 30
0.0
 10
9.311601557699999
 20
6.273050292051385
 30
0.0
 10
9.344017992899999
 20
6.280892434151385
 30
0.0
 10
9.3812168593
 20
6.283520632251385
 30
0.0
 10
9.407141878699999
 20
6.280985568751386
 30
0.0
 10
9.4200440597
 20
6.278483530351386
 30
0.0
  0
SPLINE
  5
37E
330
204
100
AcDbEntity
  8
0
  6
Continuous
 62
     7
100
AcDbSpline
210
0.0
220
0.0
230
1.0
 70
     8
 71
     3
 72
     9
 73
     5
 74
     0
 42
0.0000000001
 43
0.0000000001
 40
0.0
 40
0.0
 40
0.0
 40
0.0
 40
0.4950101072999999
 40
1.0
 40
1.0
 40
1.0
 40
1.0
 10
9.503049183599999
 20
6.230562796051385
 30
0.0
 10
9.505160613300001
 20
6.226935695851385
 30
0.0
 10
9.508647344699999
 20
6.219108505351385
 30
0.0
 10
9.509921145999999
 20
6.210587521851385
 30
0.0
 10
9.5099203796
 20
6.206306006451386
 30
0.0
  0
SPLINE
  5
37F
330
204
100
AcDbEntity
  8
0
  6
Continuous
 62
     7
100
AcDbSpline
210
0.0
220
0.0
230
1.0
 70
     8
 71
     3
 72
    11
 73
     7
 74
     0
 42
0.0000000001
 43
0.0000000001
 40
0.0
 40
0.0
 40
0.0
 40
0.0
 40
0.1988413032
 40
0.4413660055000001
 40
0.7163878186
 40
1.0
 40
1.0
 40
1.0
 40
1.0
 10
9.6633804339
 20
6.041563182951385
 30
0.0
 10
9.6713602421
 20
6.046170299851385
 30
0.0
 10
9.690211489299999
 20
6.054464691251386
 30
0.0
 10
9.722627924500001
 20
6.062306833351385
 30
0.0
 10
9.7598267908
 20
6.064935031451386
 30
0.0
 10
9.785751810299998
 20
6.062399967951385
 30
0.0
 10
9.7986539913
 20
6.059897929551385
 30
0.0
  0
SPLINE
  5
380
330
204
100
AcDbEntity
  8
0
  6
Continuous
 62
     7
100
AcDbSpline
210
0.0
220
0.0
230
1.0
 70
     8
 71
     3
 72
     9
 73
     5
 74
     0
 42
0.0000000001
 43
0.0000000001
 40
0.0
 40
0.0
 40
0.0
 40
0.0
 40
0.4950101072999999
 40
1.0
 40
1.0
 40
1.0
 40
1.0
 10
9.881659115199999
 20
6.011977195251386
 30
0.0
 10
9.8837705449
 20
6.008350095051386
 30
0.0
 10
9.887257276199999
 20
6.000522904551385
 30
0.0
 10
9.888531077599999
 20
5.992001920951385
 30
0.0
 10
9.8885303112
 20
5.987720405651385
 30
0.0
  0
SPLINE
  5
381
330
204
100
AcDbEntity
  8
0
  6
Continuous
 62
     7
100
AcDbSpline
210
0.0
220
0.0
230
1.0
 70
     8
 71
     3
 72
    19
 73
    15
 74
     0
 42
0.0000000001
 43
0.0000000001
 40
0.0
 40
0.0
 40
0.0
 40
0.0
 40
0.1148772349
 40
0.2564574988
 40
0.4161017682
 40
0.5765898395
 40
0.6512385853
 40
0.7196064775
 40
0.780730686
 40
0.8344299738
 40
0.8811687165999998
 40
0.9219100042
 40
0.9603390170999999
 40
1.0
 40
1.0
 40
1.0
 40
1.0
 10
8.9367894831
 20
5.622068205951385
 30
0.0
 10
8.945508464899999
 20
5.627102082351385
 30
0.0
 10
8.9663353157
 20
5.636025056051385
 30
0.0
 10
9.002152464199999
 20
5.643845580151386
 30
0.0
 10
9.042805426099999
 20
5.645301908051385
 30
0.0
 10
9.077278687499999
 20
5.640203934551386
 30
0.0
 10
9.1026860028
 20
5.632169855351386
 30
0.0
 10
9.1190509274
 20
5.624829665451385
 30
0.0
 10
9.132784946699999
 20
5.616421095151386
 30
0.0
 10
9.1437203474
 20
5.607340471151385
 30
0.0
 10
9.151887607
 20
5.597967421951385
 30
0.0
 10
9.157584080899999
 20
5.588443091851385
 30
0.0
 10
9.1611118592
 20
5.578571127651386
 30
0.0
 10
9.161939982499999
 20
5.571701302951385
 30
0.0
 10
9.161939360399999
 20
5.568225429251386
 30
0.0
  0
SPLINE
  5
382
330
204
100
AcDbEntity
  8
0
  6
Continuous
 62
     7
100
AcDbSpline
210
0.0
220
0.0
230
1.0
 70
     8
 71
     3
 72
    19
 73
    15
 74
     0
 42
0.0000000001
 43
0.0000000001
 40
0.0
 40
0.0
 40
0.0
 40
0.0
 40
0.1148772349
 40
0.2564574988
 40
0.4161017682
 40
0.5765898395
 40
0.6512385853
 40
0.7196064775
 40
0.780730686
 40
0.8344299738
 40
0.8811687165999998
 40
0.9219100042
 40
0.9603390170999999
 40
1.0
 40
1.0
 40
1.0
 40
1.0
 10
8.5581795515
 20
5.840653806751386
 30
0.0
 10
8.566898533299999
 20
5.845687683251385
 30
0.0
 10
8.5877253841
 20
5.854610656951385
 30
0.0
 10
8.6235425327
 20
5.862431181051385
 30
0.0
 10
8.664195494600001
 20
5.863887508951385
 30
0.0
 10
8.698668755899999
 20
5.858789535451386
 30
0.0
 10
8.7240760712
 20
5.850755456151385
 30
0.0
 10
8.7404409958
 20
5.843415266251386
 30
0.0
 10
8.754175015199999
 20
5.835006696051385
 30
0.0
 10
8.7651104159
 20
5.825926072051386
 30
0.0
 10
8.773277675399999
 20
5.816553022751386
 30
0.0
 10
8.778974149399999
 20
5.807028692751385
 30
0.0
 10
8.7825019276
 20
5.797156728451385
 30
0.0
 10
8.7833300509
 20
5.790286903751386
 30
0.0
 10
8.7833294288
 20
5.786811030151386
 30
0.0
  0
SPLINE
  5
383
330
204
100
AcDbEntity
  8
0
  6
Continuous
 62
     7
100
AcDbSpline
210
0.0
220
0.0
230
1.0
 70
     8
 71
     3
 72
    19
 73
    15
 74
     0
 42
0.0000000001
 43
0.0000000001
 40
0.0
 40
0.0
 40
0.0
 40
0.0
 40
0.1148772349
 40
0.2564574988
 40
0.4161017682
 40
0.5765898395
 40
0.6512385853
 40
0.7196064775
 40
0.780730686
 40
0.8344299738
 40
0.8811687165999998
 40
0.9219100042
 40
0.9603390170999999
 40
1.0
 40
1.0
 40
1.0
 40
1.0
 10
8.800376535099999
 20
5.980485465751385
 30
0.0
 10
8.809095516900001
 20
5.985519342251385
 30
0.0
 10
8.8299223677
 20
5.994442315951385
 30
0.0
 10
8.865739516299999
 20
6.002262840051386
 30
0.0
 10
8.9063924782
 20
6.003719167951386
 30
0.0
 10
8.940865739500001
 20
5.998621194451385
 30
0.0
 10
8.9662730548
 20
5.990587115151386
 30
0.0
 10
8.982637979399999
 20
5.983246925251386
 30
0.0
 10
8.9963719988
 20
5.974838355051386
 30
0.0
 10
9.0073073995
 20
5.965757731051385
 30
0.0
 10
9.015474659
 20
5.956384681751385
 30
0.0
 10
9.021171132999999
 20
5.946860351751386
 30
0.0
 10
9.024698911199999
 20
5.936988387451385
 30
0.0
 10
9.025527034499999
 20
5.930118562751386
 30
0.0
 10
9.025526412399999
 20
5.926642689151385
 30
0.0
  0
SPLINE
  5
384
330
204
100
AcDbEntity
  8
0
  6
Continuous
 62
     7
100
AcDbSpline
210
0.0
220
0.0
230
1.0
 70
     8
 71
     3
 72
    19
 73
    15
 74
     0
 42
0.0000000001
 43
0.0000000001
 40
0.0
 40
0.0
 40
0.0
 40
0.0
 40
0.1148772349
 40
0.2564574988
 40
0.4161017682
 40
0.5765898395
 40
0.6512385853
 40
0.7196064775
 40
0.780730686
 40
0.8344299738
 40
0.8811687165999998
 40
0.9219100042
 40
0.9603390170999999
 40
1.0
 40
1.0
 40
1.0
 40
1.0
 10
9.042573518699999
 20
6.120317124751385
 30
0.0
 10
9.051292500499998
 20
6.125351001251386
 30
0.0
 10
9.072119351299999
 20
6.134273974951385
 30
0.0
 10
9.1079364999
 20
6.142094499051386
 30
0.0
 10
9.1485894618
 20
6.143550826951385
 30
0.0
 10
9.1830627232
 20
6.138452853451385
 30
0.0
 10
9.208470038499999
 20
6.130418774151386
 30
0.0
 10
9.224834962999999
 20
6.123078584251386
 30
0.0
 10
9.2385689824
 20
6.114670014051386
 30
0.0
 10
9.249504383099999
 20
6.105589390051386
 30
0.0
 10
9.2576716427
 20
6.096216340751385
 30
0.0
 10
9.263368116599998
 20
6.086692010751385
 30
0.0
 10
9.266895894899999
 20
6.076820046451386
 30
0.0
 10
9.267724018099999
 20
6.069950221751385
 30
0.0
 10
9.267723396
 20
6.066474348151385
 30
0.0
  0
SPLINE
  5
385
330
204
100
AcDbEntity
  8
0
  6
Continuous
 62
     7
100
AcDbSpline
210
0.0
220
0.0
230
1.0
 70
     8
 71
     3
 72
    19
 73
    15
 74
     0
 42
0.0000000001
 43
0.0000000001
 40
0.0
 40
0.0
 40
0.0
 40
0.0
 40
0.1148772349
 40
0.2564574988
 40
0.4161017682
 40
0.5765898395
 40
0.6512385853
 40
0.7196064775
 40
0.780730686
 40
0.8344299738
 40
0.8811687165999998
 40
0.9219100042
 40
0.9603390170999999
 40
1.0
 40
1.0
 40
1.0
 40
1.0
 10
9.421183450299999
 20
5.901731523951386
 30
0.0
 10
9.4299024321
 20
5.906765400351385
 30
0.0
 10
9.450729282899999
 20
5.915688374051386
 30
0.0
 10
9.486546431499998
 20
5.923508898151386
 30
0.0
 10
9.5271993934
 20
5.924965226151384
 30
0.0
 10
9.5616726547
 20
5.919867252551386
 30
0.0
 10
9.587079969999999
 20
5.911833173351385
 30
0.0
 10
9.6034448946
 20
5.904492983451385
 30
0.0
 10
9.617178914
 20
5.896084413151386
 30
0.0
 10
9.628114314699999
 20
5.887003789151386
 30
0.0
 10
9.636281574199999
 20
5.877630739951385
 30
0.0
 10
9.6419780482
 20
5.868106409851385
 30
0.0
 10
9.645505826399999
 20
5.858234445651385
 30
0.0
 10
9.6463339497
 20
5.851364620951385
 30
0.0
 10
9.6463333276
 20
5.847888747251385
 30
0.0
  0
SPLINE
  5
386
330
204
100
AcDbEntity
  8
0
  6
Continuous
 62
     7
100
AcDbSpline
210
0.0
220
0.0
230
1.0
 70
     8
 71
     3
 72
    19
 73
    15
 74
     0
 42
0.0000000001
 43
0.0000000001
 40
0.0
 40
0.0
 40
0.0
 40
0.0
 40
0.1148772349
 40
0.2564574988
 40
0.4161017682
 40
0.5765898395
 40
0.6512385853
 40
0.7196064775
 40
0.780730686
 40
0.8344299738
 40
0.8811687165999998
 40
0.9219100042
 40
0.9603390170999999
 40
1.0
 40
1.0
 40
1.0
 40
1.0
 10
9.178986466699999
 20
5.761899864951385
 30
0.0
 10
9.1877054485
 20
5.766933741351386
 30
0.0
 10
9.208532299299999
 20
5.775856715051386
 30
0.0
 10
9.244349447799999
 20
5.783677239151385
 30
0.0
 10
9.2850024097
 20
5.785133567151385
 30
0.0
 10
9.319475671099999
 20
5.780035593551385
 30
0.0
 10
9.3448829864
 20
5.772001514351385
 30
0.0
 10
9.361247910999999
 20
5.764661324451386
 30
0.0
 10
9.3749819303
 20
5.756252754151385
 30
0.0
 10
9.385917331099999
 20
5.747172130151386
 30
0.0
 10
9.394084590599998
 20
5.737799080951385
 30
0.0
 10
9.3997810646
 20
5.728274750851385
 30
0.0
 10
9.403308842799999
 20
5.718402786651386
 30
0.0
 10
9.404136966099999
 20
5.711532961951386
 30
0.0
 10
9.404136343999999
 20
5.708057088251385
 30
0.0
  0
SPLINE
  5
387
330
204
100
AcDbEntity
  8
0
  6
Continuous
 62
     7
100
AcDbSpline
210
0.0
220
0.0
230
1.0
 70
     8
 71
     3
 72
    14
 73
    10
 74
     0
 42
0.0000000001
 43
0.0000000001
 40
0.0
 40
0.0
 40
0.0
 40
0.0
 40
0.291465895
 40
0.4294308513000001
 40
0.5600426345000001
 40
0.6821488157
 40
0.7953172899
 40
0.9004911660999999
 40
1.0
 40
1.0
 40
1.0
 40
1.0
 10
9.420044765
 20
6.278484742551386
 30
0.0
 10
9.42940538
 20
6.276668588651385
 30
0.0
 10
9.4429610896
 20
6.272625255151385
 30
0.0
 10
9.459792853299999
 20
6.265370358451385
 30
0.0
 10
9.471132580199999
 20
6.259443169851385
 30
0.0
 10
9.481268634199999
 20
6.253049285551385
 30
0.0
 10
9.490087955299999
 20
6.246210152351385
 30
0.0
 10
9.4974689721
 20
6.238840564451385
 30
0.0
 10
9.501412016799999
 20
6.233376347251385
 30
0.0
 10
9.503049711499999
 20
6.230562898551385
 30
0.0
  0
SPLINE
  5
388
330
204
100
AcDbEntity
  8
0
  6
Continuous
 62
     7
100
AcDbSpline
210
0.0
220
0.0
230
1.0
 70
     8
 71
     3
 72
    12
 73
     8
 74
     0
 42
0.0000000001
 43
0.0000000001
 40
0.0
 40
0.0
 40
0.0
 40
0.0
 40
0.1197235728
 40
0.2397374373
 40
0.4850166531000001
 40
0.7401092406
 40
1.0
 40
1.0
 40
1.0
 40
1.0
 10
9.3825547247
 20
5.847888747351385
 30
0.0
 10
9.382553646199999
 20
5.850652583551385
 30
0.0
 10
9.383086053299999
 20
5.856200620751385
 30
0.0
 10
9.3861726239
 20
5.867017194751385
 30
0.0
 10
9.3935595058
 20
5.879566378451385
 30
0.0
 10
9.4060929559
 20
5.892030724151386
 30
0.0
 10
9.415987622100001
 20
5.898731729051386
 30
0.0
 10
9.421183450299999
 20
5.901731523951386
 30
0.0
  0
SPLINE
  5
389
330
204
100
AcDbEntity
  8
0
  6
Continuous
 62
     7
100
AcDbSpline
210
0.0
220
0.0
230
1.0
 70
     8
 71
     3
 72
    12
 73
     8
 74
     0
 42
0.0000000001
 43
0.0000000001
 40
0.0
 40
0.0
 40
0.0
 40
0.0
 40
0.1197235728
 40
0.2397374373
 40
0.4850166531000001
 40
0.7401092406
 40
1.0
 40
1.0
 40
1.0
 40
1.0
 10
9.003944793099998
 20
6.066474348151385
 30
0.0
 10
9.0039437146
 20
6.069238184351386
 30
0.0
 10
9.004476121699999
 20
6.074786221551386
 30
0.0
 10
9.0075626923
 20
6.085602795551386
 30
0.0
 10
9.014949574199999
 20
6.098151979351386
 30
0.0
 10
9.027483024299998
 20
6.110616324951385
 30
0.0
 10
9.037377690599999
 20
6.117317329851385
 30
0.0
 10
9.042573518699999
 20
6.120317124751385
 30
0.0
  0
SPLINE
  5
38A
330
204
100
AcDbEntity
  8
0
  6
Continuous
 62
     7
100
AcDbSpline
210
0.0
220
0.0
230
1.0
 70
     8
 71
     3
 72
    14
 73
    10
 74
     0
 42
0.0000000001
 43
0.0000000001
 40
0.0
 40
0.0
 40
0.0
 40
0.0
 40
0.291465895
 40
0.4294308513000001
 40
0.5600426345000001
 40
0.6821488157
 40
0.7953172899
 40
0.9004911660999999
 40
1.0
 40
1.0
 40
1.0
 40
1.0
 10
9.798654696499999
 20
6.059899141751386
 30
0.0
 10
9.8080153116
 20
6.058082987751386
 30
0.0
 10
9.8215710211
 20
6.054039654251385
 30
0.0
 10
9.838402784899999
 20
6.046784757551386
 30
0.0
 10
9.849742511799998
 20
6.040857568951386
 30
0.0
 10
9.8598785658
 20
6.034463684751385
 30
0.0
 10
9.868697886899999
 20
6.027624551451386
 30
0.0
 10
9.876078903699999
 20
6.020254963551385
 30
0.0
 10
9.880021948399999
 20
6.014790746351386
 30
0.0
 10
9.881659643099999
 20
6.011977297651386
 30
0.0
  0
SPLINE
  5
38B
330
204
100
AcDbEntity
  8
0
  6
Continuous
 62
     7
100
AcDbSpline
210
0.0
220
0.0
230
1.0
 70
     8
 71
     3
 72
    12
 73
     8
 74
     0
 42
0.0000000001
 43
0.0000000001
 40
0.0
 40
0.0
 40
0.0
 40
0.0
 40
0.1197235728
 40
0.2397374373
 40
0.4850166531000001
 40
0.7401092406
 40
1.0
 40
1.0
 40
1.0
 40
1.0
 10
8.7617478095
 20
5.926642689151385
 30
0.0
 10
8.761746731
 20
5.929406525351385
 30
0.0
 10
8.7622791381
 20
5.934954562551386
 30
0.0
 10
8.765365708699999
 20
5.945771136551385
 30
0.0
 10
8.772752590599999
 20
5.958320320351385
 30
0.0
 10
8.7852860407
 20
5.970784665951385
 30
0.0
 10
8.795180707
 20
5.977485670851385
 30
0.0
 10
8.800376535099999
 20
5.980485465751385
 30
0.0
  0
SPLINE
  5
38C
330
204
100
AcDbEntity
  8
0
  6
Continuous
 62
     7
100
AcDbSpline
210
0.0
220
0.0
230
1.0
 70
     8
 71
     3
 72
    15
 73
    11
 74
     0
 42
0.0000000001
 43
0.0000000001
 40
0.0
 40
0.0
 40
0.0
 40
0.0
 40
0.1190358554
 40
0.2432198986
 40
0.3707467529
 40
0.4999988441
 40
0.6292509422000001
 40
0.756778614
 40
0.8809637862999998
 40
1.0
 40
1.0
 40
1.0
 40
1.0
 10
5.1194394368
 20
4.9395242526
 30
0.0
 10
5.114780560299999
 20
4.9395242526
 30
0.0
 10
5.1052619076
 20
4.939323811499999
 30
0.0
 10
5.090760250799999
 20
4.9388318693
 30
0.0
 10
5.075855335299999
 20
4.93841391
 30
0.0
 10
5.060746456
 20
4.938260076699999
 30
0.0
 10
5.045637545599999
 20
4.938413942699999
 30
0.0
 10
5.030732552199999
 20
4.9388318473
 30
0.0
 10
5.0162308062
 20
4.9393238307
 30
0.0
 10
5.0067120949
 20
4.9395242526
 30
0.0
 10
5.0020532044
 20
4.9395242526
 30
0.0
  0
SPLINE
  5
38D
330
204
100
AcDbEntity
  8
0
  6
Continuous
 62
     7
100
AcDbSpline
210
0.0
220
0.0
230
1.0
 70
     8
 71
     3
 72
    15
 73
    11
 74
     0
 42
0.0000000001
 43
0.0000000001
 40
0.0
 40
0.0
 40
0.0
 40
0.0
 40
0.1190358554
 40
0.2432198986
 40
0.3707467529
 40
0.4999988441
 40
0.6292509422000001
 40
0.756778614
 40
0.8809637862999998
 40
1.0
 40
1.0
 40
1.0
 40
1.0
 10
4.584006365899999
 20
4.9395242526
 30
0.0
 10
4.579347489399999
 20
4.9395242526
 30
0.0
 10
4.5698288368
 20
4.939323811499999
 30
0.0
 10
4.555327179899999
 20
4.9388318693
 30
0.0
 10
4.5404222644
 20
4.93841391
 30
0.0
 10
4.525313385099999
 20
4.938260076699999
 30
0.0
 10
4.5102044747
 20
4.938413942699999
 30
0.0
 10
4.4952994813
 20
4.9388318473
 30
0.0
 10
4.480797735299999
 20
4.9393238307
 30
0.0
 10
4.4712790241
 20
4.9395242526
 30
0.0
 10
4.4666201335
 20
4.9395242526
 30
0.0
  0
DIMENSION
  5
473
330
204
100
AcDbEntity
  8
0
100
AcDbDimension
  2
*D5
 10
5.462321123750001
 20
5.4395252526
 30
0.0
 11
4.793029785150001
 21
5.4395252526
 31
0.0
 70
    32
  1
<>[]
 71
     5
 42
1.338582677199999
  3
STANDARD$0
100
AcDbAlignedDimension
 13
4.123738446550001
 23
4.825351024299999
 33
0.0
 14
5.462321123750001
 24
4.825351024299999
 34
0.0
100
AcDbRotatedDimension
1001
ACAD
1000
DSTYLE
1002
{
1070
    42
1040
0.06875
1070
    43
1040
0.418
1070
    44
1040
0.198
1070
    47
1040
0.0
1070
    48
1040
0.0
1070
    78
1070
     0
1070
   141
1040
0.099
1070
   170
1070
     1
1070
   272
1070
     4
1070
   284
1070
     0
1002
}
  0
DIMENSION
  5
474
330
204
100
AcDbEntity
  8
0
100
AcDbDimension
  2
*D6
 10
6.07935657826055
 20
3.608815591199999
 30
0.0
 11
6.079356578260549
 21
4.274169921900001
 31
0.0
 70
    32
  1
<>\P[]
 71
     5
 42
1.330708661399999
  3
STANDARD$0
100
AcDbAlignedDimension
 13
5.57935657826055
 23
4.9395242526
 33
0.0
 14
5.57935657826055
 24
3.608815591199999
 34
0.0
 50
90.00000000000005
100
AcDbRotatedDimension
1001
ACAD
1000
DSTYLE
1002
{
1070
    42
1040
0.06875
1070
    43
1040
0.418
1070
    44
1040
0.198
1070
    47
1040
0.0
1070
    48
1040
0.0
1070
    78
1070
     0
1070
   141
1040
0.099
1070
   170
1070
     1
1070
   272
1070
     4
1002
}
  0
DIMENSION
  5
4B7
330
204
100
AcDbEntity
  8
0
100
AcDbDimension
  2
*D9
 10
3.1516089252
 20
1.21205631765
 30
0.0
 11
3.151608925199999
 21
1.88134765625
 31
0.0
 70
    32
  1
<>\P[]
 71
     5
 42
1.338582677199999
  3
STANDARD$0
100
AcDbAlignedDimension
 13
2.6516089252
 23
2.550638994849999
 33
0.0
 14
2.6516089252
 24
1.21205631765
 34
0.0
 50
90.00000000000005
100
AcDbRotatedDimension
1001
ACAD
1000
DSTYLE
1002
{
1070
    42
1040
0.06875
1070
    43
1040
0.418
1070
    44
1040
0.198
1070
    47
1040
0.0
1070
    48
1040
0.0
1070
    78
1070
     0
1070
   141
1040
0.099
1070
   170
1070
     1
1070
   272
1070
     4
1070
   284
1070
     0
1002
}
  0
ENDSEC
  0
SECTION
  2
OBJECTS
  0
DICTIONARY
  5
C
330
0
100
AcDbDictionary
281
     1
  3
ACAD_COLOR
350
393
  3
ACAD_GROUP
350
D
  3
ACAD_LAYOUT
350
1A
  3
ACAD_MATERIAL
350
392
  3
ACAD_MLINESTYLE
350
17
  3
ACAD_PLOTSETTINGS
350
19
  3
ACAD_PLOTSTYLENAME
350
E
  3
ACAD_TABLESTYLE
350
394
  3
AcDbVariableDictionary
350
4D1
  3
AcmDictionary
350
3F1
  3
AMG
350
399
  3
AMGSNAPSETTINGS
350
46B
  0
DICTIONARY
  5
393
102
{ACAD_REACTORS
330
C
102
}
330
C
100
AcDbDictionary
281
     1
  0
DICTIONARY
  5
D
102
{ACAD_REACTORS
330
C
102
}
330
C
100
AcDbDictionary
281
     1
  0
DICTIONARY
  5
1A
102
{ACAD_REACTORS
330
C
102
}
330
C
100
AcDbDictionary
281
     1
  3
Layout1
350
38F
  3
Model
350
38E
  0
DICTIONARY
  5
392
102
{ACAD_REACTORS
330
C
102
}
330
C
100
AcDbDictionary
281
     1
  0
DICTIONARY
  5
17
102
{ACAD_REACTORS
330
C
102
}
330
C
100
AcDbDictionary
281
     1
  3
Standard
350
18
  0
DICTIONARY
  5
19
102
{ACAD_REACTORS
330
C
102
}
330
C
100
AcDbDictionary
281
     1
  0
ACDBDICTIONARYWDFLT
  5
E
102
{ACAD_REACTORS
330
C
102
}
330
C
100
AcDbDictionary
281
     1
  3
Normal
350
F
100
AcDbDictionaryWithDefault
340
F
  0
DICTIONARY
  5
394
102
{ACAD_REACTORS
330
C
102
}
330
C
100
AcDbDictionary
281
     1
  3
Standard
350
395
  0
DICTIONARY
  5
4D1
102
{ACAD_REACTORS
330
C
102
}
330
C
100
AcDbDictionary
281
     1
  3
CTABLESTYLE
350
4D2
  0
DICTIONARY
  5
3F1
102
{ACAD_REACTORS
330
C
102
}
330
C
100
AcDbDictionary
281
     1
  3
AcmStdDictionary
350
3FC
  3
AMDTSECTSYM_ARROWCOLOR
350
41B
  0
DICTIONARY
  5
399
102
{ACAD_REACTORS
330
C
102
}
330
C
100
AcDbDictionary
281
     1
  0
DICTIONARY
  5
46B
102
{ACAD_REACTORS
330
C
102
}
330
C
100
AcDbDictionary
281
     1
  0
LAYOUT
  5
38F
102
{ACAD_REACTORS
330
1A
102
}
330
1A
100
AcDbPlotSettings
  1

  2
none_device
  4
ANSI_A_(11.00_x_8.50_Inches)
  6

 40
0.0
 41
0.0
 42
0.0
 43
0.0
 44
279.4
 45
215.9
 46
0.0
 47
0.0
 48
0.0
 49
0.0
140
0.0
141
0.0
142
1.0
143
1.0
 70
     0
 72
     0
 73
     0
 74
     0
  7

 75
     0
147
1.0
 76
     0
 77
     2
 78
   300
148
0.0
149
0.0
100
AcDbLayout
  1
Layout1
 70
     1
 71
     1
 10
0.0
 20
0.0
 11
12.0
 21
9.0
 12
0.0
 22
0.0
 32
0.0
 14
1.000000000000000E+20
 24
1.000000000000000E+20
 34
1.000000000000000E+20
 15
-1.000000000000000E+20
 25
-1.000000000000000E+20
 35
-1.000000000000000E+20
146
0.0
 13
0.0
 23
0.0
 33
0.0
 16
1.0
 26
0.0
 36
0.0
 17
0.0
 27
1.0
 37
0.0
 76
     0
330
205
  0
LAYOUT
  5
38E
102
{ACAD_REACTORS
330
1A
102
}
330
1A
100
AcDbPlotSettings
  1

  2
none_device
  4
ANSI_A_(11.00_x_8.50_Inches)
  6

 40
0.0
 41
0.0
 42
0.0
 43
0.0
 44
279.4
 45
215.9
 46
0.0
 47
0.0
 48
0.0
 49
0.0
140
0.0
141
0.0
142
1.0
143
1.0
 70
  1024
 72
     0
 73
     0
 74
     0
  7

 75
     0
147
1.0
 76
     0
 77
     2
 78
   300
148
0.0
149
0.0
100
AcDbLayout
  1
Model
 70
     0
 71
     0
 10
0.0
 20
0.0
 11
11.0
 21
8.5
 12
0.0
 22
0.0
 32
0.0
 14
0.0
 24
0.0
 34
0.0
 15
0.0
 25
0.0
 35
0.0
146
0.0
 13
0.0
 23
0.0
 33
0.0
 16
1.0
 26
0.0
 36
0.0
 17
0.0
 27
1.0
 37
0.0
 76
     0
330
204
  0
MLINESTYLE
  5
18
102
{ACAD_REACTORS
330
17
102
}
330
17
100
AcDbMlineStyle
  2
STANDARD
 70
     0
  3

 62
   256
 51
90.0
 52
90.0
 71
     2
 49
0.5
 62
   256
  6
BYLAYER
 49
-0.5
 62
   256
  6
BYLAYER
  0
ACDBPLACEHOLDER
  5
F
102
{ACAD_REACTORS
330
E
102
}
330
E
  0
TABLESTYLE
  5
395
102
{ACAD_REACTORS
330
394
102
}
330
394
100
AcDbTableStyle
  3
Standard
 70
     0
 71
     0
 40
0.06
 41
0.06
280
     0
281
     0
  7
STANDARD
140
0.18
170
     2
 62
     0
 63
     7
283
     0
274
    -2
284
     1
 64
     0
275
    -2
285
     1
 65
     0
276
    -2
286
     1
 66
     0
277
    -2
287
     1
 67
     0
278
    -2
288
     1
 68
     0
279
    -2
289
     1
 69
     0
  7
STANDARD
140
0.25
170
     5
 62
     0
 63
     7
283
     0
274
    -2
284
     1
 64
     0
275
    -2
285
     1
 65
     0
276
    -2
286
     1
 66
     0
277
    -2
287
     1
 67
     0
278
    -2
288
     1
 68
     0
279
    -2
289
     1
 69
     0
  7
STANDARD
140
0.18
170
     5
 62
     0
 63
     7
283
     0
274
    -2
284
     1
 64
     0
275
    -2
285
     1
 65
     0
276
    -2
286
     1
 66
     0
277
    -2
287
     1
 67
     0
278
    -2
288
     1
 68
     0
279
    -2
289
     1
 69
     0
  0
DICTIONARYVAR
  5
4D2
102
{ACAD_REACTORS
330
4D1
102
}
330
4D1
100
DictionaryVariables
280
     0
  1
STANDARD
  0
DICTIONARY
  5
3FC
102
{ACAD_REACTORS
330
3F1
102
}
330
3F1
100
AcDbDictionary
281
     1
  0
XRECORD
  5
41B
102
{ACAD_REACTORS
330
3F1
102
}
330
3F1
100
AcDbXrecord
280
     1
 90
-1023410169
  0
ENDSEC
  0
EOF
